  0
SECTION
  2
HEADER
  9
$ACADVER
  1
AC1014
  9
$ACADMAINTVER
 70
     9
  9
$DWGCODEPAGE
  3
ANSI_932
  9
$INSBASE
 10
0.0
 20
0.0
 30
0.0
  9
$EXTMIN
 10
-0.5
 20
-0.5
 30
-0.5
  9
$EXTMAX
 10
5.0
 20
5.0
 30
5.0
  9
$LIMMIN
 10
-0.5
 20
-0.5
  9
$LIMMAX
 10
5.0
 20
5.0
  9
$ORTHOMODE
 70
     0
  9
$REGENMODE
 70
     1
  9
$FILLMODE
 70
     1
  9
$QTEXTMODE
 70
     0
  9
$MIRRTEXT
 70
     1
  9
$DRAGMODE
 70
     2
  9
$LTSCALE
 40
1.0
  9
$OSMODE
 70
    37
  9
$ATTMODE
 70
     1
  9
$TEXTSIZE
 40
0.2
  9
$TRACEWID
 40
0.05
  9
$TEXTSTYLE
  7
STANDARD
  9
$CLAYER
  8
0
  9
$CELTYPE
  6
BYLAYER
  9
$CECOLOR
 62
   256
  9
$CELTSCALE
 40
1.0
  9
$DELOBJ
 70
     1
  9
$DISPSILH
 70
     0
  9
$DIMSCALE
 40
1.0
  9
$DIMASZ
 40
0.18
  9
$DIMEXO
 40
0.0625
  9
$DIMDLI
 40
0.38
  9
$DIMRND
 40
0.0
  9
$DIMDLE
 40
0.0
  9
$DIMEXE
 40
0.18
  9
$DIMTP
 40
0.0
  9
$DIMTM
 40
0.0
  9
$DIMTXT
 40
0.18
  9
$DIMCEN
 40
0.09
  9
$DIMTSZ
 40
0.0
  9
$DIMTOL
 70
     0
  9
$DIMLIM
 70
     0
  9
$DIMTIH
 70
     1
  9
$DIMTOH
 70
     1
  9
$DIMSE1
 70
     0
  9
$DIMSE2
 70
     0
  9
$DIMTAD
 70
     0
  9
$DIMZIN
 70
     0
  9
$DIMBLK
  1

  9
$DIMASO
 70
     1
  9
$DIMSHO
 70
     1
  9
$DIMPOST
  1

  9
$DIMAPOST
  1

  9
$DIMALT
 70
     0
  9
$DIMALTD
 70
     2
  9
$DIMALTF
 40
25.4
  9
$DIMLFAC
 40
1.0
  9
$DIMTOFL
 70
     0
  9
$DIMTVP
 40
0.0
  9
$DIMTIX
 70
     0
  9
$DIMSOXD
 70
     0
  9
$DIMSAH
 70
     0
  9
$DIMBLK1
  1

  9
$DIMBLK2
  1

  9
$DIMSTYLE
  2
STANDARD
  9
$DIMCLRD
 70
     0
  9
$DIMCLRE
 70
     0
  9
$DIMCLRT
 70
     0
  9
$DIMTFAC
 40
1.0
  9
$DIMGAP
 40
0.09
  9
$DIMJUST
 70
     0
  9
$DIMSD1
 70
     0
  9
$DIMSD2
 70
     0
  9
$DIMTOLJ
 70
     1
  9
$DIMTZIN
 70
     0
  9
$DIMALTZ
 70
     0
  9
$DIMALTTZ
 70
     0
  9
$DIMFIT
 70
     3
  9
$DIMUPT
 70
     0
  9
$DIMUNIT
 70
     2
  9
$DIMDEC
 70
     4
  9
$DIMTDEC
 70
     4
  9
$DIMALTU
 70
     2
  9
$DIMALTTD
 70
     2
  9
$DIMTXSTY
  7
STANDARD
  9
$DIMAUNIT
 70
     0
  9
$LUNITS
 70
     2
  9
$LUPREC
 70
     4
  9
$SKETCHINC
 40
0.1
  9
$FILLETRAD
 40
0.5
  9
$AUNITS
 70
     0
  9
$AUPREC
 70
     0
  9
$MENU
  1
.
  9
$ELEVATION
 40
0.0
  9
$PELEVATION
 40
0.0
  9
$THICKNESS
 40
0.0
  9
$LIMCHECK
 70
     0
  9
$CHAMFERA
 40
0.5
  9
$CHAMFERB
 40
0.5
  9
$CHAMFERC
 40
1.0
  9
$CHAMFERD
 40
0.0
  9
$SKPOLY
 70
     0
  9
$TDCREATE
 40
2457355.647606759
  9
$TDUPDATE
 40
2457355.647606771
  9
$TDINDWG
 40
0.0000000116
  9
$TDUSRTIMER
 40
0.0000000116
  9
$USRTIMER
 70
     1
  9
$ANGBASE
 50
0.0
  9
$ANGDIR
 70
     0
  9
$PDMODE
 70
     0
  9
$PDSIZE
 40
0.0
  9
$PLINEWID
 40
0.0
  9
$COORDS
 70
     1
  9
$SPLFRAME
 70
     0
  9
$SPLINETYPE
 70
     6
  9
$SPLINESEGS
 70
     8
  9
$ATTDIA
 70
     0
  9
$ATTREQ
 70
     1
  9
$HANDLING
 70
     1
  9
$HANDSEED
  5
4DB
  9
$SURFTAB1
 70
     6
  9
$SURFTAB2
 70
     6
  9
$SURFTYPE
 70
     6
  9
$SURFU
 70
     6
  9
$SURFV
 70
     6
  9
$UCSNAME
  2

  9
$UCSORG
 10
0.0
 20
0.0
 30
0.0
  9
$UCSXDIR
 10
1.0
 20
0.0
 30
0.0
  9
$UCSYDIR
 10
0.0
 20
1.0
 30
0.0
  9
$PUCSNAME
  2

  9
$PUCSORG
 10
0.0
 20
0.0
 30
0.0
  9
$PUCSXDIR
 10
1.0
 20
0.0
 30
0.0
  9
$PUCSYDIR
 10
0.0
 20
1.0
 30
0.0
  9
$USERI1
 70
     0
  9
$USERI2
 70
     0
  9
$USERI3
 70
     0
  9
$USERI4
 70
     0
  9
$USERI5
 70
     0
  9
$USERR1
 40
0.0
  9
$USERR2
 40
0.0
  9
$USERR3
 40
0.0
  9
$USERR4
 40
0.0
  9
$USERR5
 40
0.0
  9
$WORLDVIEW
 70
     1
  9
$SHADEDGE
 70
     3
  9
$SHADEDIF
 70
    70
  9
$TILEMODE
 70
     1
  9
$MAXACTVP
 70
    64
  9
$PINSBASE
 10
0.0
 20
0.0
 30
0.0
  9
$PLIMCHECK
 70
     0
  9
$PEXTMIN
 10
-0.5
 20
-0.5
 30
-0.5
  9
$PEXTMAX
 10
5.0
 20
5.0
 30
5.0
  9
$PLIMMIN
 10
-0.5
 20
-0.5
  9
$PLIMMAX
 10
5.0
 20
5.0
  9
$UNITMODE
 70
     0
  9
$VISRETAIN
 70
     1
  9
$PLINEGEN
 70
     0
  9
$PSLTSCALE
 70
     1
  9
$TREEDEPTH
 70
  3020
  9
$PICKSTYLE
 70
     1
  9
$CMLSTYLE
  2
STANDARD
  9
$CMLJUST
 70
     0
  9
$CMLSCALE
 40
1.0
  9
$PROXYGRAPHICS
 70
     1
  9
$MEASUREMENT
 70
     1
  0
ENDSEC
  0
SECTION
  2
CLASSES
  0
CLASS
  1
ACDBDICTIONARYWDFLT
  2
AcDbDictionaryWithDefault
  3
ObjectDBX Classes
 90
        0
280
     0
281
     0
  0
CLASS
  1
VISUALSTYLE
  2
AcDbVisualStyle
  3
ObjectDBX Classes
 90
     4095
280
     0
281
     0
  0
CLASS
  1
MATERIAL
  2
AcDbMaterial
  3
ObjectDBX Classes
 90
     1153
280
     0
281
     0
  0
CLASS
  1
DICTIONARYVAR
  2
AcDbDictionaryVar
  3
ObjectDBX Classes
 90
        0
280
     0
281
     0
  0
CLASS
  1
XRECORD
  2
AcDbXrecord
  3
AutoCAD 2000
 90
        0
280
     0
281
     0
  0
CLASS
  1
LWPOLYLINE
  2
AcDbPolyline
  3
AutoCAD 2000
 90
        0
280
     0
281
     1
  0
CLASS
  1
HATCH
  2
AcDbHatch
  3
AutoCAD 2000
 90
        0
280
     0
281
     1
  0
CLASS
  1
ACDBPLACEHOLDER
  2
AcDbPlaceHolder
  3
ObjectDBX Classes
 90
        0
280
     0
281
     0
  0
CLASS
  1
LAYOUT
  2
AcDbLayout
  3
ObjectDBX Classes
 90
        0
280
     0
281
     0
  0
ENDSEC
  0
SECTION
  2
TABLES
  0
TABLE
  2
VPORT
  5
8
330
0
100
AcDbSymbolTable
 70
    17
  0
VPORT
  5
29
330
8
100
AcDbSymbolTableRecord
100
AcDbViewportTableRecord
  2
DUMMY
 70
     0
 10
0.0
 20
0.0
 11
1.0
 21
1.0
 12
10.429907
 22
4.5
 13
0.0
 23
0.0
 14
0.5
 24
0.5
 15
0.5
 25
0.5
 16
0.0
 26
0.0
 36
1.0
 17
0.0
 27
0.0
 37
0.0
 40
9.0
 41
1.972973
 42
50.0
 43
0.0
 44
0.0
 50
0.0
 51
0.0
 71
     0
 72
   100
 73
     1
 74
     3
 75
     0
 76
     0
 77
     0
 78
     0
  0
VPORT
  5
4A0
330
8
100
AcDbSymbolTableRecord
100
AcDbViewportTableRecord
  2
*ACTIVE
 70
     0
 10
0.0
 20
0.0
 11
1.0
 21
1.0
 12
402.070007
 22
292.875
 13
0.0
 23
0.0
 14
0.5
 24
0.5
 15
0.5
 25
0.5
 16
0.0
 26
0.0
 36
1.0
 17
0.0
 27
0.0
 37
0.0
 40
254.0
 41
0.069908
 42
50.0
 43
1401.37867
 44
-1401.37867
 50
0.0
 51
0.0
 71
     0
 72
   100
 73
     1
 74
     3
 75
     0
 76
     0
 77
     0
 78
     0
  0
VPORT
  5
4A1
330
8
100
AcDbSymbolTableRecord
100
AcDbViewportTableRecord
  2
L1
 70
     0
 10
0.0
 20
0.0
 11
1.0
 21
1.0
 12
402.070007
 22
292.875
 13
0.0
 23
0.0
 14
0.5
 24
0.5
 15
0.5
 25
0.5
 16
0.0
 26
0.0
 36
1.0
 17
0.0
 27
0.0
 37
0.0
 40
254.0
 41
0.069908
 42
50.0
 43
1401.37867
 44
-1401.37867
 50
0.0
 51
0.0
 71
     0
 72
   100
 73
     1
 74
     3
 75
     0
 76
     0
 77
     0
 78
     0
  0
VPORT
  5
4A2
330
8
100
AcDbSymbolTableRecord
100
AcDbViewportTableRecord
  2
L2
 70
     0
 10
0.0
 20
0.0
 11
0.5
 21
1.0
 12
0.0
 22
0.0
 13
0.0
 23
0.0
 14
0.5
 24
0.5
 15
0.5
 25
0.5
 16
0.0
 26
-1.0
 36
0.0
 17
0.0
 27
0.0
 37
0.0
 40
1319.822715
 41
0.013454
 42
50.0
 43
672.020833
 44
-672.020833
 50
0.0
 51
0.0
 71
     0
 72
   100
 73
     1
 74
     3
 75
     0
 76
     0
 77
     0
 78
     0
  0
VPORT
  5
4A3
330
8
100
AcDbSymbolTableRecord
100
AcDbViewportTableRecord
  2
L2
 70
     0
 10
0.5
 20
0.0
 11
1.0
 21
1.0
 12
0.0
 22
0.0
 13
0.0
 23
0.0
 14
0.5
 24
0.5
 15
0.5
 25
0.5
 16
1.0
 26
0.0
 36
0.0
 17
0.0
 27
0.0
 37
0.0
 40
1319.822715
 41
0.013454
 42
50.0
 43
672.020833
 44
-672.020833
 50
0.0
 51
0.0
 71
     0
 72
   100
 73
     1
 74
     3
 75
     0
 76
     0
 77
     0
 78
     0
  0
VPORT
  5
4A4
330
8
100
AcDbSymbolTableRecord
100
AcDbViewportTableRecord
  2
L3
 70
     0
 10
0.0
 20
0.5
 11
1.0
 21
1.0
 12
402.070007
 22
292.875
 13
0.0
 23
0.0
 14
0.5
 24
0.5
 15
0.5
 25
0.5
 16
0.0
 26
0.0
 36
1.0
 17
0.0
 27
0.0
 37
0.0
 40
254.0
 41
0.069908
 42
50.0
 43
1401.37867
 44
-1401.37867
 50
0.0
 51
0.0
 71
     0
 72
   100
 73
     1
 74
     3
 75
     0
 76
     0
 77
     0
 78
     0
  0
VPORT
  5
4A5
330
8
100
AcDbSymbolTableRecord
100
AcDbViewportTableRecord
  2
L3
 70
     0
 10
0.0
 20
0.0
 11
1.0
 21
0.5
 12
0.0
 22
0.0
 13
0.0
 23
0.0
 14
0.5
 24
0.5
 15
0.5
 25
0.5
 16
0.0
 26
-1.0
 36
0.0
 17
0.0
 27
0.0
 37
0.0
 40
1319.822715
 41
0.013454
 42
50.0
 43
672.020833
 44
-672.020833
 50
0.0
 51
0.0
 71
     0
 72
   100
 73
     1
 74
     3
 75
     0
 76
     0
 77
     0
 78
     0
  0
VPORT
  5
4A6
330
8
100
AcDbSymbolTableRecord
100
AcDbViewportTableRecord
  2
L4
 70
     0
 10
0.0
 20
0.5
 11
0.5
 21
1.0
 12
402.070007
 22
292.875
 13
0.0
 23
0.0
 14
0.5
 24
0.5
 15
0.5
 25
0.5
 16
0.0
 26
0.0
 36
1.0
 17
0.0
 27
0.0
 37
0.0
 40
254.0
 41
0.069908
 42
50.0
 43
1401.37867
 44
-1401.37867
 50
0.0
 51
0.0
 71
     0
 72
   100
 73
     1
 74
     3
 75
     0
 76
     0
 77
     0
 78
     0
  0
VPORT
  5
4A7
330
8
100
AcDbSymbolTableRecord
100
AcDbViewportTableRecord
  2
L4
 70
     0
 10
0.0
 20
0.0
 11
0.5
 21
0.5
 12
0.0
 22
0.0
 13
0.0
 23
0.0
 14
0.5
 24
0.5
 15
0.5
 25
0.5
 16
0.0
 26
-1.0
 36
0.0
 17
0.0
 27
0.0
 37
0.0
 40
1319.822715
 41
0.013454
 42
50.0
 43
672.020833
 44
-672.020833
 50
0.0
 51
0.0
 71
     0
 72
   100
 73
     1
 74
     3
 75
     0
 76
     0
 77
     0
 78
     0
  0
VPORT
  5
4A8
330
8
100
AcDbSymbolTableRecord
100
AcDbViewportTableRecord
  2
L4
 70
     0
 10
0.5
 20
0.0
 11
1.0
 21
0.5
 12
0.0
 22
0.0
 13
0.0
 23
0.0
 14
0.5
 24
0.5
 15
0.5
 25
0.5
 16
1.0
 26
0.0
 36
0.0
 17
0.0
 27
0.0
 37
0.0
 40
1319.822715
 41
0.013454
 42
50.0
 43
672.020833
 44
-672.020833
 50
0.0
 51
0.0
 71
     0
 72
   100
 73
     1
 74
     3
 75
     0
 76
     0
 77
     0
 78
     0
  0
VPORT
  5
4A9
330
8
100
AcDbSymbolTableRecord
100
AcDbViewportTableRecord
  2
L4
 70
     0
 10
0.5
 20
0.5
 11
1.0
 21
1.0
 12
0.0
 22
0.0
 13
0.0
 23
0.0
 14
0.5
 24
0.5
 15
0.5
 25
0.5
 16
0.5773502691896258
 26
-0.5773502691896258
 36
0.5773502691896258
 17
0.0
 27
0.0
 37
0.0
 40
1285.020866
 41
0.013818
 42
50.0
 43
667.141407
 44
-667.141407
 50
0.0
 51
0.0
 71
     0
 72
   100
 73
     1
 74
     3
 75
     0
 76
     0
 77
     0
 78
     0
  0
VPORT
  5
4AA
330
8
100
AcDbSymbolTableRecord
100
AcDbViewportTableRecord
  2
L6
 70
     0
 10
0.0
 20
0.5
 11
0.333333
 21
1.0
 12
0.0
 22
0.0
 13
0.0
 23
0.0
 14
0.5
 24
0.5
 15
0.5
 25
0.5
 16
0.7188730927569433
 26
-0.5850486126764433
 36
0.3754192287502549
 17
0.0
 27
0.0
 37
0.0
 40
1357.434192
 41
0.013081
 42
50.0
 43
701.839477
 44
-701.839477
 50
0.0
 51
0.0
 71
     0
 72
   100
 73
     1
 74
     3
 75
     0
 76
     0
 77
     0
 78
     0
  0
VPORT
  5
4AB
330
8
100
AcDbSymbolTableRecord
100
AcDbViewportTableRecord
  2
L6
 70
     0
 10
0.0
 20
0.0
 11
0.333333
 21
0.5
 12
0.0
 22
0.0
 13
0.0
 23
0.0
 14
0.5
 24
0.5
 15
0.5
 25
0.5
 16
-1.0
 26
0.0
 36
0.0
 17
0.0
 27
0.0
 37
0.0
 40
1319.822715
 41
0.013454
 42
50.0
 43
672.020833
 44
-672.020833
 50
0.0
 51
0.0
 71
     0
 72
   100
 73
     1
 74
     3
 75
     0
 76
     0
 77
     0
 78
     0
  0
VPORT
  5
4AC
330
8
100
AcDbSymbolTableRecord
100
AcDbViewportTableRecord
  2
L6
 70
     0
 10
0.333333
 20
0.5
 11
0.666667
 21
1.0
 12
402.070007
 22
292.875
 13
0.0
 23
0.0
 14
0.5
 24
0.5
 15
0.5
 25
0.5
 16
0.0
 26
0.0
 36
1.0
 17
0.0
 27
0.0
 37
0.0
 40
254.0
 41
0.069908
 42
50.0
 43
1401.37867
 44
-1401.37867
 50
0.0
 51
0.0
 71
     0
 72
   100
 73
     1
 74
     3
 75
     0
 76
     0
 77
     0
 78
     0
  0
VPORT
  5
4AD
330
8
100
AcDbSymbolTableRecord
100
AcDbViewportTableRecord
  2
L6
 70
     0
 10
0.333333
 20
0.0
 11
0.666667
 21
0.5
 12
0.0
 22
0.0
 13
0.0
 23
0.0
 14
0.5
 24
0.5
 15
0.5
 25
0.5
 16
0.0
 26
-1.0
 36
0.0
 17
0.0
 27
0.0
 37
0.0
 40
1319.822715
 41
0.013454
 42
50.0
 43
672.020833
 44
-672.020833
 50
0.0
 51
0.0
 71
     0
 72
   100
 73
     1
 74
     3
 75
     0
 76
     0
 77
     0
 78
     0
  0
VPORT
  5
4AE
330
8
100
AcDbSymbolTableRecord
100
AcDbViewportTableRecord
  2
L6
 70
     0
 10
0.666667
 20
0.5
 11
1.0
 21
1.0
 12
0.0
 22
0.0
 13
0.0
 23
0.0
 14
0.5
 24
0.5
 15
0.5
 25
0.5
 16
0.5773502691896258
 26
-0.5773502691896258
 36
0.5773502691896258
 17
0.0
 27
0.0
 37
0.0
 40
1285.020866
 41
0.013818
 42
50.0
 43
667.141407
 44
-667.141407
 50
0.0
 51
0.0
 71
     0
 72
   100
 73
     1
 74
     3
 75
     0
 76
     0
 77
     0
 78
     0
  0
VPORT
  5
4AF
330
8
100
AcDbSymbolTableRecord
100
AcDbViewportTableRecord
  2
L6
 70
     0
 10
0.666667
 20
0.0
 11
1.0
 21
0.5
 12
0.0
 22
0.0
 13
0.0
 23
0.0
 14
0.5
 24
0.5
 15
0.5
 25
0.5
 16
1.0
 26
0.0
 36
0.0
 17
0.0
 27
0.0
 37
0.0
 40
1319.822715
 41
0.013454
 42
50.0
 43
672.020833
 44
-672.020833
 50
0.0
 51
0.0
 71
     0
 72
   100
 73
     1
 74
     3
 75
     0
 76
     0
 77
     0
 78
     0
  0
ENDTAB
  0
TABLE
  2
LTYPE
  5
5
330
0
100
AcDbSymbolTable
 70
     7
  0
LTYPE
  5
14
330
5
100
AcDbSymbolTableRecord
100
AcDbLinetypeTableRecord
  2
BYBLOCK
 70
     0
  3

 72
    65
 73
     0
 40
0.0
  0
LTYPE
  5
15
330
5
100
AcDbSymbolTableRecord
100
AcDbLinetypeTableRecord
  2
BYLAYER
 70
     0
  3

 72
    65
 73
     0
 40
0.0
  0
LTYPE
  5
16
330
5
100
AcDbSymbolTableRecord
100
AcDbLinetypeTableRecord
  2
CONTINUOUS
 70
     0
  3
Solid line
 72
    65
 73
     0
 40
0.0
  0
LTYPE
  5
3F
330
5
100
AcDbSymbolTableRecord
100
AcDbLinetypeTableRecord
  2
DASHED
 70
     0
  3
__ __ __ __ __ __ __ __ __
 72
    65
 73
     2
 40
25.72
 49
12.86
 74
     4
 75
     0
340
0
 46
0.0
 50
0.0
 44
0.0
 45
0.0
 49
-12.86
 74
     4
 75
     0
340
0
 46
0.0
 50
0.0
 44
0.0
 45
0.0
  0
LTYPE
  5
40
330
5
100
AcDbSymbolTableRecord
100
AcDbLinetypeTableRecord
  2
HIDDEN
 70
     0
  3
_ _ _ _ _ _ _ _ _ _ _ _ _ _ _
 72
    65
 73
     2
 40
0.5
 49
0.25
 74
     4
 75
     0
340
0
 46
0.0
 50
0.0
 44
0.0
 45
0.0
 49
-0.25
 74
     4
 75
     0
340
0
 46
0.0
 50
0.0
 44
0.0
 45
0.0
  0
LTYPE
  5
41
330
5
100
AcDbSymbolTableRecord
100
AcDbLinetypeTableRecord
  2
PHANTOM
 70
     0
  3
____ _ _ ____ _ _ _____ _ _ ____
 72
    65
 73
     6
 40
50.5
 49
18.0
 74
     4
 75
     0
340
0
 46
0.0
 50
0.0
 44
0.0
 45
0.0
 49
-6.5
 74
     4
 75
     0
340
0
 46
0.0
 50
0.0
 44
0.0
 45
0.0
 49
6.5
 74
     4
 75
     0
340
0
 46
0.0
 50
0.0
 44
0.0
 45
0.0
 49
-6.5
 74
     4
 75
     0
340
0
 46
0.0
 50
0.0
 44
0.0
 45
0.0
 49
6.5
 74
     4
 75
     0
340
0
 46
0.0
 50
0.0
 44
0.0
 45
0.0
 49
-6.5
 74
     4
 75
     0
340
0
 46
0.0
 50
0.0
 44
0.0
 45
0.0
  0
LTYPE
  5
42
330
5
100
AcDbSymbolTableRecord
100
AcDbLinetypeTableRecord
  2
CENTER
 70
     0
  3
____ _ ____ _ ____ _ ____
 72
    65
 73
     4
 40
47.4
 49
22.0
 74
     4
 75
     0
340
0
 46
0.0
 50
0.0
 44
0.0
 45
0.0
 49
-8.5
 74
     4
 75
     0
340
0
 46
0.0
 50
0.0
 44
0.0
 45
0.0
 49
8.5
 74
     4
 75
     0
340
0
 46
0.0
 50
0.0
 44
0.0
 45
0.0
 49
-8.5
 74
     4
 75
     0
340
0
 46
0.0
 50
0.0
 44
0.0
 45
0.0
  0
LTYPE
  5
43
330
5
100
AcDbSymbolTableRecord
100
AcDbLinetypeTableRecord
  2
DOT
 70
     0
  3
.........................
 72
    65
 73
     2
 40
10.0
 49
0.0
 74
     4
 75
     0
340
0
 46
0.0
 50
0.0
 44
0.0
 45
0.0
 49
-10.0
 74
     4
 75
     0
340
0
 46
0.0
 50
0.0
 44
0.0
 45
0.0
  0
LTYPE
  5
44
330
5
100
AcDbSymbolTableRecord
100
AcDbLinetypeTableRecord
  2
DASHDOT
 70
     0
  3
_._._._._._._._._._._._._._._._.
 72
    65
 73
     4
 40
70.0
 49
31.0
 74
     4
 75
     0
340
0
 46
0.0
 50
0.0
 44
0.0
 45
0.0
 49
-13.0
 74
     4
 75
     0
340
0
 46
0.0
 50
0.0
 44
0.0
 45
0.0
 49
13.0
 74
     4
 75
     0
340
0
 46
0.0
 50
0.0
 44
0.0
 45
0.0
 49
-13.0
 74
     4
 75
     0
340
0
 46
0.0
 50
0.0
 44
0.0
 45
0.0
  0
ENDTAB
  0
TABLE
  2
LAYER
  5
2
330
0
100
AcDbSymbolTable
 70
     2
  0
LAYER
  5
10
330
2
100
AcDbSymbolTableRecord
100
AcDbLayerTableRecord
  2
0
 70
     0
 62
     7
  6
CONTINUOUS
  0
LAYER
  5
46
330
2
100
AcDbSymbolTableRecord
100
AcDbLayerTableRecord
  2
1
 70
     0
 62
     7
  6
CONTINUOUS
  0
ENDTAB
  0
TABLE
  2
STYLE
  5
3
330
0
100
AcDbSymbolTable
 70
     4
  0
STYLE
  5
11
330
3
100
AcDbSymbolTableRecord
100
AcDbTextStyleTableRecord
  2
STANDARD
 70
     0
 40
0.0
 41
1.0
 50
0.0
 71
     0
 42
0.2
  3
txt
  4

  0
STYLE
  5
320
330
3
100
AcDbSymbolTableRecord
100
AcDbTextStyleTableRecord
  2
IDEAS_KANJI
 70
     0
 40
0.0
 41
1.0
 50
0.0
 71
     0
 42
0.2
  3
simplex.shx
  4
bigfont.shx
  0
STYLE
  5
321
330
3
100
AcDbSymbolTableRecord
100
AcDbTextStyleTableRecord
  2
DWGDIRECTTEXTSTYLE
 70
     0
 40
0.0
 41
1.0
 50
0.0
 71
     0
 42
0.2
  3
simplex
  4

  0
STYLE
  5
421
330
3
100
AcDbSymbolTableRecord
100
AcDbTextStyleTableRecord
  2
IDEAS_SIMPLEX
 70
     0
 40
0.0
 41
1.0
 50
0.0
 71
     0
 42
0.2
  3
simplex.shx
  4

  0
ENDTAB
  0
TABLE
  2
VIEW
  5
6
330
0
100
AcDbSymbolTable
 70
     8
  0
VIEW
  5
496
330
6
100
AcDbSymbolTableRecord
100
AcDbViewTableRecord
  2
TOP
 70
     0
 40
254.0
 10
402.070007
 20
292.875
 41
254.0
 11
0.0
 21
0.0
 31
1.0
 12
0.0
 22
0.0
 32
0.0
 42
50.0
 43
1401.37867
 44
-1401.37867
 50
0.0
 71
     0
  0
VIEW
  5
497
330
6
100
AcDbSymbolTableRecord
100
AcDbViewTableRecord
  2
FRONT
 70
     0
 40
1319.822715
 10
0.0
 20
0.0
 41
254.0
 11
0.0
 21
-1.0
 31
0.0
 12
0.0
 22
0.0
 32
0.0
 42
50.0
 43
672.020833
 44
-672.020833
 50
0.0
 71
     0
  0
VIEW
  5
498
330
6
100
AcDbSymbolTableRecord
100
AcDbViewTableRecord
  2
RIGHT
 70
     0
 40
1319.822715
 10
0.0
 20
0.0
 41
254.0
 11
1.0
 21
0.0
 31
0.0
 12
0.0
 22
0.0
 32
0.0
 42
50.0
 43
672.020833
 44
-672.020833
 50
0.0
 71
     0
  0
VIEW
  5
499
330
6
100
AcDbSymbolTableRecord
100
AcDbViewTableRecord
  2
BACK
 70
     0
 40
1319.822715
 10
0.0
 20
0.0
 41
254.0
 11
0.0
 21
1.0
 31
0.0
 12
0.0
 22
0.0
 32
0.0
 42
50.0
 43
672.020833
 44
-672.020833
 50
0.0
 71
     0
  0
VIEW
  5
49A
330
6
100
AcDbSymbolTableRecord
100
AcDbViewTableRecord
  2
BOTTOM
 70
     0
 40
254.0
 10
0.0
 20
0.0
 41
254.0
 11
0.0
 21
0.0
 31
-1.0
 12
0.0
 22
0.0
 32
0.0
 42
50.0
 43
659.911358
 44
-659.911358
 50
180.0
 71
     0
  0
VIEW
  5
49B
330
6
100
AcDbSymbolTableRecord
100
AcDbViewTableRecord
  2
LEFT
 70
     0
 40
1319.822715
 10
0.0
 20
0.0
 41
254.0
 11
-1.0
 21
0.0
 31
0.0
 12
0.0
 22
0.0
 32
0.0
 42
50.0
 43
672.020833
 44
-672.020833
 50
0.0
 71
     0
  0
VIEW
  5
49C
330
6
100
AcDbSymbolTableRecord
100
AcDbViewTableRecord
  2
TFR-ISO
 70
     0
 40
1285.020866
 10
0.0
 20
0.0
 41
359.210245
 11
0.5773502691896258
 21
-0.5773502691896258
 31
0.5773502691896258
 12
0.0
 22
0.0
 32
0.0
 42
50.0
 43
667.141407
 44
-667.141407
 50
0.0
 71
     0
  0
VIEW
  5
49D
330
6
100
AcDbSymbolTableRecord
100
AcDbViewTableRecord
  2
TFR-TRI
 70
     0
 40
1357.434192
 10
0.0
 20
0.0
 41
357.33321
 11
0.7188730927569433
 21
-0.5850486126764433
 31
0.3754192287502549
 12
0.0
 22
0.0
 32
0.0
 42
50.0
 43
701.839477
 44
-701.839477
 50
0.0
 71
     0
  0
ENDTAB
  0
TABLE
  2
UCS
  5
7
330
0
100
AcDbSymbolTable
 70
     0
  0
ENDTAB
  0
TABLE
  2
APPID
  5
9
330
0
100
AcDbSymbolTable
 70
     1
  0
APPID
  5
12
330
9
100
AcDbSymbolTableRecord
100
AcDbRegAppTableRecord
  2
ACAD
 70
     0
  0
ENDTAB
  0
TABLE
  2
DIMSTYLE
  5
A
330
0
100
AcDbSymbolTable
 70
     1
  0
DIMSTYLE
105
27
102
{ACAD_REACTORS
330
42E
330
440
330
44C
330
455
330
462
330
470
330
47C
330
488
330
495
102
}
330
A
100
AcDbSymbolTableRecord
100
AcDbDimStyleTableRecord
  2
STANDARD
 70
     0
  3

  4

  5

  6

  7

 40
1.0
 41
0.18
 42
0.0625
 43
0.38
 44
0.18
 45
0.0
 46
0.0
 47
0.0
 48
0.0
140
0.18
141
0.09
142
0.0
143
25.4
144
1.0
145
0.0
146
1.0
147
0.09
 71
     0
 72
     0
 73
     1
 74
     1
 75
     0
 76
     0
 77
     0
 78
     0
170
     0
171
     2
172
     0
173
     0
174
     0
175
     0
176
     0
177
     0
178
     0
270
     2
271
     4
272
     4
273
     2
274
     2
340
11
275
     0
280
     0
281
     0
282
     0
283
     1
284
     0
285
     0
286
     0
287
     3
288
     0
  0
ENDTAB
  0
TABLE
  2
BLOCK_RECORD
  5
1
330
0
100
AcDbSymbolTable
 70
    22
  0
BLOCK_RECORD
  5
1F
330
1
100
AcDbSymbolTableRecord
100
AcDbBlockTableRecord
  2
*MODEL_SPACE
  0
BLOCK_RECORD
  5
1B
330
1
100
AcDbSymbolTableRecord
100
AcDbBlockTableRecord
  2
*PAPER_SPACE
  0
BLOCK_RECORD
  5
319
330
1
100
AcDbSymbolTableRecord
100
AcDbBlockTableRecord
  2
LABLE3D_1
  0
BLOCK_RECORD
  5
31A
330
1
100
AcDbSymbolTableRecord
100
AcDbBlockTableRecord
  2
_NONE
  0
BLOCK_RECORD
  5
325
330
1
100
AcDbSymbolTableRecord
100
AcDbBlockTableRecord
  2
LABLE3D_2
  0
BLOCK_RECORD
  5
32C
330
1
100
AcDbSymbolTableRecord
100
AcDbBlockTableRecord
  2
CENTERLINE1
  0
BLOCK_RECORD
  5
370
330
1
100
AcDbSymbolTableRecord
100
AcDbBlockTableRecord
  2
CENTERLINE2
  0
BLOCK_RECORD
  5
387
330
1
100
AcDbSymbolTableRecord
100
AcDbBlockTableRecord
  2
CENTERLINE3
  0
BLOCK_RECORD
  5
398
330
1
100
AcDbSymbolTableRecord
100
AcDbBlockTableRecord
  2
CENTERLINE4
  0
BLOCK_RECORD
  5
3A7
330
1
100
AcDbSymbolTableRecord
100
AcDbBlockTableRecord
  2
CENTERLINE5
  0
BLOCK_RECORD
  5
3B6
330
1
100
AcDbSymbolTableRecord
100
AcDbBlockTableRecord
  2
CENTERLINE6
  0
BLOCK_RECORD
  5
3CB
330
1
100
AcDbSymbolTableRecord
100
AcDbBlockTableRecord
  2
CENTERLINE7
  0
BLOCK_RECORD
  5
3E0
330
1
100
AcDbSymbolTableRecord
100
AcDbBlockTableRecord
  2
CENTERLINE8
  0
BLOCK_RECORD
  5
423
330
1
100
AcDbSymbolTableRecord
100
AcDbBlockTableRecord
  2
DIMNDRAFT3D1
  0
BLOCK_RECORD
  5
42F
330
1
100
AcDbSymbolTableRecord
100
AcDbBlockTableRecord
  2
_OPEN
  0
BLOCK_RECORD
  5
435
330
1
100
AcDbSymbolTableRecord
100
AcDbBlockTableRecord
  2
DIMNDRAFT3D2
  0
BLOCK_RECORD
  5
441
330
1
100
AcDbSymbolTableRecord
100
AcDbBlockTableRecord
  2
DIMNDRAFT3D3
  0
BLOCK_RECORD
  5
44D
330
1
100
AcDbSymbolTableRecord
100
AcDbBlockTableRecord
  2
DIMNDRAFT3D4
  0
BLOCK_RECORD
  5
456
330
1
100
AcDbSymbolTableRecord
100
AcDbBlockTableRecord
  2
DIMNDRAFT3D5
  0
BLOCK_RECORD
  5
463
330
1
100
AcDbSymbolTableRecord
100
AcDbBlockTableRecord
  2
DIMNDRAFT3D6
  0
BLOCK_RECORD
  5
471
330
1
100
AcDbSymbolTableRecord
100
AcDbBlockTableRecord
  2
DIMNDRAFT3D7
  0
BLOCK_RECORD
  5
47D
330
1
100
AcDbSymbolTableRecord
100
AcDbBlockTableRecord
  2
DIMNDRAFT3D8
  0
BLOCK_RECORD
  5
489
330
1
100
AcDbSymbolTableRecord
100
AcDbBlockTableRecord
  2
DIMNDRAFT3D9
  0
ENDTAB
  0
ENDSEC
  0
SECTION
  2
BLOCKS
  0
BLOCK
  5
20
330
1F
100
AcDbEntity
  8
0
100
AcDbBlockBegin
  2
*MODEL_SPACE
 70
     0
 10
0.0
 20
0.0
 30
0.0
  3
*MODEL_SPACE
  1

  0
ENDBLK
  5
21
330
1F
100
AcDbEntity
  8
0
100
AcDbBlockEnd
  0
BLOCK
  5
1C
330
1B
100
AcDbEntity
 67
     1
  8
0
100
AcDbBlockBegin
  2
*PAPER_SPACE
 70
     0
 10
0.0
 20
0.0
 30
0.0
  3
*PAPER_SPACE
  1

  0
ENDBLK
  5
1D
330
1B
100
AcDbEntity
 67
     1
  8
0
100
AcDbBlockEnd
  0
BLOCK
  5
323
330
319
100
AcDbEntity
  8
0
100
AcDbBlockBegin
  2
LABLE3D_1
 70
     0
 10
0.0
 20
0.0
 30
0.0
  3
LABLE3D_1
  1

  0
LINE
  5
31E
330
319
100
AcDbEntity
  8
1
  6
CONTINUOUS
 62
    81
100
AcDbLine
 10
339.737
 20
432.48
 30
0.0
 11
390.263
 21
432.48
 31
0.0
  0
MTEXT
  5
31F
330
319
100
AcDbEntity
  8
1
  6
CONTINUOUS
 62
     4
100
AcDbMText
 10
340.367
 20
431.545161
 30
0.0
 40
4.2
 41
0.0
 71
     7
 72
     5
  1
\W00.811;4-M3(カメラ取付用穴) 
  7
IDEAS_KANJI
1001
ACAD
1000
MTEXTBEGIN
1070
    73
1070
     2
1070
    44
1040
0.783133
1000
MTEXTEND
1000
ACAD_MTEXT_DEFINED_HEIGHT_BEGIN
1070
    46
1040
0.2
1000
ACAD_MTEXT_DEFINED_HEIGHT_END
  0
ENDBLK
  5
324
330
319
100
AcDbEntity
  8
0
100
AcDbBlockEnd
  0
BLOCK
  5
31B
330
31A
100
AcDbEntity
  8
0
100
AcDbBlockBegin
  2
_NONE
 70
     0
 10
0.0
 20
0.0
 30
0.0
  3
_NONE
  1

  0
ENDBLK
  5
31C
330
31A
100
AcDbEntity
  8
0
100
AcDbBlockEnd
  0
BLOCK
  5
32A
330
325
100
AcDbEntity
  8
0
100
AcDbBlockBegin
  2
LABLE3D_2
 70
     0
 10
0.0
 20
0.0
 30
0.0
  3
LABLE3D_2
  1

  0
LINE
  5
327
330
325
100
AcDbEntity
  8
1
  6
CONTINUOUS
 62
    81
100
AcDbLine
 10
143.44
 20
258.08
 30
0.0
 11
116.56
 21
258.08
 31
0.0
  0
MTEXT
  5
328
330
325
100
AcDbEntity
  8
1
  6
CONTINUOUS
 62
     4
100
AcDbMText
 10
117.04
 20
257.367742
 30
0.0
 40
3.2
 41
0.0
 71
     7
 72
     5
  1
\W00.762;3-M4(取付用穴) 
  7
IDEAS_KANJI
1001
ACAD
1000
MTEXTBEGIN
1070
    73
1070
     2
1070
    44
1040
0.783133
1000
MTEXTEND
1000
ACAD_MTEXT_DEFINED_HEIGHT_BEGIN
1070
    46
1040
0.2
1000
ACAD_MTEXT_DEFINED_HEIGHT_END
  0
ENDBLK
  5
32B
330
325
100
AcDbEntity
  8
0
100
AcDbBlockEnd
  0
BLOCK
  5
36E
330
32C
100
AcDbEntity
  8
0
100
AcDbBlockBegin
  2
CENTERLINE1
 70
     0
 10
0.0
 20
0.0
 30
0.0
  3
CENTERLINE1
  1

  0
LINE
  5
32D
330
32C
100
AcDbEntity
  8
0
  6
CONTINUOUS
 62
     2
100
AcDbLine
 10
217.2725
 20
382.204716
 30
0.0
 11
217.2725
 21
384.704716
 31
0.0
  0
LINE
  5
32E
330
32C
100
AcDbEntity
  8
0
  6
CONTINUOUS
 62
     2
100
AcDbLine
 10
217.2725
 20
40.940827
 30
0.0
 11
217.2725
 21
26.454716
 31
0.0
  0
LINE
  5
32F
330
32C
100
AcDbEntity
  8
0
  6
CONTINUOUS
 62
     2
100
AcDbLine
 10
217.2725
 20
380.704716
 30
0.0
 11
217.2725
 21
366.218605
 31
0.0
  0
LINE
  5
330
330
32C
100
AcDbEntity
  8
0
  6
CONTINUOUS
 62
     2
100
AcDbLine
 10
217.2725
 20
364.718605
 30
0.0
 11
217.2725
 21
362.218605
 31
0.0
  0
LINE
  5
331
330
32C
100
AcDbEntity
  8
0
  6
CONTINUOUS
 62
     2
100
AcDbLine
 10
217.2725
 20
360.718605
 30
0.0
 11
217.2725
 21
346.232493
 31
0.0
  0
LINE
  5
332
330
32C
100
AcDbEntity
  8
0
  6
CONTINUOUS
 62
     2
100
AcDbLine
 10
217.2725
 20
344.732493
 30
0.0
 11
217.2725
 21
342.232493
 31
0.0
  0
LINE
  5
333
330
32C
100
AcDbEntity
  8
0
  6
CONTINUOUS
 62
     2
100
AcDbLine
 10
217.2725
 20
340.732493
 30
0.0
 11
217.2725
 21
326.246382
 31
0.0
  0
LINE
  5
334
330
32C
100
AcDbEntity
  8
0
  6
CONTINUOUS
 62
     2
100
AcDbLine
 10
217.2725
 20
324.746382
 30
0.0
 11
217.2725
 21
322.246382
 31
0.0
  0
LINE
  5
335
330
32C
100
AcDbEntity
  8
0
  6
CONTINUOUS
 62
     2
100
AcDbLine
 10
217.2725
 20
320.746382
 30
0.0
 11
217.2725
 21
306.260271
 31
0.0
  0
LINE
  5
336
330
32C
100
AcDbEntity
  8
0
  6
CONTINUOUS
 62
     2
100
AcDbLine
 10
217.2725
 20
304.760271
 30
0.0
 11
217.2725
 21
302.260271
 31
0.0
  0
LINE
  5
337
330
32C
100
AcDbEntity
  8
0
  6
CONTINUOUS
 62
     2
100
AcDbLine
 10
217.2725
 20
300.760271
 30
0.0
 11
217.2725
 21
286.27416
 31
0.0
  0
LINE
  5
338
330
32C
100
AcDbEntity
  8
0
  6
CONTINUOUS
 62
     2
100
AcDbLine
 10
217.2725
 20
284.77416
 30
0.0
 11
217.2725
 21
282.27416
 31
0.0
  0
LINE
  5
339
330
32C
100
AcDbEntity
  8
0
  6
CONTINUOUS
 62
     2
100
AcDbLine
 10
217.2725
 20
280.77416
 30
0.0
 11
217.2725
 21
266.288049
 31
0.0
  0
LINE
  5
33A
330
32C
100
AcDbEntity
  8
0
  6
CONTINUOUS
 62
     2
100
AcDbLine
 10
217.2725
 20
264.788049
 30
0.0
 11
217.2725
 21
262.288049
 31
0.0
  0
LINE
  5
33B
330
32C
100
AcDbEntity
  8
0
  6
CONTINUOUS
 62
     2
100
AcDbLine
 10
217.2725
 20
260.788049
 30
0.0
 11
217.2725
 21
246.301938
 31
0.0
  0
LINE
  5
33C
330
32C
100
AcDbEntity
  8
0
  6
CONTINUOUS
 62
     2
100
AcDbLine
 10
217.2725
 20
244.801938
 30
0.0
 11
217.2725
 21
242.301938
 31
0.0
  0
LINE
  5
33D
330
32C
100
AcDbEntity
  8
0
  6
CONTINUOUS
 62
     2
100
AcDbLine
 10
217.2725
 20
240.801938
 30
0.0
 11
217.2725
 21
226.315827
 31
0.0
  0
LINE
  5
33E
330
32C
100
AcDbEntity
  8
0
  6
CONTINUOUS
 62
     2
100
AcDbLine
 10
217.2725
 20
224.815827
 30
0.0
 11
217.2725
 21
222.315827
 31
0.0
  0
LINE
  5
33F
330
32C
100
AcDbEntity
  8
0
  6
CONTINUOUS
 62
     2
100
AcDbLine
 10
217.2725
 20
220.815827
 30
0.0
 11
217.2725
 21
206.329716
 31
0.0
  0
LINE
  5
340
330
32C
100
AcDbEntity
  8
0
  6
CONTINUOUS
 62
     2
100
AcDbLine
 10
217.2725
 20
204.829716
 30
0.0
 11
217.2725
 21
202.329716
 31
0.0
  0
LINE
  5
341
330
32C
100
AcDbEntity
  8
0
  6
CONTINUOUS
 62
     2
100
AcDbLine
 10
217.2725
 20
200.829716
 30
0.0
 11
217.2725
 21
186.343605
 31
0.0
  0
LINE
  5
342
330
32C
100
AcDbEntity
  8
0
  6
CONTINUOUS
 62
     2
100
AcDbLine
 10
217.2725
 20
184.843605
 30
0.0
 11
217.2725
 21
182.343605
 31
0.0
  0
LINE
  5
343
330
32C
100
AcDbEntity
  8
0
  6
CONTINUOUS
 62
     2
100
AcDbLine
 10
217.2725
 20
180.843605
 30
0.0
 11
217.2725
 21
166.357493
 31
0.0
  0
LINE
  5
344
330
32C
100
AcDbEntity
  8
0
  6
CONTINUOUS
 62
     2
100
AcDbLine
 10
217.2725
 20
164.857493
 30
0.0
 11
217.2725
 21
162.357493
 31
0.0
  0
LINE
  5
345
330
32C
100
AcDbEntity
  8
0
  6
CONTINUOUS
 62
     2
100
AcDbLine
 10
217.2725
 20
160.857493
 30
0.0
 11
217.2725
 21
146.371382
 31
0.0
  0
LINE
  5
346
330
32C
100
AcDbEntity
  8
0
  6
CONTINUOUS
 62
     2
100
AcDbLine
 10
217.2725
 20
144.871382
 30
0.0
 11
217.2725
 21
142.371382
 31
0.0
  0
LINE
  5
347
330
32C
100
AcDbEntity
  8
0
  6
CONTINUOUS
 62
     2
100
AcDbLine
 10
217.2725
 20
140.871382
 30
0.0
 11
217.2725
 21
126.385271
 31
0.0
  0
LINE
  5
348
330
32C
100
AcDbEntity
  8
0
  6
CONTINUOUS
 62
     2
100
AcDbLine
 10
217.2725
 20
124.885271
 30
0.0
 11
217.2725
 21
122.385271
 31
0.0
  0
LINE
  5
349
330
32C
100
AcDbEntity
  8
0
  6
CONTINUOUS
 62
     2
100
AcDbLine
 10
217.2725
 20
120.885271
 30
0.0
 11
217.2725
 21
106.39916
 31
0.0
  0
LINE
  5
34A
330
32C
100
AcDbEntity
  8
0
  6
CONTINUOUS
 62
     2
100
AcDbLine
 10
217.2725
 20
104.89916
 30
0.0
 11
217.2725
 21
102.39916
 31
0.0
  0
LINE
  5
34B
330
32C
100
AcDbEntity
  8
0
  6
CONTINUOUS
 62
     2
100
AcDbLine
 10
217.2725
 20
100.89916
 30
0.0
 11
217.2725
 21
86.413049
 31
0.0
  0
LINE
  5
34C
330
32C
100
AcDbEntity
  8
0
  6
CONTINUOUS
 62
     2
100
AcDbLine
 10
217.2725
 20
84.913049
 30
0.0
 11
217.2725
 21
82.413049
 31
0.0
  0
LINE
  5
34D
330
32C
100
AcDbEntity
  8
0
  6
CONTINUOUS
 62
     2
100
AcDbLine
 10
217.2725
 20
80.913049
 30
0.0
 11
217.2725
 21
66.426938
 31
0.0
  0
LINE
  5
34E
330
32C
100
AcDbEntity
  8
0
  6
CONTINUOUS
 62
     2
100
AcDbLine
 10
217.2725
 20
64.926938
 30
0.0
 11
217.2725
 21
62.426938
 31
0.0
  0
LINE
  5
34F
330
32C
100
AcDbEntity
  8
0
  6
CONTINUOUS
 62
     2
100
AcDbLine
 10
217.2725
 20
60.926938
 30
0.0
 11
217.2725
 21
46.440827
 31
0.0
  0
LINE
  5
350
330
32C
100
AcDbEntity
  8
0
  6
CONTINUOUS
 62
     2
100
AcDbLine
 10
217.2725
 20
44.940827
 30
0.0
 11
217.2725
 21
42.440827
 31
0.0
  0
LINE
  5
351
330
32C
100
AcDbEntity
  8
0
  6
CONTINUOUS
 62
     2
100
AcDbLine
 10
217.2725
 20
386.204716
 30
0.0
 11
217.2725
 21
402.254716
 31
0.0
  0
LINE
  5
352
330
32C
100
AcDbEntity
  8
0
  6
CONTINUOUS
 62
     2
100
AcDbLine
 10
217.2725
 20
403.754716
 30
0.0
 11
217.2725
 21
406.254716
 31
0.0
  0
LINE
  5
353
330
32C
100
AcDbEntity
  8
0
  6
CONTINUOUS
 62
     2
100
AcDbLine
 10
217.2725
 20
407.754716
 30
0.0
 11
217.2725
 21
423.804716
 31
0.0
  0
LINE
  5
354
330
32C
100
AcDbEntity
  8
0
  6
CONTINUOUS
 62
     2
100
AcDbLine
 10
217.2725
 20
425.304716
 30
0.0
 11
217.2725
 21
427.804716
 31
0.0
  0
LINE
  5
355
330
32C
100
AcDbEntity
  8
0
  6
CONTINUOUS
 62
     2
100
AcDbLine
 10
217.2725
 20
429.304716
 30
0.0
 11
217.2725
 21
445.354716
 31
0.0
  0
LINE
  5
356
330
32C
100
AcDbEntity
  8
0
  6
CONTINUOUS
 62
     2
100
AcDbLine
 10
217.2725
 20
446.854716
 30
0.0
 11
217.2725
 21
449.354716
 31
0.0
  0
LINE
  5
357
330
32C
100
AcDbEntity
  8
0
  6
CONTINUOUS
 62
     2
100
AcDbLine
 10
217.2725
 20
450.854716
 30
0.0
 11
217.2725
 21
466.904716
 31
0.0
  0
LINE
  5
358
330
32C
100
AcDbEntity
  8
0
  6
CONTINUOUS
 62
     2
100
AcDbLine
 10
217.2725
 20
468.404716
 30
0.0
 11
217.2725
 21
470.904716
 31
0.0
  0
LINE
  5
359
330
32C
100
AcDbEntity
  8
0
  6
CONTINUOUS
 62
     2
100
AcDbLine
 10
217.2725
 20
472.404716
 30
0.0
 11
217.2725
 21
488.454716
 31
0.0
  0
LINE
  5
35A
330
32C
100
AcDbEntity
  8
0
  6
CONTINUOUS
 62
     2
100
AcDbLine
 10
128.3225
 20
383.454716
 30
0.0
 11
112.2725
 21
383.454716
 31
0.0
  0
LINE
  5
35B
330
32C
100
AcDbEntity
  8
0
  6
CONTINUOUS
 62
     2
100
AcDbLine
 10
214.5225
 20
383.454716
 30
0.0
 11
198.4725
 21
383.454716
 31
0.0
  0
LINE
  5
35C
330
32C
100
AcDbEntity
  8
0
  6
CONTINUOUS
 62
     2
100
AcDbLine
 10
196.9725
 20
383.454716
 30
0.0
 11
194.4725
 21
383.454716
 31
0.0
  0
LINE
  5
35D
330
32C
100
AcDbEntity
  8
0
  6
CONTINUOUS
 62
     2
100
AcDbLine
 10
192.9725
 20
383.454716
 30
0.0
 11
176.9225
 21
383.454716
 31
0.0
  0
LINE
  5
35E
330
32C
100
AcDbEntity
  8
0
  6
CONTINUOUS
 62
     2
100
AcDbLine
 10
175.4225
 20
383.454716
 30
0.0
 11
172.9225
 21
383.454716
 31
0.0
  0
LINE
  5
35F
330
32C
100
AcDbEntity
  8
0
  6
CONTINUOUS
 62
     2
100
AcDbLine
 10
171.4225
 20
383.454716
 30
0.0
 11
155.3725
 21
383.454716
 31
0.0
  0
LINE
  5
360
330
32C
100
AcDbEntity
  8
0
  6
CONTINUOUS
 62
     2
100
AcDbLine
 10
153.8725
 20
383.454716
 30
0.0
 11
151.3725
 21
383.454716
 31
0.0
  0
LINE
  5
361
330
32C
100
AcDbEntity
  8
0
  6
CONTINUOUS
 62
     2
100
AcDbLine
 10
149.8725
 20
383.454716
 30
0.0
 11
133.8225
 21
383.454716
 31
0.0
  0
LINE
  5
362
330
32C
100
AcDbEntity
  8
0
  6
CONTINUOUS
 62
     2
100
AcDbLine
 10
132.3225
 20
383.454716
 30
0.0
 11
129.8225
 21
383.454716
 31
0.0
  0
LINE
  5
363
330
32C
100
AcDbEntity
  8
0
  6
CONTINUOUS
 62
     2
100
AcDbLine
 10
216.0225
 20
383.454716
 30
0.0
 11
218.5225
 21
383.454716
 31
0.0
  0
LINE
  5
364
330
32C
100
AcDbEntity
  8
0
  6
CONTINUOUS
 62
     2
100
AcDbLine
 10
220.0225
 20
383.454716
 30
0.0
 11
236.0725
 21
383.454716
 31
0.0
  0
LINE
  5
365
330
32C
100
AcDbEntity
  8
0
  6
CONTINUOUS
 62
     2
100
AcDbLine
 10
237.5725
 20
383.454716
 30
0.0
 11
240.0725
 21
383.454716
 31
0.0
  0
LINE
  5
366
330
32C
100
AcDbEntity
  8
0
  6
CONTINUOUS
 62
     2
100
AcDbLine
 10
241.5725
 20
383.454716
 30
0.0
 11
257.6225
 21
383.454716
 31
0.0
  0
LINE
  5
367
330
32C
100
AcDbEntity
  8
0
  6
CONTINUOUS
 62
     2
100
AcDbLine
 10
259.1225
 20
383.454716
 30
0.0
 11
261.6225
 21
383.454716
 31
0.0
  0
LINE
  5
368
330
32C
100
AcDbEntity
  8
0
  6
CONTINUOUS
 62
     2
100
AcDbLine
 10
263.1225
 20
383.454716
 30
0.0
 11
279.1725
 21
383.454716
 31
0.0
  0
LINE
  5
369
330
32C
100
AcDbEntity
  8
0
  6
CONTINUOUS
 62
     2
100
AcDbLine
 10
280.6725
 20
383.454716
 30
0.0
 11
283.1725
 21
383.454716
 31
0.0
  0
LINE
  5
36A
330
32C
100
AcDbEntity
  8
0
  6
CONTINUOUS
 62
     2
100
AcDbLine
 10
284.6725
 20
383.454716
 30
0.0
 11
300.7225
 21
383.454716
 31
0.0
  0
LINE
  5
36B
330
32C
100
AcDbEntity
  8
0
  6
CONTINUOUS
 62
     2
100
AcDbLine
 10
302.2225
 20
383.454716
 30
0.0
 11
304.7225
 21
383.454716
 31
0.0
  0
LINE
  5
36C
330
32C
100
AcDbEntity
  8
0
  6
CONTINUOUS
 62
     2
100
AcDbLine
 10
306.2225
 20
383.454716
 30
0.0
 11
322.2725
 21
383.454716
 31
0.0
  0
ENDBLK
  5
36F
330
32C
100
AcDbEntity
  8
0
100
AcDbBlockEnd
  0
BLOCK
  5
385
330
370
100
AcDbEntity
  8
0
100
AcDbBlockBegin
  2
CENTERLINE2
 70
     0
 10
0.0
 20
0.0
 30
0.0
  3
CENTERLINE2
  1

  0
LINE
  5
371
330
370
100
AcDbEntity
  8
0
  6
CONTINUOUS
 62
     2
100
AcDbLine
 10
170.2725
 20
400.204716
 30
0.0
 11
170.2725
 21
402.704716
 31
0.0
  0
LINE
  5
372
330
370
100
AcDbEntity
  8
0
  6
CONTINUOUS
 62
     2
100
AcDbLine
 10
170.2725
 20
398.704716
 30
0.0
 11
170.2725
 21
396.704716
 31
0.0
  0
LINE
  5
373
330
370
100
AcDbEntity
  8
0
  6
CONTINUOUS
 62
     2
100
AcDbLine
 10
170.2725
 20
404.204716
 30
0.0
 11
170.2725
 21
406.204716
 31
0.0
  0
LINE
  5
374
330
370
100
AcDbEntity
  8
0
  6
CONTINUOUS
 62
     2
100
AcDbLine
 10
264.2725
 20
400.204716
 30
0.0
 11
264.2725
 21
402.704716
 31
0.0
  0
LINE
  5
375
330
370
100
AcDbEntity
  8
0
  6
CONTINUOUS
 62
     2
100
AcDbLine
 10
264.2725
 20
398.704716
 30
0.0
 11
264.2725
 21
396.704716
 31
0.0
  0
LINE
  5
376
330
370
100
AcDbEntity
  8
0
  6
CONTINUOUS
 62
     2
100
AcDbLine
 10
264.2725
 20
404.204716
 30
0.0
 11
264.2725
 21
406.204716
 31
0.0
  0
LINE
  5
377
330
370
100
AcDbEntity
  8
0
  6
CONTINUOUS
 62
     2
100
AcDbLine
 10
167.5225
 20
401.454716
 30
0.0
 11
165.5225
 21
401.454716
 31
0.0
  0
LINE
  5
378
330
370
100
AcDbEntity
  8
0
  6
CONTINUOUS
 62
     2
100
AcDbLine
 10
169.0225
 20
401.454716
 30
0.0
 11
171.5225
 21
401.454716
 31
0.0
  0
LINE
  5
379
330
370
100
AcDbEntity
  8
0
  6
CONTINUOUS
 62
     2
100
AcDbLine
 10
173.0225
 20
401.454716
 30
0.0
 11
186.3225
 21
401.454716
 31
0.0
  0
LINE
  5
37A
330
370
100
AcDbEntity
  8
0
  6
CONTINUOUS
 62
     2
100
AcDbLine
 10
187.8225
 20
401.454716
 30
0.0
 11
190.3225
 21
401.454716
 31
0.0
  0
LINE
  5
37B
330
370
100
AcDbEntity
  8
0
  6
CONTINUOUS
 62
     2
100
AcDbLine
 10
191.8225
 20
401.454716
 30
0.0
 11
205.1225
 21
401.454716
 31
0.0
  0
LINE
  5
37C
330
370
100
AcDbEntity
  8
0
  6
CONTINUOUS
 62
     2
100
AcDbLine
 10
206.6225
 20
401.454716
 30
0.0
 11
209.1225
 21
401.454716
 31
0.0
  0
LINE
  5
37D
330
370
100
AcDbEntity
  8
0
  6
CONTINUOUS
 62
     2
100
AcDbLine
 10
210.6225
 20
401.454716
 30
0.0
 11
223.9225
 21
401.454716
 31
0.0
  0
LINE
  5
37E
330
370
100
AcDbEntity
  8
0
  6
CONTINUOUS
 62
     2
100
AcDbLine
 10
225.4225
 20
401.454716
 30
0.0
 11
227.9225
 21
401.454716
 31
0.0
  0
LINE
  5
37F
330
370
100
AcDbEntity
  8
0
  6
CONTINUOUS
 62
     2
100
AcDbLine
 10
229.4225
 20
401.454716
 30
0.0
 11
242.7225
 21
401.454716
 31
0.0
  0
LINE
  5
380
330
370
100
AcDbEntity
  8
0
  6
CONTINUOUS
 62
     2
100
AcDbLine
 10
244.2225
 20
401.454716
 30
0.0
 11
246.7225
 21
401.454716
 31
0.0
  0
LINE
  5
381
330
370
100
AcDbEntity
  8
0
  6
CONTINUOUS
 62
     2
100
AcDbLine
 10
248.2225
 20
401.454716
 30
0.0
 11
261.5225
 21
401.454716
 31
0.0
  0
LINE
  5
382
330
370
100
AcDbEntity
  8
0
  6
CONTINUOUS
 62
     2
100
AcDbLine
 10
263.0225
 20
401.454716
 30
0.0
 11
265.5225
 21
401.454716
 31
0.0
  0
LINE
  5
383
330
370
100
AcDbEntity
  8
0
  6
CONTINUOUS
 62
     2
100
AcDbLine
 10
267.0225
 20
401.454716
 30
0.0
 11
269.0225
 21
401.454716
 31
0.0
  0
ENDBLK
  5
386
330
370
100
AcDbEntity
  8
0
100
AcDbBlockEnd
  0
BLOCK
  5
396
330
387
100
AcDbEntity
  8
0
100
AcDbBlockBegin
  2
CENTERLINE3
 70
     0
 10
0.0
 20
0.0
 30
0.0
  3
CENTERLINE3
  1

  0
LINE
  5
388
330
387
100
AcDbEntity
  8
0
  6
CONTINUOUS
 62
     2
100
AcDbLine
 10
202.2725
 20
334.204716
 30
0.0
 11
202.2725
 21
336.704716
 31
0.0
  0
LINE
  5
389
330
387
100
AcDbEntity
  8
0
  6
CONTINUOUS
 62
     2
100
AcDbLine
 10
202.2725
 20
332.704716
 30
0.0
 11
202.2725
 21
330.704716
 31
0.0
  0
LINE
  5
38A
330
387
100
AcDbEntity
  8
0
  6
CONTINUOUS
 62
     2
100
AcDbLine
 10
202.2725
 20
338.204716
 30
0.0
 11
202.2725
 21
340.204716
 31
0.0
  0
LINE
  5
38B
330
387
100
AcDbEntity
  8
0
  6
CONTINUOUS
 62
     2
100
AcDbLine
 10
232.2725
 20
334.204716
 30
0.0
 11
232.2725
 21
336.704716
 31
0.0
  0
LINE
  5
38C
330
387
100
AcDbEntity
  8
0
  6
CONTINUOUS
 62
     2
100
AcDbLine
 10
232.2725
 20
332.704716
 30
0.0
 11
232.2725
 21
330.704716
 31
0.0
  0
LINE
  5
38D
330
387
100
AcDbEntity
  8
0
  6
CONTINUOUS
 62
     2
100
AcDbLine
 10
232.2725
 20
338.204716
 30
0.0
 11
232.2725
 21
340.204716
 31
0.0
  0
LINE
  5
38E
330
387
100
AcDbEntity
  8
0
  6
CONTINUOUS
 62
     2
100
AcDbLine
 10
199.5225
 20
335.454716
 30
0.0
 11
197.5225
 21
335.454716
 31
0.0
  0
LINE
  5
38F
330
387
100
AcDbEntity
  8
0
  6
CONTINUOUS
 62
     2
100
AcDbLine
 10
201.0225
 20
335.454716
 30
0.0
 11
203.5225
 21
335.454716
 31
0.0
  0
LINE
  5
390
330
387
100
AcDbEntity
  8
0
  6
CONTINUOUS
 62
     2
100
AcDbLine
 10
205.0225
 20
335.454716
 30
0.0
 11
214.5225
 21
335.454716
 31
0.0
  0
LINE
  5
391
330
387
100
AcDbEntity
  8
0
  6
CONTINUOUS
 62
     2
100
AcDbLine
 10
216.0225
 20
335.454716
 30
0.0
 11
218.5225
 21
335.454716
 31
0.0
  0
LINE
  5
392
330
387
100
AcDbEntity
  8
0
  6
CONTINUOUS
 62
     2
100
AcDbLine
 10
220.0225
 20
335.454716
 30
0.0
 11
229.5225
 21
335.454716
 31
0.0
  0
LINE
  5
393
330
387
100
AcDbEntity
  8
0
  6
CONTINUOUS
 62
     2
100
AcDbLine
 10
231.0225
 20
335.454716
 30
0.0
 11
233.5225
 21
335.454716
 31
0.0
  0
LINE
  5
394
330
387
100
AcDbEntity
  8
0
  6
CONTINUOUS
 62
     2
100
AcDbLine
 10
235.0225
 20
335.454716
 30
0.0
 11
237.0225
 21
335.454716
 31
0.0
  0
ENDBLK
  5
397
330
387
100
AcDbEntity
  8
0
100
AcDbBlockEnd
  0
BLOCK
  5
3A5
330
398
100
AcDbEntity
  8
0
100
AcDbBlockBegin
  2
CENTERLINE4
 70
     0
 10
0.0
 20
0.0
 30
0.0
  3
CENTERLINE4
  1

  0
LINE
  5
399
330
398
100
AcDbEntity
  8
0
  6
CONTINUOUS
 62
     2
100
AcDbLine
 10
172.855032
 20
304.021404
 30
0.0
 11
170.689968
 21
305.271404
 31
0.0
  0
LINE
  5
39A
330
398
100
AcDbEntity
  8
0
  6
CONTINUOUS
 62
     2
100
AcDbLine
 10
218.355032
 20
382.829716
 30
0.0
 11
216.189968
 21
384.079716
 31
0.0
  0
LINE
  5
39B
330
398
100
AcDbEntity
  8
0
  6
CONTINUOUS
 62
     2
100
AcDbLine
 10
171.1475
 20
303.563872
 30
0.0
 11
172.3975
 21
305.728936
 31
0.0
  0
LINE
  5
39C
330
398
100
AcDbEntity
  8
0
  6
CONTINUOUS
 62
     2
100
AcDbLine
 10
173.1475
 20
307.027974
 30
0.0
 11
181.7725
 21
321.966912
 31
0.0
  0
LINE
  5
39D
330
398
100
AcDbEntity
  8
0
  6
CONTINUOUS
 62
     2
100
AcDbLine
 10
182.5225
 20
323.26595
 30
0.0
 11
183.7725
 21
325.431014
 31
0.0
  0
LINE
  5
39E
330
398
100
AcDbEntity
  8
0
  6
CONTINUOUS
 62
     2
100
AcDbLine
 10
184.5225
 20
326.730052
 30
0.0
 11
193.1475
 21
341.66899
 31
0.0
  0
LINE
  5
39F
330
398
100
AcDbEntity
  8
0
  6
CONTINUOUS
 62
     2
100
AcDbLine
 10
193.8975
 20
342.968028
 30
0.0
 11
195.1475
 21
345.133092
 31
0.0
  0
LINE
  5
3A0
330
398
100
AcDbEntity
  8
0
  6
CONTINUOUS
 62
     2
100
AcDbLine
 10
195.8975
 20
346.43213
 30
0.0
 11
204.5225
 21
361.371068
 31
0.0
  0
LINE
  5
3A1
330
398
100
AcDbEntity
  8
0
  6
CONTINUOUS
 62
     2
100
AcDbLine
 10
205.2725
 20
362.670106
 30
0.0
 11
206.5225
 21
364.835169
 31
0.0
  0
LINE
  5
3A2
330
398
100
AcDbEntity
  8
0
  6
CONTINUOUS
 62
     2
100
AcDbLine
 10
207.2725
 20
366.134208
 30
0.0
 11
215.8975
 21
381.073146
 31
0.0
  0
LINE
  5
3A3
330
398
100
AcDbEntity
  8
0
  6
CONTINUOUS
 62
     2
100
AcDbLine
 10
216.6475
 20
382.372184
 30
0.0
 11
217.8975
 21
384.537247
 31
0.0
  0
ENDBLK
  5
3A6
330
398
100
AcDbEntity
  8
0
100
AcDbBlockEnd
  0
BLOCK
  5
3B4
330
3A7
100
AcDbEntity
  8
0
100
AcDbBlockBegin
  2
CENTERLINE5
 70
     0
 10
0.0
 20
0.0
 30
0.0
  3
CENTERLINE5
  1

  0
LINE
  5
3A8
330
3A7
100
AcDbEntity
  8
0
  6
CONTINUOUS
 62
     2
100
AcDbLine
 10
218.355032
 20
384.079716
 30
0.0
 11
216.189968
 21
382.829716
 31
0.0
  0
LINE
  5
3A9
330
3A7
100
AcDbEntity
  8
0
  6
CONTINUOUS
 62
     2
100
AcDbLine
 10
172.855032
 20
462.888027
 30
0.0
 11
170.689968
 21
461.638027
 31
0.0
  0
LINE
  5
3AA
330
3A7
100
AcDbEntity
  8
0
  6
CONTINUOUS
 62
     2
100
AcDbLine
 10
217.8975
 20
382.372184
 30
0.0
 11
216.6475
 21
384.537247
 31
0.0
  0
LINE
  5
3AB
330
3A7
100
AcDbEntity
  8
0
  6
CONTINUOUS
 62
     2
100
AcDbLine
 10
215.8975
 20
385.836285
 30
0.0
 11
207.2725
 21
400.775224
 31
0.0
  0
LINE
  5
3AC
330
3A7
100
AcDbEntity
  8
0
  6
CONTINUOUS
 62
     2
100
AcDbLine
 10
206.5225
 20
402.074262
 30
0.0
 11
205.2725
 21
404.239325
 31
0.0
  0
LINE
  5
3AD
330
3A7
100
AcDbEntity
  8
0
  6
CONTINUOUS
 62
     2
100
AcDbLine
 10
204.5225
 20
405.538363
 30
0.0
 11
195.8975
 21
420.477302
 31
0.0
  0
LINE
  5
3AE
330
3A7
100
AcDbEntity
  8
0
  6
CONTINUOUS
 62
     2
100
AcDbLine
 10
195.1475
 20
421.77634
 30
0.0
 11
193.8975
 21
423.941403
 31
0.0
  0
LINE
  5
3AF
330
3A7
100
AcDbEntity
  8
0
  6
CONTINUOUS
 62
     2
100
AcDbLine
 10
193.1475
 20
425.240441
 30
0.0
 11
184.5225
 21
440.17938
 31
0.0
  0
LINE
  5
3B0
330
3A7
100
AcDbEntity
  8
0
  6
CONTINUOUS
 62
     2
100
AcDbLine
 10
183.7725
 20
441.478418
 30
0.0
 11
182.5225
 21
443.643481
 31
0.0
  0
LINE
  5
3B1
330
3A7
100
AcDbEntity
  8
0
  6
CONTINUOUS
 62
     2
100
AcDbLine
 10
181.7725
 20
444.942519
 30
0.0
 11
173.1475
 21
459.881458
 31
0.0
  0
LINE
  5
3B2
330
3A7
100
AcDbEntity
  8
0
  6
CONTINUOUS
 62
     2
100
AcDbLine
 10
172.3975
 20
461.180496
 30
0.0
 11
171.1475
 21
463.345559
 31
0.0
  0
ENDBLK
  5
3B5
330
3A7
100
AcDbEntity
  8
0
100
AcDbBlockEnd
  0
BLOCK
  5
3C9
330
3B6
100
AcDbEntity
  8
0
100
AcDbBlockBegin
  2
CENTERLINE6
 70
     0
 10
0.0
 20
0.0
 30
0.0
  3
CENTERLINE6
  1

  0
LINE
  5
3B7
330
3B6
100
AcDbEntity
  8
0
  6
CONTINUOUS
 62
     2
100
AcDbLine
 10
203.397268
 20
336.000058
 30
0.0
 11
201.147732
 21
334.909374
 31
0.0
  0
LINE
  5
3B8
330
3B6
100
AcDbEntity
  8
0
  6
CONTINUOUS
 62
     2
100
AcDbLine
 10
204.746989
 20
336.654468
 30
0.0
 11
207.446431
 21
337.963288
 31
0.0
  0
LINE
  5
3B9
330
3B6
100
AcDbEntity
  8
0
  6
CONTINUOUS
 62
     2
100
AcDbLine
 10
199.798011
 20
334.254963
 30
0.0
 11
197.098569
 21
332.946143
 31
0.0
  0
LINE
  5
3BA
330
3B6
100
AcDbEntity
  8
0
  6
CONTINUOUS
 62
     2
100
AcDbLine
 10
171.397268
 20
402.000058
 30
0.0
 11
169.147732
 21
400.909374
 31
0.0
  0
LINE
  5
3BB
330
3B6
100
AcDbEntity
  8
0
  6
CONTINUOUS
 62
     2
100
AcDbLine
 10
172.746989
 20
402.654468
 30
0.0
 11
175.446431
 21
403.963288
 31
0.0
  0
LINE
  5
3BC
330
3B6
100
AcDbEntity
  8
0
  6
CONTINUOUS
 62
     2
100
AcDbLine
 10
167.798011
 20
400.254963
 30
0.0
 11
165.098569
 21
398.946143
 31
0.0
  0
LINE
  5
3BD
330
3B6
100
AcDbEntity
  8
0
  6
CONTINUOUS
 62
     2
100
AcDbLine
 10
203.472252
 20
332.980227
 30
0.0
 11
204.781073
 21
330.280785
 31
0.0
  0
LINE
  5
3BE
330
3B6
100
AcDbEntity
  8
0
  6
CONTINUOUS
 62
     2
100
AcDbLine
 10
202.817842
 20
334.329948
 30
0.0
 11
201.727158
 21
336.579483
 31
0.0
  0
LINE
  5
3BF
330
3B6
100
AcDbEntity
  8
0
  6
CONTINUOUS
 62
     2
100
AcDbLine
 10
201.072748
 20
337.929204
 30
0.0
 11
195.472252
 21
349.480227
 31
0.0
  0
LINE
  5
3C0
330
3B6
100
AcDbEntity
  8
0
  6
CONTINUOUS
 62
     2
100
AcDbLine
 10
194.817842
 20
350.829948
 30
0.0
 11
193.727158
 21
353.079483
 31
0.0
  0
LINE
  5
3C1
330
3B6
100
AcDbEntity
  8
0
  6
CONTINUOUS
 62
     2
100
AcDbLine
 10
193.072748
 20
354.429204
 30
0.0
 11
187.472252
 21
365.980227
 31
0.0
  0
LINE
  5
3C2
330
3B6
100
AcDbEntity
  8
0
  6
CONTINUOUS
 62
     2
100
AcDbLine
 10
186.817842
 20
367.329948
 30
0.0
 11
185.727158
 21
369.579483
 31
0.0
  0
LINE
  5
3C3
330
3B6
100
AcDbEntity
  8
0
  6
CONTINUOUS
 62
     2
100
AcDbLine
 10
185.072748
 20
370.929204
 30
0.0
 11
179.472252
 21
382.480227
 31
0.0
  0
LINE
  5
3C4
330
3B6
100
AcDbEntity
  8
0
  6
CONTINUOUS
 62
     2
100
AcDbLine
 10
178.817842
 20
383.829948
 30
0.0
 11
177.727158
 21
386.079483
 31
0.0
  0
LINE
  5
3C5
330
3B6
100
AcDbEntity
  8
0
  6
CONTINUOUS
 62
     2
100
AcDbLine
 10
177.072748
 20
387.429204
 30
0.0
 11
171.472252
 21
398.980227
 31
0.0
  0
LINE
  5
3C6
330
3B6
100
AcDbEntity
  8
0
  6
CONTINUOUS
 62
     2
100
AcDbLine
 10
170.817842
 20
400.329948
 30
0.0
 11
169.727158
 21
402.579483
 31
0.0
  0
LINE
  5
3C7
330
3B6
100
AcDbEntity
  8
0
  6
CONTINUOUS
 62
     2
100
AcDbLine
 10
169.072748
 20
403.929204
 30
0.0
 11
167.763927
 21
406.628647
 31
0.0
  0
ENDBLK
  5
3CA
330
3B6
100
AcDbEntity
  8
0
100
AcDbBlockEnd
  0
BLOCK
  5
3DE
330
3CB
100
AcDbEntity
  8
0
100
AcDbBlockBegin
  2
CENTERLINE7
 70
     0
 10
0.0
 20
0.0
 30
0.0
  3
CENTERLINE7
  1

  0
LINE
  5
3CC
330
3CB
100
AcDbEntity
  8
0
  6
CONTINUOUS
 62
     2
100
AcDbLine
 10
233.397268
 20
334.909374
 30
0.0
 11
231.147732
 21
336.000058
 31
0.0
  0
LINE
  5
3CD
330
3CB
100
AcDbEntity
  8
0
  6
CONTINUOUS
 62
     2
100
AcDbLine
 10
234.746989
 20
334.254963
 30
0.0
 11
237.446431
 21
332.946143
 31
0.0
  0
LINE
  5
3CE
330
3CB
100
AcDbEntity
  8
0
  6
CONTINUOUS
 62
     2
100
AcDbLine
 10
229.798011
 20
336.654468
 30
0.0
 11
227.098569
 21
337.963288
 31
0.0
  0
LINE
  5
3CF
330
3CB
100
AcDbEntity
  8
0
  6
CONTINUOUS
 62
     2
100
AcDbLine
 10
265.397268
 20
400.909374
 30
0.0
 11
263.147732
 21
402.000058
 31
0.0
  0
LINE
  5
3D0
330
3CB
100
AcDbEntity
  8
0
  6
CONTINUOUS
 62
     2
100
AcDbLine
 10
266.746989
 20
400.254963
 30
0.0
 11
269.446431
 21
398.946143
 31
0.0
  0
LINE
  5
3D1
330
3CB
100
AcDbEntity
  8
0
  6
CONTINUOUS
 62
     2
100
AcDbLine
 10
261.798011
 20
402.654468
 30
0.0
 11
259.098569
 21
403.963288
 31
0.0
  0
LINE
  5
3D2
330
3CB
100
AcDbEntity
  8
0
  6
CONTINUOUS
 62
     2
100
AcDbLine
 10
231.072748
 20
332.980227
 30
0.0
 11
229.763927
 21
330.280785
 31
0.0
  0
LINE
  5
3D3
330
3CB
100
AcDbEntity
  8
0
  6
CONTINUOUS
 62
     2
100
AcDbLine
 10
231.727158
 20
334.329948
 30
0.0
 11
232.817842
 21
336.579483
 31
0.0
  0
LINE
  5
3D4
330
3CB
100
AcDbEntity
  8
0
  6
CONTINUOUS
 62
     2
100
AcDbLine
 10
233.472252
 20
337.929204
 30
0.0
 11
239.072748
 21
349.480227
 31
0.0
  0
LINE
  5
3D5
330
3CB
100
AcDbEntity
  8
0
  6
CONTINUOUS
 62
     2
100
AcDbLine
 10
239.727158
 20
350.829948
 30
0.0
 11
240.817842
 21
353.079483
 31
0.0
  0
LINE
  5
3D6
330
3CB
100
AcDbEntity
  8
0
  6
CONTINUOUS
 62
     2
100
AcDbLine
 10
241.472252
 20
354.429204
 30
0.0
 11
247.072748
 21
365.980227
 31
0.0
  0
LINE
  5
3D7
330
3CB
100
AcDbEntity
  8
0
  6
CONTINUOUS
 62
     2
100
AcDbLine
 10
247.727158
 20
367.329948
 30
0.0
 11
248.817842
 21
369.579483
 31
0.0
  0
LINE
  5
3D8
330
3CB
100
AcDbEntity
  8
0
  6
CONTINUOUS
 62
     2
100
AcDbLine
 10
249.472252
 20
370.929204
 30
0.0
 11
255.072748
 21
382.480227
 31
0.0
  0
LINE
  5
3D9
330
3CB
100
AcDbEntity
  8
0
  6
CONTINUOUS
 62
     2
100
AcDbLine
 10
255.727158
 20
383.829948
 30
0.0
 11
256.817842
 21
386.079483
 31
0.0
  0
LINE
  5
3DA
330
3CB
100
AcDbEntity
  8
0
  6
CONTINUOUS
 62
     2
100
AcDbLine
 10
257.472252
 20
387.429204
 30
0.0
 11
263.072748
 21
398.980227
 31
0.0
  0
LINE
  5
3DB
330
3CB
100
AcDbEntity
  8
0
  6
CONTINUOUS
 62
     2
100
AcDbLine
 10
263.727158
 20
400.329948
 30
0.0
 11
264.817842
 21
402.579483
 31
0.0
  0
LINE
  5
3DC
330
3CB
100
AcDbEntity
  8
0
  6
CONTINUOUS
 62
     2
100
AcDbLine
 10
265.472252
 20
403.929204
 30
0.0
 11
266.781073
 21
406.628647
 31
0.0
  0
ENDBLK
  5
3DF
330
3CB
100
AcDbEntity
  8
0
100
AcDbBlockEnd
  0
BLOCK
  5
41B
330
3E0
100
AcDbEntity
  8
0
100
AcDbBlockBegin
  2
CENTERLINE8
 70
     0
 10
0.0
 20
0.0
 30
0.0
  3
CENTERLINE8
  1

  0
ARC
  5
3E1
330
3E0
100
AcDbEntity
  8
0
 62
     2
100
AcDbCircle
 10
217.2725
 20
383.454716
 30
0.0
 40
90.99999999999999
100
AcDbArc
 50
239.21297
 51
240.0
  0
ARC
  5
3E2
330
3E0
100
AcDbEntity
  8
0
 62
     2
100
AcDbCircle
 10
217.2725
 20
383.454716
 30
0.0
 40
90.99999999999999
100
AcDbArc
 50
240.0
 51
240.78703
  0
ARC
  5
3E3
330
3E0
100
AcDbEntity
  8
0
 62
     2
100
AcDbCircle
 10
217.2725
 20
383.454716
 30
0.0
 40
90.99999999999999
100
AcDbArc
 50
241.731466
 51
251.125677
  0
ARC
  5
3E4
330
3E0
100
AcDbEntity
  8
0
 62
     2
100
AcDbCircle
 10
217.2725
 20
383.454716
 30
0.0
 40
90.99999999999999
100
AcDbArc
 50
252.070113
 51
253.644173
  0
ARC
  5
3E5
330
3E0
100
AcDbEntity
  8
0
 62
     2
100
AcDbCircle
 10
217.2725
 20
383.454716
 30
0.0
 40
90.99999999999999
100
AcDbArc
 50
254.588609
 51
263.98282
  0
ARC
  5
3E6
330
3E0
100
AcDbEntity
  8
0
 62
     2
100
AcDbCircle
 10
217.2725
 20
383.454716
 30
0.0
 40
90.99999999999999
100
AcDbArc
 50
264.927256
 51
266.501316
  0
ARC
  5
3E7
330
3E0
100
AcDbEntity
  8
0
 62
     2
100
AcDbCircle
 10
217.2725
 20
383.454716
 30
0.0
 40
90.99999999999999
100
AcDbArc
 50
267.445752
 51
276.839963
  0
ARC
  5
3E8
330
3E0
100
AcDbEntity
  8
0
 62
     2
100
AcDbCircle
 10
217.2725
 20
383.454716
 30
0.0
 40
90.99999999999999
100
AcDbArc
 50
277.784399
 51
279.358459
  0
ARC
  5
3E9
330
3E0
100
AcDbEntity
  8
0
 62
     2
100
AcDbCircle
 10
217.2725
 20
383.454716
 30
0.0
 40
90.99999999999999
100
AcDbArc
 50
280.302894
 51
289.697106
  0
ARC
  5
3EA
330
3E0
100
AcDbEntity
  8
0
 62
     2
100
AcDbCircle
 10
217.2725
 20
383.454716
 30
0.0
 40
90.99999999999999
100
AcDbArc
 50
290.641541
 51
292.215601
  0
ARC
  5
3EB
330
3E0
100
AcDbEntity
  8
0
 62
     2
100
AcDbCircle
 10
217.2725
 20
383.454716
 30
0.0
 40
90.99999999999999
100
AcDbArc
 50
293.160037
 51
302.554248
  0
ARC
  5
3EC
330
3E0
100
AcDbEntity
  8
0
 62
     2
100
AcDbCircle
 10
217.2725
 20
383.454716
 30
0.0
 40
90.99999999999999
100
AcDbArc
 50
303.498684
 51
305.072744
  0
ARC
  5
3ED
330
3E0
100
AcDbEntity
  8
0
 62
     2
100
AcDbCircle
 10
217.2725
 20
383.454716
 30
0.0
 40
90.99999999999999
100
AcDbArc
 50
306.01718
 51
315.411391
  0
ARC
  5
3EE
330
3E0
100
AcDbEntity
  8
0
 62
     2
100
AcDbCircle
 10
217.2725
 20
383.454716
 30
0.0
 40
90.99999999999999
100
AcDbArc
 50
316.355827
 51
317.929887
  0
ARC
  5
3EF
330
3E0
100
AcDbEntity
  8
0
 62
     2
100
AcDbCircle
 10
217.2725
 20
383.454716
 30
0.0
 40
90.99999999999999
100
AcDbArc
 50
318.874323
 51
328.268534
  0
ARC
  5
3F0
330
3E0
100
AcDbEntity
  8
0
 62
     2
100
AcDbCircle
 10
217.2725
 20
383.454716
 30
0.0
 40
90.99999999999999
100
AcDbArc
 50
329.21297
 51
330.78703
  0
ARC
  5
3F1
330
3E0
100
AcDbEntity
  8
0
 62
     2
100
AcDbCircle
 10
217.2725
 20
383.454716
 30
0.0
 40
90.99999999999999
100
AcDbArc
 50
331.731466
 51
341.125677
  0
ARC
  5
3F2
330
3E0
100
AcDbEntity
  8
0
 62
     2
100
AcDbCircle
 10
217.2725
 20
383.454716
 30
0.0
 40
90.99999999999999
100
AcDbArc
 50
342.070113
 51
343.644173
  0
ARC
  5
3F3
330
3E0
100
AcDbEntity
  8
0
 62
     2
100
AcDbCircle
 10
217.2725
 20
383.454716
 30
0.0
 40
90.99999999999999
100
AcDbArc
 50
344.588609
 51
353.98282
  0
ARC
  5
3F4
330
3E0
100
AcDbEntity
  8
0
 62
     2
100
AcDbCircle
 10
217.2725
 20
383.454716
 30
0.0
 40
90.99999999999999
100
AcDbArc
 50
354.927256
 51
356.501316
  0
ARC
  5
3F5
330
3E0
100
AcDbEntity
  8
0
 62
     2
100
AcDbCircle
 10
217.2725
 20
383.454716
 30
0.0
 40
90.99999999999999
100
AcDbArc
 50
357.445752
 51
6.839963
  0
ARC
  5
3F6
330
3E0
100
AcDbEntity
  8
0
 62
     2
100
AcDbCircle
 10
217.2725
 20
383.454716
 30
0.0
 40
90.99999999999999
100
AcDbArc
 50
7.784399
 51
9.358459
  0
ARC
  5
3F7
330
3E0
100
AcDbEntity
  8
0
 62
     2
100
AcDbCircle
 10
217.2725
 20
383.454716
 30
0.0
 40
90.99999999999999
100
AcDbArc
 50
10.302894
 51
19.697106
  0
ARC
  5
3F8
330
3E0
100
AcDbEntity
  8
0
 62
     2
100
AcDbCircle
 10
217.2725
 20
383.454716
 30
0.0
 40
90.99999999999999
100
AcDbArc
 50
20.641541
 51
22.215601
  0
ARC
  5
3F9
330
3E0
100
AcDbEntity
  8
0
 62
     2
100
AcDbCircle
 10
217.2725
 20
383.454716
 30
0.0
 40
90.99999999999999
100
AcDbArc
 50
23.160037
 51
32.554248
  0
ARC
  5
3FA
330
3E0
100
AcDbEntity
  8
0
 62
     2
100
AcDbCircle
 10
217.2725
 20
383.454716
 30
0.0
 40
90.99999999999999
100
AcDbArc
 50
33.498684
 51
35.072744
  0
ARC
  5
3FB
330
3E0
100
AcDbEntity
  8
0
 62
     2
100
AcDbCircle
 10
217.2725
 20
383.454716
 30
0.0
 40
90.99999999999999
100
AcDbArc
 50
36.01718
 51
45.411391
  0
ARC
  5
3FC
330
3E0
100
AcDbEntity
  8
0
 62
     2
100
AcDbCircle
 10
217.2725
 20
383.454716
 30
0.0
 40
90.99999999999999
100
AcDbArc
 50
46.355827
 51
47.929887
  0
ARC
  5
3FD
330
3E0
100
AcDbEntity
  8
0
 62
     2
100
AcDbCircle
 10
217.2725
 20
383.454716
 30
0.0
 40
90.99999999999999
100
AcDbArc
 50
48.874323
 51
58.268534
  0
ARC
  5
3FE
330
3E0
100
AcDbEntity
  8
0
 62
     2
100
AcDbCircle
 10
217.2725
 20
383.454716
 30
0.0
 40
90.99999999999999
100
AcDbArc
 50
59.21297
 51
60.78703
  0
ARC
  5
3FF
330
3E0
100
AcDbEntity
  8
0
 62
     2
100
AcDbCircle
 10
217.2725
 20
383.454716
 30
0.0
 40
90.99999999999999
100
AcDbArc
 50
61.731466
 51
71.125677
  0
ARC
  5
400
330
3E0
100
AcDbEntity
  8
0
 62
     2
100
AcDbCircle
 10
217.2725
 20
383.454716
 30
0.0
 40
90.99999999999999
100
AcDbArc
 50
72.070113
 51
73.644173
  0
ARC
  5
401
330
3E0
100
AcDbEntity
  8
0
 62
     2
100
AcDbCircle
 10
217.2725
 20
383.454716
 30
0.0
 40
90.99999999999999
100
AcDbArc
 50
74.588609
 51
83.98282
  0
ARC
  5
402
330
3E0
100
AcDbEntity
  8
0
 62
     2
100
AcDbCircle
 10
217.2725
 20
383.454716
 30
0.0
 40
90.99999999999999
100
AcDbArc
 50
84.927256
 51
86.501316
  0
ARC
  5
403
330
3E0
100
AcDbEntity
  8
0
 62
     2
100
AcDbCircle
 10
217.2725
 20
383.454716
 30
0.0
 40
90.99999999999999
100
AcDbArc
 50
87.445752
 51
96.839963
  0
ARC
  5
404
330
3E0
100
AcDbEntity
  8
0
 62
     2
100
AcDbCircle
 10
217.2725
 20
383.454716
 30
0.0
 40
90.99999999999999
100
AcDbArc
 50
97.784399
 51
99.358459
  0
ARC
  5
405
330
3E0
100
AcDbEntity
  8
0
 62
     2
100
AcDbCircle
 10
217.2725
 20
383.454716
 30
0.0
 40
90.99999999999999
100
AcDbArc
 50
100.302894
 51
109.697106
  0
ARC
  5
406
330
3E0
100
AcDbEntity
  8
0
 62
     2
100
AcDbCircle
 10
217.2725
 20
383.454716
 30
0.0
 40
90.99999999999999
100
AcDbArc
 50
110.641541
 51
112.215601
  0
ARC
  5
407
330
3E0
100
AcDbEntity
  8
0
 62
     2
100
AcDbCircle
 10
217.2725
 20
383.454716
 30
0.0
 40
90.99999999999999
100
AcDbArc
 50
113.160037
 51
122.554248
  0
ARC
  5
408
330
3E0
100
AcDbEntity
  8
0
 62
     2
100
AcDbCircle
 10
217.2725
 20
383.454716
 30
0.0
 40
90.99999999999999
100
AcDbArc
 50
123.498684
 51
125.072744
  0
ARC
  5
409
330
3E0
100
AcDbEntity
  8
0
 62
     2
100
AcDbCircle
 10
217.2725
 20
383.454716
 30
0.0
 40
90.99999999999999
100
AcDbArc
 50
126.01718
 51
135.411391
  0
ARC
  5
40A
330
3E0
100
AcDbEntity
  8
0
 62
     2
100
AcDbCircle
 10
217.2725
 20
383.454716
 30
0.0
 40
90.99999999999999
100
AcDbArc
 50
136.355827
 51
137.929887
  0
ARC
  5
40B
330
3E0
100
AcDbEntity
  8
0
 62
     2
100
AcDbCircle
 10
217.2725
 20
383.454716
 30
0.0
 40
90.99999999999999
100
AcDbArc
 50
138.874323
 51
148.268534
  0
ARC
  5
40C
330
3E0
100
AcDbEntity
  8
0
 62
     2
100
AcDbCircle
 10
217.2725
 20
383.454716
 30
0.0
 40
90.99999999999999
100
AcDbArc
 50
149.21297
 51
150.78703
  0
ARC
  5
40D
330
3E0
100
AcDbEntity
  8
0
 62
     2
100
AcDbCircle
 10
217.2725
 20
383.454716
 30
0.0
 40
90.99999999999999
100
AcDbArc
 50
151.731466
 51
161.125677
  0
ARC
  5
40E
330
3E0
100
AcDbEntity
  8
0
 62
     2
100
AcDbCircle
 10
217.2725
 20
383.454716
 30
0.0
 40
90.99999999999999
100
AcDbArc
 50
162.070113
 51
163.644173
  0
ARC
  5
40F
330
3E0
100
AcDbEntity
  8
0
 62
     2
100
AcDbCircle
 10
217.2725
 20
383.454716
 30
0.0
 40
90.99999999999999
100
AcDbArc
 50
164.588609
 51
173.98282
  0
ARC
  5
410
330
3E0
100
AcDbEntity
  8
0
 62
     2
100
AcDbCircle
 10
217.2725
 20
383.454716
 30
0.0
 40
90.99999999999999
100
AcDbArc
 50
174.927256
 51
176.501316
  0
ARC
  5
411
330
3E0
100
AcDbEntity
  8
0
 62
     2
100
AcDbCircle
 10
217.2725
 20
383.454716
 30
0.0
 40
90.99999999999999
100
AcDbArc
 50
177.445752
 51
186.839963
  0
ARC
  5
412
330
3E0
100
AcDbEntity
  8
0
 62
     2
100
AcDbCircle
 10
217.2725
 20
383.454716
 30
0.0
 40
90.99999999999999
100
AcDbArc
 50
187.784399
 51
189.358459
  0
ARC
  5
413
330
3E0
100
AcDbEntity
  8
0
 62
     2
100
AcDbCircle
 10
217.2725
 20
383.454716
 30
0.0
 40
90.99999999999999
100
AcDbArc
 50
190.302894
 51
199.697106
  0
ARC
  5
414
330
3E0
100
AcDbEntity
  8
0
 62
     2
100
AcDbCircle
 10
217.2725
 20
383.454716
 30
0.0
 40
90.99999999999999
100
AcDbArc
 50
200.641541
 51
202.215601
  0
ARC
  5
415
330
3E0
100
AcDbEntity
  8
0
 62
     2
100
AcDbCircle
 10
217.2725
 20
383.454716
 30
0.0
 40
90.99999999999999
100
AcDbArc
 50
203.160037
 51
212.554248
  0
ARC
  5
416
330
3E0
100
AcDbEntity
  8
0
 62
     2
100
AcDbCircle
 10
217.2725
 20
383.454716
 30
0.0
 40
90.99999999999999
100
AcDbArc
 50
213.498684
 51
215.072744
  0
ARC
  5
417
330
3E0
100
AcDbEntity
  8
0
 62
     2
100
AcDbCircle
 10
217.2725
 20
383.454716
 30
0.0
 40
90.99999999999999
100
AcDbArc
 50
216.01718
 51
225.411391
  0
ARC
  5
418
330
3E0
100
AcDbEntity
  8
0
 62
     2
100
AcDbCircle
 10
217.2725
 20
383.454716
 30
0.0
 40
90.99999999999999
100
AcDbArc
 50
226.355827
 51
227.929887
  0
ARC
  5
419
330
3E0
100
AcDbEntity
  8
0
 62
     2
100
AcDbCircle
 10
217.2725
 20
383.454716
 30
0.0
 40
90.99999999999999
100
AcDbArc
 50
228.874323
 51
238.268534
  0
ENDBLK
  5
41C
330
3E0
100
AcDbEntity
  8
0
100
AcDbBlockEnd
  0
BLOCK
  5
42C
330
423
100
AcDbEntity
  8
0
100
AcDbBlockBegin
  2
DIMNDRAFT3D1
 70
     0
 10
0.0
 20
0.0
 30
0.0
  3
DIMNDRAFT3D1
  1

  0
MTEXT
  5
424
330
423
100
AcDbEntity
  8
1
  6
CONTINUOUS
 62
     4
100
AcDbMText
 10
49.166667
 20
117.991829
 30
0.0
 40
5.0
 41
0.0
 71
     7
 72
     5
  1
\W01.000;\W00.888;176 
  7
IDEAS_SIMPLEX
 11
6.123233995736766E-17
 21
1.0
 31
0.0
1001
ACAD
1000
MTEXTBEGIN
1070
    73
1070
     2
1070
    44
1040
0.722892
1000
MTEXTEND
1000
ACAD_MTEXT_DEFINED_HEIGHT_BEGIN
1070
    46
1040
0.2
1000
ACAD_MTEXT_DEFINED_HEIGHT_END
  0
LINE
  5
425
330
423
100
AcDbEntity
  8
1
  6
CONTINUOUS
 62
     4
100
AcDbLine
 10
217.2725
 20
210.441829
 30
0.0
 11
47.25
 21
210.441829
 31
0.0
  0
LINE
  5
426
330
423
100
AcDbEntity
  8
1
  6
CONTINUOUS
 62
     4
100
AcDbLine
 10
217.2725
 20
35.191829
 30
0.0
 11
47.25
 21
35.191829
 31
0.0
  0
LINE
  5
427
330
423
100
AcDbEntity
  8
1
  6
CONTINUOUS
 62
     4
100
AcDbLine
 10
48.75
 20
210.441829
 30
0.0
 11
48.75
 21
35.191829
 31
0.0
  0
LINE
  5
428
330
423
100
AcDbEntity
  8
1
  6
CONTINUOUS
 62
     4
100
AcDbLine
 10
48.75
 20
210.441829
 30
0.0
 11
49.285898
 21
208.441831
 31
0.0
  0
LINE
  5
429
330
423
100
AcDbEntity
  8
1
  6
CONTINUOUS
 62
     4
100
AcDbLine
 10
48.75
 20
210.441829
 30
0.0
 11
48.214102
 21
208.441827
 31
0.0
  0
LINE
  5
42A
330
423
100
AcDbEntity
  8
1
  6
CONTINUOUS
 62
     4
100
AcDbLine
 10
48.75
 20
35.191829
 30
0.0
 11
48.214102
 21
37.191827
 31
0.0
  0
LINE
  5
42B
330
423
100
AcDbEntity
  8
1
  6
CONTINUOUS
 62
     4
100
AcDbLine
 10
48.75
 20
35.191829
 30
0.0
 11
49.285898
 21
37.191831
 31
0.0
  0
ENDBLK
  5
42D
330
423
100
AcDbEntity
  8
0
100
AcDbBlockEnd
  0
BLOCK
  5
430
330
42F
100
AcDbEntity
  8
0
100
AcDbBlockBegin
  2
_OPEN
 70
     0
 10
0.0
 20
0.0
 30
0.0
  3
_OPEN
  1

  0
LINE
  5
432
330
42F
100
AcDbEntity
  8
0
  6
BYBLOCK
 62
     0
100
AcDbLine
 10
-1.0
 20
0.166667
 30
0.0
 11
0.0
 21
0.0
 31
0.0
  0
LINE
  5
433
330
42F
100
AcDbEntity
  8
0
  6
BYBLOCK
 62
     0
100
AcDbLine
 10
-1.0
 20
-0.166667
 30
0.0
 11
0.0
 21
0.0
 31
0.0
  0
LINE
  5
434
330
42F
100
AcDbEntity
  8
0
  6
BYBLOCK
 62
     0
100
AcDbLine
 10
0.0
 20
0.0
 30
0.0
 11
-1.0
 21
0.0
 31
0.0
  0
ENDBLK
  5
431
330
42F
100
AcDbEntity
  8
0
100
AcDbBlockEnd
  0
BLOCK
  5
43E
330
435
100
AcDbEntity
  8
0
100
AcDbBlockBegin
  2
DIMNDRAFT3D2
 70
     0
 10
0.0
 20
0.0
 30
0.0
  3
DIMNDRAFT3D2
  1

  0
MTEXT
  5
436
330
435
100
AcDbEntity
  8
1
  6
CONTINUOUS
 62
     4
100
AcDbMText
 10
74.166667
 20
67.2
 30
0.0
 40
5.0
 41
0.0
 71
     7
 72
     5
  1
\W01.000;\W00.809;92 
  7
IDEAS_SIMPLEX
 11
6.123233995736766E-17
 21
1.0
 31
0.0
1001
ACAD
1000
MTEXTBEGIN
1070
    73
1070
     2
1070
    44
1040
0.722892
1000
MTEXTEND
1000
ACAD_MTEXT_DEFINED_HEIGHT_BEGIN
1070
    46
1040
0.2
1000
ACAD_MTEXT_DEFINED_HEIGHT_END
  0
LINE
  5
437
330
435
100
AcDbEntity
  8
1
  6
CONTINUOUS
 62
     4
100
AcDbLine
 10
217.2715
 20
126.391829
 30
0.0
 11
72.25
 21
126.391829
 31
0.0
  0
LINE
  5
438
330
435
100
AcDbEntity
  8
1
  6
CONTINUOUS
 62
     4
100
AcDbLine
 10
217.2725
 20
35.191829
 30
0.0
 11
72.25
 21
35.191829
 31
0.0
  0
LINE
  5
439
330
435
100
AcDbEntity
  8
1
  6
CONTINUOUS
 62
     4
100
AcDbLine
 10
73.75
 20
126.391829
 30
0.0
 11
73.75
 21
35.191829
 31
0.0
  0
LINE
  5
43A
330
435
100
AcDbEntity
  8
1
  6
CONTINUOUS
 62
     4
100
AcDbLine
 10
73.75
 20
126.391829
 30
0.0
 11
74.285898
 21
124.391831
 31
0.0
  0
LINE
  5
43B
330
435
100
AcDbEntity
  8
1
  6
CONTINUOUS
 62
     4
100
AcDbLine
 10
73.75
 20
126.391829
 30
0.0
 11
73.214102
 21
124.391827
 31
0.0
  0
LINE
  5
43C
330
435
100
AcDbEntity
  8
1
  6
CONTINUOUS
 62
     4
100
AcDbLine
 10
73.75
 20
35.191829
 30
0.0
 11
73.214102
 21
37.191827
 31
0.0
  0
LINE
  5
43D
330
435
100
AcDbEntity
  8
1
  6
CONTINUOUS
 62
     4
100
AcDbLine
 10
73.75
 20
35.191829
 30
0.0
 11
74.285898
 21
37.191831
 31
0.0
  0
ENDBLK
  5
43F
330
435
100
AcDbEntity
  8
0
100
AcDbBlockEnd
  0
BLOCK
  5
44A
330
441
100
AcDbEntity
  8
0
100
AcDbBlockBegin
  2
DIMNDRAFT3D3
 70
     0
 10
0.0
 20
0.0
 30
0.0
  3
DIMNDRAFT3D3
  1

  0
MTEXT
  5
442
330
441
100
AcDbEntity
  8
1
  6
CONTINUOUS
 62
     4
100
AcDbMText
 10
564.166667
 20
435.175
 30
0.0
 40
5.0
 41
0.0
 71
     7
 72
     5
  1
\W01.000;\W00.995;9.8 
  7
IDEAS_SIMPLEX
 11
6.123233995736766E-17
 21
1.0
 31
0.0
1001
ACAD
1000
MTEXTBEGIN
1070
    73
1070
     2
1070
    44
1040
0.722892
1000
MTEXTEND
1000
ACAD_MTEXT_DEFINED_HEIGHT_BEGIN
1070
    46
1040
0.2
1000
ACAD_MTEXT_DEFINED_HEIGHT_END
  0
LINE
  5
443
330
441
100
AcDbEntity
  8
1
  6
CONTINUOUS
 62
     4
100
AcDbLine
 10
603.286718
 20
461.94621
 30
0.0
 11
562.25
 21
461.94621
 31
0.0
  0
LINE
  5
444
330
441
100
AcDbEntity
  8
1
  6
CONTINUOUS
 62
     4
100
AcDbLine
 10
603.286718
 20
469.473783
 30
0.0
 11
562.25
 21
469.473783
 31
0.0
  0
LINE
  5
445
330
441
100
AcDbEntity
  8
1
  6
CONTINUOUS
 62
     4
100
AcDbLine
 10
563.75
 20
469.473783
 30
0.0
 11
563.75
 21
434.175
 31
0.0
  0
LINE
  5
446
330
441
100
AcDbEntity
  8
1
  6
CONTINUOUS
 62
     4
100
AcDbLine
 10
563.75
 20
461.94621
 30
0.0
 11
563.214102
 21
463.946208
 31
0.0
  0
LINE
  5
447
330
441
100
AcDbEntity
  8
1
  6
CONTINUOUS
 62
     4
100
AcDbLine
 10
563.75
 20
461.94621
 30
0.0
 11
564.285898
 21
463.946212
 31
0.0
  0
LINE
  5
448
330
441
100
AcDbEntity
  8
1
  6
CONTINUOUS
 62
     4
100
AcDbLine
 10
563.75
 20
469.473783
 30
0.0
 11
564.285898
 21
467.473785
 31
0.0
  0
LINE
  5
449
330
441
100
AcDbEntity
  8
1
  6
CONTINUOUS
 62
     4
100
AcDbLine
 10
563.75
 20
469.473783
 30
0.0
 11
563.214102
 21
467.473781
 31
0.0
  0
ENDBLK
  5
44B
330
441
100
AcDbEntity
  8
0
100
AcDbBlockEnd
  0
BLOCK
  5
453
330
44D
100
AcDbEntity
  8
0
100
AcDbBlockBegin
  2
DIMNDRAFT3D4
 70
     0
 10
0.0
 20
0.0
 30
0.0
  3
DIMNDRAFT3D4
  1

  0
MTEXT
  5
44E
330
44D
100
AcDbEntity
  8
1
  6
CONTINUOUS
 62
     4
100
AcDbMText
 10
230.361609
 20
67.18716
 30
0.0
 40
5.0
 41
0.0
 71
     7
 72
     5
  1
\W01.000;\W00.809;62 
  7
IDEAS_SIMPLEX
 11
0.4208332370185315
 21
-0.9071380196092017
 31
0.0
1001
ACAD
1000
MTEXTBEGIN
1070
    73
1070
     2
1070
    44
1040
0.722892
1000
MTEXTEND
1000
ACAD_MTEXT_DEFINED_HEIGHT_BEGIN
1070
    46
1040
0.2
1000
ACAD_MTEXT_DEFINED_HEIGHT_END
  0
MTEXT
  5
44F
330
44D
100
AcDbEntity
  8
1
  6
CONTINUOUS
 62
     4
100
AcDbMText
 10
228.867651
 20
70.4075
 30
0.0
 40
5.0
 41
0.0
 71
     7
 72
     5
  1
\W01.000;\W00.715;R 
  7
IDEAS_SIMPLEX
 11
0.4208332370185315
 21
-0.9071380196092017
 31
0.0
1001
ACAD
1000
MTEXTBEGIN
1070
    73
1070
     2
1070
    44
1040
0.722892
1000
MTEXTEND
1000
ACAD_MTEXT_DEFINED_HEIGHT_BEGIN
1070
    46
1040
0.2
1000
ACAD_MTEXT_DEFINED_HEIGHT_END
  0
LINE
  5
450
330
44D
100
AcDbEntity
  8
1
  6
CONTINUOUS
 62
     4
100
AcDbLine
 10
217.2725
 20
96.391829
 30
0.0
 11
243.027494
 21
40.874982
 31
0.0
  0
LINE
  5
451
330
44D
100
AcDbEntity
  8
1
  6
CONTINUOUS
 62
     4
100
AcDbLine
 10
243.027494
 20
40.874982
 30
0.0
 11
241.699695
 21
42.463732
 31
0.0
  0
LINE
  5
452
330
44D
100
AcDbEntity
  8
1
  6
CONTINUOUS
 62
     4
100
AcDbLine
 10
243.027494
 20
40.874982
 30
0.0
 11
242.671961
 21
42.914784
 31
0.0
  0
ENDBLK
  5
454
330
44D
100
AcDbEntity
  8
0
100
AcDbBlockEnd
  0
BLOCK
  5
460
330
456
100
AcDbEntity
  8
0
100
AcDbBlockBegin
  2
DIMNDRAFT3D5
 70
     0
 10
0.0
 20
0.0
 30
0.0
  3
DIMNDRAFT3D5
  1

  0
MTEXT
  5
457
330
456
100
AcDbEntity
  8
1
  6
CONTINUOUS
 62
     4
100
AcDbMText
 10
217.6975
 20
5.833333
 30
0.0
 40
5.0
 41
0.0
 71
     7
 72
     5
  1
\W01.000;\W00.828;204 
  7
IDEAS_SIMPLEX
1001
ACAD
1000
MTEXTBEGIN
1070
    73
1070
     2
1070
    44
1040
0.722892
1000
MTEXTEND
1000
ACAD_MTEXT_DEFINED_HEIGHT_BEGIN
1070
    46
1040
0.2
1000
ACAD_MTEXT_DEFINED_HEIGHT_END
  0
MTEXT
  5
458
330
456
100
AcDbEntity
  8
1
  6
CONTINUOUS
 62
     4
100
AcDbMText
 10
206.9475
 20
5.887097
 30
0.0
 40
5.0
 41
0.0
 71
     7
 72
     5
  1
\W01.000;%%c 
  7
IDEAS_KANJI
1001
ACAD
1000
MTEXTBEGIN
1070
    73
1070
     2
1070
    44
1040
0.722892
1000
MTEXTEND
1000
ACAD_MTEXT_DEFINED_HEIGHT_BEGIN
1070
    46
1040
0.2
1000
ACAD_MTEXT_DEFINED_HEIGHT_END
  0
LINE
  5
459
330
456
100
AcDbEntity
  8
1
  6
CONTINUOUS
 62
     4
100
AcDbLine
 10
319.2725
 20
126.391829
 30
0.0
 11
319.2725
 21
3.5
 31
0.0
  0
LINE
  5
45A
330
456
100
AcDbEntity
  8
1
  6
CONTINUOUS
 62
     4
100
AcDbLine
 10
115.2725
 20
126.391829
 30
0.0
 11
115.2725
 21
3.5
 31
0.0
  0
LINE
  5
45B
330
456
100
AcDbEntity
  8
1
  6
CONTINUOUS
 62
     4
100
AcDbLine
 10
319.2725
 20
5.0
 30
0.0
 11
115.2725
 21
5.0
 31
0.0
  0
LINE
  5
45C
330
456
100
AcDbEntity
  8
1
  6
CONTINUOUS
 62
     4
100
AcDbLine
 10
319.2725
 20
5.0
 30
0.0
 11
317.272502
 21
4.464102
 31
0.0
  0
LINE
  5
45D
330
456
100
AcDbEntity
  8
1
  6
CONTINUOUS
 62
     4
100
AcDbLine
 10
319.2725
 20
5.0
 30
0.0
 11
317.272498
 21
5.535898
 31
0.0
  0
LINE
  5
45E
330
456
100
AcDbEntity
  8
1
  6
CONTINUOUS
 62
     4
100
AcDbLine
 10
115.2725
 20
5.0
 30
0.0
 11
117.272498
 21
5.535898
 31
0.0
  0
LINE
  5
45F
330
456
100
AcDbEntity
  8
1
  6
CONTINUOUS
 62
     4
100
AcDbLine
 10
115.2725
 20
5.0
 30
0.0
 11
117.272502
 21
4.464102
 31
0.0
  0
ENDBLK
  5
461
330
456
100
AcDbEntity
  8
0
100
AcDbBlockEnd
  0
BLOCK
  5
46E
330
463
100
AcDbEntity
  8
0
100
AcDbBlockBegin
  2
DIMNDRAFT3D6
 70
     0
 10
0.0
 20
0.0
 30
0.0
  3
DIMNDRAFT3D6
  1

  0
MTEXT
  5
464
330
463
100
AcDbEntity
  8
1
  6
CONTINUOUS
 62
     4
100
AcDbMText
 10
196.4975
 20
230.833333
 30
0.0
 40
5.0
 41
0.0
 71
     7
 72
     5
  1
\W01.000;\W00.888;162 
  7
IDEAS_SIMPLEX
1001
ACAD
1000
MTEXTBEGIN
1070
    73
1070
     2
1070
    44
1040
0.722892
1000
MTEXTEND
1000
ACAD_MTEXT_DEFINED_HEIGHT_BEGIN
1070
    46
1040
0.2
1000
ACAD_MTEXT_DEFINED_HEIGHT_END
  0
MTEXT
  5
465
330
463
100
AcDbEntity
  8
1
  6
CONTINUOUS
 62
     4
100
AcDbMText
 10
185.7475
 20
230.887097
 30
0.0
 40
5.0
 41
0.0
 71
     7
 72
     5
  1
\W01.000;%%c 
  7
IDEAS_KANJI
1001
ACAD
1000
MTEXTBEGIN
1070
    73
1070
     2
1070
    44
1040
0.722892
1000
MTEXTEND
1000
ACAD_MTEXT_DEFINED_HEIGHT_BEGIN
1070
    46
1040
0.2
1000
ACAD_MTEXT_DEFINED_HEIGHT_END
  0
MTEXT
  5
466
330
463
100
AcDbEntity
  8
1
  6
CONTINUOUS
 62
     4
100
AcDbMText
 10
208.3975
 20
230.887097
 30
0.0
 40
5.0
 41
0.0
 71
     7
 72
     5
  1
\W01.000;\W00.930;(板金最外接円) 
  7
IDEAS_KANJI
1001
ACAD
1000
MTEXTBEGIN
1070
    73
1070
     2
1070
    44
1040
0.722892
1000
MTEXTEND
1000
ACAD_MTEXT_DEFINED_HEIGHT_BEGIN
1070
    46
1040
0.2
1000
ACAD_MTEXT_DEFINED_HEIGHT_END
  0
LINE
  5
467
330
463
100
AcDbEntity
  8
1
  6
CONTINUOUS
 62
     4
100
AcDbLine
 10
138.434954
 20
208.641829
 30
0.0
 11
138.434954
 21
231.5
 31
0.0
  0
LINE
  5
468
330
463
100
AcDbEntity
  8
1
  6
CONTINUOUS
 62
     4
100
AcDbLine
 10
296.110046
 20
208.641829
 30
0.0
 11
296.110046
 21
231.5
 31
0.0
  0
LINE
  5
469
330
463
100
AcDbEntity
  8
1
  6
CONTINUOUS
 62
     4
100
AcDbLine
 10
138.434954
 20
230.0
 30
0.0
 11
296.110046
 21
230.0
 31
0.0
  0
LINE
  5
46A
330
463
100
AcDbEntity
  8
1
  6
CONTINUOUS
 62
     4
100
AcDbLine
 10
138.434954
 20
230.0
 30
0.0
 11
140.434952
 21
230.535898
 31
0.0
  0
LINE
  5
46B
330
463
100
AcDbEntity
  8
1
  6
CONTINUOUS
 62
     4
100
AcDbLine
 10
138.434954
 20
230.0
 30
0.0
 11
140.434956
 21
229.464102
 31
0.0
  0
LINE
  5
46C
330
463
100
AcDbEntity
  8
1
  6
CONTINUOUS
 62
     4
100
AcDbLine
 10
296.110046
 20
230.0
 30
0.0
 11
294.110048
 21
229.464102
 31
0.0
  0
LINE
  5
46D
330
463
100
AcDbEntity
  8
1
  6
CONTINUOUS
 62
     4
100
AcDbLine
 10
296.110046
 20
230.0
 30
0.0
 11
294.110044
 21
230.535898
 31
0.0
  0
ENDBLK
  5
46F
330
463
100
AcDbEntity
  8
0
100
AcDbBlockEnd
  0
BLOCK
  5
47A
330
471
100
AcDbEntity
  8
0
100
AcDbBlockBegin
  2
DIMNDRAFT3D7
 70
     0
 10
0.0
 20
0.0
 30
0.0
  3
DIMNDRAFT3D7
  1

  0
MTEXT
  5
472
330
471
100
AcDbEntity
  8
1
  6
CONTINUOUS
 62
     4
100
AcDbMText
 10
373.15
 20
350.833333
 30
0.0
 40
5.0
 41
0.0
 71
     7
 72
     5
  1
\W01.000;\W01.012;91.0 
  7
IDEAS_SIMPLEX
1001
ACAD
1000
MTEXTBEGIN
1070
    73
1070
     2
1070
    44
1040
0.722892
1000
MTEXTEND
1000
ACAD_MTEXT_DEFINED_HEIGHT_BEGIN
1070
    46
1040
0.2
1000
ACAD_MTEXT_DEFINED_HEIGHT_END
  0
LINE
  5
473
330
471
100
AcDbEntity
  8
1
  6
CONTINUOUS
 62
     4
100
AcDbLine
 10
308.2725
 20
383.454716
 30
0.0
 11
308.2725
 21
349.75
 31
0.0
  0
LINE
  5
474
330
471
100
AcDbEntity
  8
1
  6
CONTINUOUS
 62
     4
100
AcDbLine
 10
217.2725
 20
383.454716
 30
0.0
 11
217.2725
 21
349.75
 31
0.0
  0
LINE
  5
475
330
471
100
AcDbEntity
  8
1
  6
CONTINUOUS
 62
     4
100
AcDbLine
 10
217.2725
 20
351.25
 30
0.0
 11
387.85
 21
351.25
 31
0.0
  0
LINE
  5
476
330
471
100
AcDbEntity
  8
1
  6
CONTINUOUS
 62
     4
100
AcDbLine
 10
308.2725
 20
351.25
 30
0.0
 11
306.272502
 21
350.714102
 31
0.0
  0
LINE
  5
477
330
471
100
AcDbEntity
  8
1
  6
CONTINUOUS
 62
     4
100
AcDbLine
 10
308.2725
 20
351.25
 30
0.0
 11
306.272498
 21
351.785898
 31
0.0
  0
LINE
  5
478
330
471
100
AcDbEntity
  8
1
  6
CONTINUOUS
 62
     4
100
AcDbLine
 10
217.2725
 20
351.25
 30
0.0
 11
219.272498
 21
351.785898
 31
0.0
  0
LINE
  5
479
330
471
100
AcDbEntity
  8
1
  6
CONTINUOUS
 62
     4
100
AcDbLine
 10
217.2725
 20
351.25
 30
0.0
 11
219.272502
 21
350.714102
 31
0.0
  0
ENDBLK
  5
47B
330
471
100
AcDbEntity
  8
0
100
AcDbBlockEnd
  0
BLOCK
  5
486
330
47D
100
AcDbEntity
  8
0
100
AcDbBlockBegin
  2
DIMNDRAFT3D8
 70
     0
 10
0.0
 20
0.0
 30
0.0
  3
DIMNDRAFT3D8
  1

  0
MTEXT
  5
47E
330
47D
100
AcDbEntity
  8
1
  6
CONTINUOUS
 62
     4
100
AcDbMText
 10
321.125
 20
240.833333
 30
0.0
 40
5.0
 41
0.0
 71
     7
 72
     5
  1
\W01.000;\W00.978;136.5 
  7
IDEAS_SIMPLEX
1001
ACAD
1000
MTEXTBEGIN
1070
    73
1070
     2
1070
    44
1040
0.722892
1000
MTEXTEND
1000
ACAD_MTEXT_DEFINED_HEIGHT_BEGIN
1070
    46
1040
0.2
1000
ACAD_MTEXT_DEFINED_HEIGHT_END
  0
LINE
  5
47F
330
47D
100
AcDbEntity
  8
1
  6
CONTINUOUS
 62
     4
100
AcDbLine
 10
171.7725
 20
304.646404
 30
0.0
 11
171.7725
 21
239.75
 31
0.0
  0
LINE
  5
480
330
47D
100
AcDbEntity
  8
1
  6
CONTINUOUS
 62
     4
100
AcDbLine
 10
308.2725
 20
383.454716
 30
0.0
 11
308.2725
 21
239.75
 31
0.0
  0
LINE
  5
481
330
47D
100
AcDbEntity
  8
1
  6
CONTINUOUS
 62
     4
100
AcDbLine
 10
171.7725
 20
241.25
 30
0.0
 11
339.875
 21
241.25
 31
0.0
  0
LINE
  5
482
330
47D
100
AcDbEntity
  8
1
  6
CONTINUOUS
 62
     4
100
AcDbLine
 10
171.7725
 20
241.25
 30
0.0
 11
173.772498
 21
241.785898
 31
0.0
  0
LINE
  5
483
330
47D
100
AcDbEntity
  8
1
  6
CONTINUOUS
 62
     4
100
AcDbLine
 10
171.7725
 20
241.25
 30
0.0
 11
173.772502
 21
240.714102
 31
0.0
  0
LINE
  5
484
330
47D
100
AcDbEntity
  8
1
  6
CONTINUOUS
 62
     4
100
AcDbLine
 10
308.2725
 20
241.25
 30
0.0
 11
306.272502
 21
240.714102
 31
0.0
  0
LINE
  5
485
330
47D
100
AcDbEntity
  8
1
  6
CONTINUOUS
 62
     4
100
AcDbLine
 10
308.2725
 20
241.25
 30
0.0
 11
306.272498
 21
241.785898
 31
0.0
  0
ENDBLK
  5
487
330
47D
100
AcDbEntity
  8
0
100
AcDbBlockEnd
  0
BLOCK
  5
493
330
489
100
AcDbEntity
  8
0
100
AcDbBlockBegin
  2
DIMNDRAFT3D9
 70
     0
 10
0.0
 20
0.0
 30
0.0
  3
DIMNDRAFT3D9
  1

  0
MTEXT
  5
48A
330
489
100
AcDbEntity
  8
1
  6
CONTINUOUS
 62
     4
100
AcDbMText
 10
585.174998
 20
500.833333
 30
0.0
 40
5.0
 41
0.0
 71
     7
 72
     5
  1
\W01.000;\W00.995;7.2 
  7
IDEAS_SIMPLEX
 11
0.999999999999823
 21
-5.950501382973940E-7
 31
0.0
1001
ACAD
1000
MTEXTBEGIN
1070
    73
1070
     2
1070
    44
1040
0.722892
1000
MTEXTEND
1000
ACAD_MTEXT_DEFINED_HEIGHT_BEGIN
1070
    46
1040
0.2
1000
ACAD_MTEXT_DEFINED_HEIGHT_END
  0
MTEXT
  5
48B
330
489
100
AcDbEntity
  8
1
  6
CONTINUOUS
 62
     4
100
AcDbMText
 10
575.174998
 20
500.833339
 30
0.0
 40
5.0
 41
0.0
 71
     7
 72
     5
  1
\W01.000;%%c 
  7
IDEAS_SIMPLEX
 11
0.999999999999823
 21
-5.950501382973940E-7
 31
0.0
1001
ACAD
1000
MTEXTBEGIN
1070
    73
1070
     2
1070
    44
1040
0.722892
1000
MTEXTEND
1000
ACAD_MTEXT_DEFINED_HEIGHT_BEGIN
1070
    46
1040
0.2
1000
ACAD_MTEXT_DEFINED_HEIGHT_END
  0
LINE
  5
48C
330
489
100
AcDbEntity
  8
1
  6
CONTINUOUS
 62
     4
100
AcDbLine
 10
603.286718
 20
469.473785
 30
0.0
 11
603.286737
 21
501.499989
 31
0.0
  0
LINE
  5
48D
330
489
100
AcDbEntity
  8
1
  6
CONTINUOUS
 62
     4
100
AcDbLine
 10
610.436718
 20
469.473781
 30
0.0
 11
610.436737
 21
501.499985
 31
0.0
  0
LINE
  5
48E
330
489
100
AcDbEntity
  8
1
  6
CONTINUOUS
 62
     4
100
AcDbLine
 10
610.436736
 20
499.999985
 30
0.0
 11
574.174997
 21
500.000006
 31
0.0
  0
LINE
  5
48F
330
489
100
AcDbEntity
  8
1
  6
CONTINUOUS
 62
     4
100
AcDbLine
 10
603.286736
 20
499.999989
 30
0.0
 11
605.286734
 21
500.535886
 31
0.0
  0
LINE
  5
490
330
489
100
AcDbEntity
  8
1
  6
CONTINUOUS
 62
     4
100
AcDbLine
 10
603.286736
 20
499.999989
 30
0.0
 11
605.286737
 21
499.46409
 31
0.0
  0
LINE
  5
491
330
489
100
AcDbEntity
  8
1
  6
CONTINUOUS
 62
     4
100
AcDbLine
 10
610.436736
 20
499.999985
 30
0.0
 11
608.436737
 21
499.464088
 31
0.0
  0
LINE
  5
492
330
489
100
AcDbEntity
  8
1
  6
CONTINUOUS
 62
     4
100
AcDbLine
 10
610.436736
 20
499.999985
 30
0.0
 11
608.436734
 21
500.535884
 31
0.0
  0
ENDBLK
  5
494
330
489
100
AcDbEntity
  8
0
100
AcDbBlockEnd
  0
ENDSEC
  0
SECTION
  2
ENTITIES
  0
POINT
  5
45
330
1F
100
AcDbEntity
  8
1
  6
CONTINUOUS
 62
    81
 60
     1
100
AcDbPoint
 10
603.286718
 20
469.473785
 30
0.0
  0
POINT
  5
47
330
1F
100
AcDbEntity
  8
1
  6
CONTINUOUS
 62
    81
 60
     1
100
AcDbPoint
 10
610.436718
 20
469.473781
 30
0.0
  0
LINE
  5
48
330
1F
100
AcDbEntity
  8
1
  6
CONTINUOUS
 62
   251
100
AcDbLine
 10
108.9225
 20
275.104716
 30
0.0
 11
108.9225
 21
491.804716
 31
0.0
  0
LINE
  5
49
330
1F
100
AcDbEntity
  8
1
  6
CONTINUOUS
 62
   251
100
AcDbLine
 10
325.6225
 20
491.804716
 30
0.0
 11
108.9225
 21
491.804716
 31
0.0
  0
LINE
  5
4A
330
1F
100
AcDbEntity
  8
1
  6
CONTINUOUS
 62
   251
100
AcDbLine
 10
325.6225
 20
491.804716
 30
0.0
 11
325.6225
 21
275.104716
 31
0.0
  0
LINE
  5
4B
330
1F
100
AcDbEntity
  8
1
  6
CONTINUOUS
 62
   251
100
AcDbLine
 10
108.9225
 20
275.104716
 30
0.0
 11
325.6225
 21
275.104716
 31
0.0
  0
LINE
  5
4C
330
1F
100
AcDbEntity
  8
1
  6
CONTINUOUS
 62
   251
100
AcDbLine
 10
108.9225
 20
28.841829
 30
0.0
 11
108.9225
 21
216.791829
 31
0.0
  0
LINE
  5
4D
330
1F
100
AcDbEntity
  8
1
  6
CONTINUOUS
 62
   251
100
AcDbLine
 10
325.6225
 20
216.791829
 30
0.0
 11
108.9225
 21
216.791829
 31
0.0
  0
LINE
  5
4E
330
1F
100
AcDbEntity
  8
1
  6
CONTINUOUS
 62
   251
100
AcDbLine
 10
325.6225
 20
216.791829
 30
0.0
 11
325.6225
 21
28.841829
 31
0.0
  0
LINE
  5
4F
330
1F
100
AcDbEntity
  8
1
  6
CONTINUOUS
 62
   251
100
AcDbLine
 10
108.9225
 20
28.841829
 30
0.0
 11
325.6225
 21
28.841829
 31
0.0
  0
LINE
  5
50
330
1F
100
AcDbEntity
  8
1
  6
CONTINUOUS
 62
   251
100
AcDbLine
 10
499.511718
 20
328.450198
 30
0.0
 11
499.511718
 21
478.177199
 31
0.0
  0
LINE
  5
51
330
1F
100
AcDbEntity
  8
1
  6
CONTINUOUS
 62
   251
100
AcDbLine
 10
714.211718
 20
478.177199
 30
0.0
 11
499.511718
 21
478.177199
 31
0.0
  0
LINE
  5
52
330
1F
100
AcDbEntity
  8
1
  6
CONTINUOUS
 62
   251
100
AcDbLine
 10
714.211718
 20
478.177199
 30
0.0
 11
714.211718
 21
328.450198
 31
0.0
  0
LINE
  5
53
330
1F
100
AcDbEntity
  8
1
  6
CONTINUOUS
 62
   251
100
AcDbLine
 10
499.511718
 20
328.450198
 30
0.0
 11
714.211718
 21
328.450198
 31
0.0
  0
LINE
  5
54
330
1F
100
AcDbEntity
  8
1
  6
CONTINUOUS
 62
   251
 60
     1
100
AcDbLine
 10
0.0
 20
0.0
 30
0.0
 11
0.0
 21
594.0
 31
0.0
  0
LINE
  5
55
330
1F
100
AcDbEntity
  8
1
  6
CONTINUOUS
 62
   251
 60
     1
100
AcDbLine
 10
841.0
 20
594.0
 30
0.0
 11
0.0
 21
594.0
 31
0.0
  0
LINE
  5
56
330
1F
100
AcDbEntity
  8
1
  6
CONTINUOUS
 62
   251
 60
     1
100
AcDbLine
 10
841.0
 20
594.0
 30
0.0
 11
841.0
 21
0.0
 31
0.0
  0
LINE
  5
57
330
1F
100
AcDbEntity
  8
1
  6
CONTINUOUS
 62
   251
 60
     1
100
AcDbLine
 10
0.0
 20
0.0
 30
0.0
 11
841.0
 21
0.0
 31
0.0
  0
LINE
  5
58
330
1F
100
AcDbEntity
  8
1
  6
CONTINUOUS
 62
    31
100
AcDbLine
 10
266.415292
 20
333.604817
 30
0.0
 11
269.950757
 21
330.069352
 31
0.0
  0
LINE
  5
59
330
1F
100
AcDbEntity
  8
1
  6
CONTINUOUS
 62
    31
100
AcDbLine
 10
267.122398
 20
334.311924
 30
0.0
 11
270.657863
 21
330.776459
 31
0.0
  0
LINE
  5
5A
330
1F
100
AcDbEntity
  8
1
  6
CONTINUOUS
 62
    31
100
AcDbLine
 10
167.422602
 20
334.311924
 30
0.0
 11
161.568363
 21
328.457685
 31
0.0
  0
LINE
  5
5B
330
1F
100
AcDbEntity
  8
1
  6
CONTINUOUS
 62
    31
100
AcDbLine
 10
168.129709
 20
333.604817
 30
0.0
 11
162.275469
 21
327.750578
 31
0.0
  0
LINE
  5
5C
330
1F
100
AcDbEntity
  8
1
  6
CONTINUOUS
 62
    31
100
AcDbLine
 10
200.207846
 20
449.072724
 30
0.0
 11
197.495743
 21
459.194429
 31
0.0
  0
LINE
  5
5D
330
1F
100
AcDbEntity
  8
1
  6
CONTINUOUS
 62
    31
100
AcDbLine
 10
149.788645
 20
364.854833
 30
0.0
 11
144.95911
 21
363.560763
 31
0.0
  0
LINE
  5
5E
330
1F
100
AcDbEntity
  8
1
  6
CONTINUOUS
 62
    31
100
AcDbLine
 10
234.337154
 20
449.072724
 30
0.0
 11
236.200527
 21
456.026925
 31
0.0
  0
LINE
  5
5F
330
1F
100
AcDbEntity
  8
1
  6
CONTINUOUS
 62
    31
100
AcDbLine
 10
199.24192
 20
448.813905
 30
0.0
 11
196.529817
 21
458.93561
 31
0.0
  0
LINE
  5
60
330
1F
100
AcDbEntity
  8
1
  6
CONTINUOUS
 62
    31
100
AcDbLine
 10
235.30308
 20
448.813905
 30
0.0
 11
237.166453
 21
455.768106
 31
0.0
  0
LINE
  5
61
330
1F
100
AcDbEntity
  8
1
  6
CONTINUOUS
 62
    31
100
AcDbLine
 10
284.756355
 20
364.854833
 30
0.0
 11
292.753395
 21
362.712033
 31
0.0
  0
LINE
  5
62
330
1F
100
AcDbEntity
  8
1
  6
CONTINUOUS
 62
    31
100
AcDbLine
 10
149.529826
 20
365.820759
 30
0.0
 11
144.700291
 21
364.526689
 31
0.0
  0
LINE
  5
63
330
1F
100
AcDbEntity
  8
1
  6
CONTINUOUS
 62
    31
100
AcDbLine
 10
285.015174
 20
365.820759
 30
0.0
 11
293.012214
 21
363.677959
 31
0.0
  0
LINE
  5
64
330
1F
100
AcDbEntity
  8
1
  6
CONTINUOUS
 62
    31
100
AcDbLine
 10
145.2725
 20
384.454716
 30
0.0
 11
144.2725
 21
384.454716
 31
0.0
  0
LINE
  5
65
330
1F
100
AcDbEntity
  8
1
  6
CONTINUOUS
 62
    31
100
AcDbLine
 10
144.2725
 20
382.454716
 30
0.0
 11
145.2725
 21
382.454716
 31
0.0
  0
LINE
  5
66
330
1F
100
AcDbEntity
  8
1
  6
CONTINUOUS
 62
   254
100
AcDbLine
 10
279.42748
 20
320.592629
 30
0.0
 11
280.134586
 21
321.299736
 31
0.0
  0
LINE
  5
67
330
1F
100
AcDbEntity
  8
1
  6
CONTINUOUS
 62
   254
100
AcDbLine
 10
278.098554
 20
321.921555
 30
0.0
 11
278.80566
 21
322.628662
 31
0.0
  0
LINE
  5
68
330
1F
100
AcDbEntity
  8
1
  6
CONTINUOUS
 62
   254
100
AcDbLine
 10
206.151575
 20
295.152252
 30
0.0
 11
205.43367
 21
289.699225
 31
0.0
  0
LINE
  5
69
330
1F
100
AcDbEntity
  8
1
  6
CONTINUOUS
 62
   254
100
AcDbLine
 10
204.937948
 20
289.764488
 30
0.0
 11
205.655669
 21
295.216123
 31
0.0
  0
LINE
  5
6A
330
1F
100
AcDbEntity
  8
1
  6
CONTINUOUS
 62
   254
100
AcDbLine
 10
299.305139
 20
417.974943
 30
0.0
 11
304.386552
 21
420.079734
 31
0.0
  0
LINE
  5
6B
330
1F
100
AcDbEntity
  8
1
  6
CONTINUOUS
 62
   254
100
AcDbLine
 10
304.577894
 20
419.617794
 30
0.0
 11
299.497779
 21
417.513541
 31
0.0
  0
LINE
  5
6C
330
1F
100
AcDbEntity
  8
1
  6
CONTINUOUS
 62
   254
100
AcDbLine
 10
146.360786
 20
437.236951
 30
0.0
 11
141.997278
 21
440.585189
 31
0.0
  0
LINE
  5
6D
330
1F
100
AcDbEntity
  8
1
  6
CONTINUOUS
 62
   254
100
AcDbLine
 10
142.301659
 20
440.981865
 30
0.0
 11
146.664053
 21
437.634483
 31
0.0
  0
LINE
  5
6E
330
1F
100
AcDbEntity
  8
1
  6
CONTINUOUS
 62
   254
100
AcDbLine
 10
186.319677
 20
468.496898
 30
0.0
 11
186.234847
 21
468.729968
 31
0.0
  0
LINE
  5
6F
330
1F
100
AcDbEntity
  8
1
  6
CONTINUOUS
 62
   254
100
AcDbLine
 10
143.406392
 20
383.954716
 30
0.0
 11
143.906475
 21
383.954716
 31
0.0
  0
LINE
  5
70
330
1F
100
AcDbEntity
  8
1
  6
CONTINUOUS
 62
   254
100
AcDbLine
 10
143.406392
 20
382.954716
 30
0.0
 11
143.906475
 21
382.954716
 31
0.0
  0
LINE
  5
71
330
1F
100
AcDbEntity
  8
1
  6
CONTINUOUS
 62
   254
100
AcDbLine
 10
145.638526
 20
383.954716
 30
0.0
 11
146.138517
 21
383.954716
 31
0.0
  0
LINE
  5
72
330
1F
100
AcDbEntity
  8
1
  6
CONTINUOUS
 62
   254
100
AcDbLine
 10
145.638526
 20
382.954716
 30
0.0
 11
146.138517
 21
382.954716
 31
0.0
  0
LINE
  5
73
330
1F
100
AcDbEntity
  8
1
  6
CONTINUOUS
 62
     9
100
AcDbLine
 10
237.7725
 20
306.454716
 30
0.0
 11
239.2725
 21
306.454716
 31
0.0
  0
LINE
  5
74
330
1F
100
AcDbEntity
  8
1
  6
CONTINUOUS
 62
     9
100
AcDbLine
 10
239.2725
 20
305.454716
 30
0.0
 11
237.7725
 21
305.454716
 31
0.0
  0
LINE
  5
75
330
1F
100
AcDbEntity
  8
1
  6
CONTINUOUS
 62
     9
100
AcDbLine
 10
196.7725
 20
305.454716
 30
0.0
 11
195.2725
 21
305.454716
 31
0.0
  0
LINE
  5
76
330
1F
100
AcDbEntity
  8
1
  6
CONTINUOUS
 62
     9
100
AcDbLine
 10
195.2725
 20
306.454716
 30
0.0
 11
196.7725
 21
306.454716
 31
0.0
  0
LINE
  5
77
330
1F
100
AcDbEntity
  8
1
  6
CONTINUOUS
 62
     9
100
AcDbLine
 10
273.706456
 20
439.708236
 30
0.0
 11
272.956456
 21
441.007275
 31
0.0
  0
LINE
  5
78
330
1F
100
AcDbEntity
  8
1
  6
CONTINUOUS
 62
     9
100
AcDbLine
 10
294.956456
 20
402.902157
 30
0.0
 11
294.206456
 21
404.201195
 31
0.0
  0
LINE
  5
79
330
1F
100
AcDbEntity
  8
1
  6
CONTINUOUS
 62
     9
100
AcDbLine
 10
140.338544
 20
404.201195
 30
0.0
 11
139.588544
 21
402.902157
 31
0.0
  0
LINE
  5
7A
330
1F
100
AcDbEntity
  8
1
  6
CONTINUOUS
 62
     9
100
AcDbLine
 10
161.588544
 20
441.007275
 30
0.0
 11
160.838544
 21
439.708236
 31
0.0
  0
LINE
  5
7B
330
1F
100
AcDbEntity
  8
1
  6
CONTINUOUS
 62
     9
100
AcDbLine
 10
171.202639
 20
438.507275
 30
0.0
 11
176.736058
 21
438.507275
 31
0.0
  0
LINE
  5
7C
330
1F
100
AcDbEntity
  8
1
  6
CONTINUOUS
 62
     9
100
AcDbLine
 10
263.342362
 20
438.507275
 30
0.0
 11
257.808943
 21
438.507275
 31
0.0
  0
LINE
  5
7D
330
1F
100
AcDbEntity
  8
1
  6
CONTINUOUS
 62
     9
100
AcDbLine
 10
295.072482
 20
404.701195
 30
0.0
 11
295.822482
 21
403.402157
 31
0.0
  0
LINE
  5
7E
330
1F
100
AcDbEntity
  8
1
  6
CONTINUOUS
 62
     9
100
AcDbLine
 10
159.972519
 20
440.208236
 30
0.0
 11
160.722519
 21
441.507275
 31
0.0
  0
LINE
  5
7F
330
1F
100
AcDbEntity
  8
1
  6
CONTINUOUS
 62
     9
100
AcDbLine
 10
273.822482
 20
441.507275
 30
0.0
 11
274.572482
 21
440.208236
 31
0.0
  0
LINE
  5
80
330
1F
100
AcDbEntity
  8
1
  6
CONTINUOUS
 62
     9
100
AcDbLine
 10
138.722519
 20
403.402157
 30
0.0
 11
139.472519
 21
404.701195
 31
0.0
  0
LINE
  5
81
330
1F
100
AcDbEntity
  8
1
  6
CONTINUOUS
 62
   253
100
AcDbLine
 10
186.958486
 20
469.542233
 30
0.0
 11
187.924412
 21
469.801052
 31
0.0
  0
LINE
  5
82
330
1F
100
AcDbEntity
  8
1
  6
CONTINUOUS
 62
   253
100
AcDbLine
 10
189.558967
 20
455.973403
 30
0.0
 11
186.251379
 21
468.317488
 31
0.0
  0
LINE
  5
83
330
1F
100
AcDbEntity
  8
1
  6
CONTINUOUS
 62
   253
100
AcDbLine
 10
161.222519
 20
442.3733
 30
0.0
 11
162.434975
 21
441.673288
 31
0.0
  0
LINE
  5
84
330
1F
100
AcDbEntity
  8
1
  6
CONTINUOUS
 62
   253
100
AcDbLine
 10
159.356493
 20
441.141249
 30
0.0
 11
159.856493
 21
442.007275
 31
0.0
  0
LINE
  5
85
330
1F
100
AcDbEntity
  8
1
  6
CONTINUOUS
 62
   253
100
AcDbLine
 10
137.856493
 20
403.902157
 30
0.0
 11
138.356493
 21
404.768182
 31
0.0
  0
LINE
  5
86
330
1F
100
AcDbEntity
  8
1
  6
CONTINUOUS
 62
   253
100
AcDbLine
 10
139.434975
 20
401.836119
 30
0.0
 11
138.222519
 21
402.536131
 31
0.0
  0
LINE
  5
87
330
1F
100
AcDbEntity
  8
1
  6
CONTINUOUS
 62
   253
100
AcDbLine
 10
147.976036
 20
325.47196
 30
0.0
 11
157.012532
 21
334.508456
 31
0.0
  0
LINE
  5
88
330
1F
100
AcDbEntity
  8
1
  6
CONTINUOUS
 62
   253
100
AcDbLine
 10
148.683142
 20
323.350639
 30
0.0
 11
147.976036
 21
324.057746
 31
0.0
  0
LINE
  5
89
330
1F
100
AcDbEntity
  8
1
  6
CONTINUOUS
 62
   253
100
AcDbLine
 10
158.016952
 20
317.1281
 30
0.0
 11
150.945884
 21
324.199167
 31
0.0
  0
LINE
  5
8A
330
1F
100
AcDbEntity
  8
1
  6
CONTINUOUS
 62
   253
100
AcDbLine
 10
157.87553
 20
314.158251
 30
0.0
 11
157.168424
 21
314.865358
 31
0.0
  0
LINE
  5
8B
330
1F
100
AcDbEntity
  8
1
  6
CONTINUOUS
 62
   253
100
AcDbLine
 10
168.326241
 20
323.194748
 30
0.0
 11
159.289744
 21
314.158251
 31
0.0
  0
LINE
  5
8C
330
1F
100
AcDbEntity
  8
1
  6
CONTINUOUS
 62
   253
100
AcDbLine
 10
239.2725
 20
304.454716
 30
0.0
 11
238.2725
 21
304.454716
 31
0.0
  0
LINE
  5
8D
330
1F
100
AcDbEntity
  8
1
  6
CONTINUOUS
 62
   253
100
AcDbLine
 10
240.2725
 20
306.85474
 30
0.0
 11
240.2725
 21
305.454716
 31
0.0
  0
LINE
  5
8E
330
1F
100
AcDbEntity
  8
1
  6
CONTINUOUS
 62
   253
100
AcDbLine
 10
302.135272
 20
352.433595
 30
0.0
 11
289.791188
 21
355.741182
 31
0.0
  0
LINE
  5
8F
330
1F
100
AcDbEntity
  8
1
  6
CONTINUOUS
 62
   253
100
AcDbLine
 10
303.618836
 20
354.106628
 30
0.0
 11
303.360017
 21
353.140702
 31
0.0
  0
LINE
  5
90
330
1F
100
AcDbEntity
  8
1
  6
CONTINUOUS
 62
   253
100
AcDbLine
 10
304.340809
 20
365.301214
 30
0.0
 11
301.752618
 21
355.641955
 31
0.0
  0
LINE
  5
91
330
1F
100
AcDbEntity
  8
1
  6
CONTINUOUS
 62
   253
100
AcDbLine
 10
306.983484
 20
366.663663
 30
0.0
 11
306.724665
 21
365.697737
 31
0.0
  0
LINE
  5
92
330
1F
100
AcDbEntity
  8
1
  6
CONTINUOUS
 62
   253
100
AcDbLine
 10
293.932293
 20
371.195996
 30
0.0
 11
306.276377
 21
367.888408
 31
0.0
  0
LINE
  5
93
330
1F
100
AcDbEntity
  8
1
  6
CONTINUOUS
 62
   253
100
AcDbLine
 10
296.322482
 20
402.536131
 30
0.0
 11
295.110025
 21
401.836119
 31
0.0
  0
LINE
  5
94
330
1F
100
AcDbEntity
  8
1
  6
CONTINUOUS
 62
   253
100
AcDbLine
 10
296.188507
 20
404.768182
 30
0.0
 11
296.688507
 21
403.902157
 31
0.0
  0
LINE
  5
95
330
1F
100
AcDbEntity
  8
1
  6
CONTINUOUS
 62
   253
100
AcDbLine
 10
274.688507
 20
442.007275
 30
0.0
 11
275.188507
 21
441.141249
 31
0.0
  0
LINE
  5
96
330
1F
100
AcDbEntity
  8
1
  6
CONTINUOUS
 62
   253
100
AcDbLine
 10
272.110025
 20
441.673288
 30
0.0
 11
273.322482
 21
442.3733
 31
0.0
  0
LINE
  5
97
330
1F
100
AcDbEntity
  8
1
  6
CONTINUOUS
 62
   253
100
AcDbLine
 10
201.706193
 20
472.458592
 30
0.0
 11
205.01378
 21
460.114508
 31
0.0
  0
LINE
  5
98
330
1F
100
AcDbEntity
  8
1
  6
CONTINUOUS
 62
   253
100
AcDbLine
 10
199.515522
 20
472.90688
 30
0.0
 11
200.481448
 21
473.165699
 31
0.0
  0
LINE
  5
99
330
1F
100
AcDbEntity
  8
1
  6
CONTINUOUS
 62
   253
100
AcDbLine
 10
189.45974
 20
467.934834
 30
0.0
 11
199.118998
 21
470.523024
 31
0.0
  0
LINE
  5
9A
330
1F
100
AcDbEntity
  8
1
  6
CONTINUOUS
 62
   253
100
AcDbLine
 10
230.2725
 20
300.454716
 30
0.0
 11
230.2725
 21
288.127647
 31
0.0
  0
LINE
  5
9B
330
1F
100
AcDbEntity
  8
1
  6
CONTINUOUS
 62
   253
100
AcDbLine
 10
207.2725
 20
298.254716
 30
0.0
 11
227.2725
 21
298.254716
 31
0.0
  0
LINE
  5
9C
330
1F
100
AcDbEntity
  8
1
  6
CONTINUOUS
 62
   253
100
AcDbLine
 10
205.2725
 20
301.454716
 30
0.0
 11
206.2725
 21
301.454716
 31
0.0
  0
LINE
  5
9D
330
1F
100
AcDbEntity
  8
1
  6
CONTINUOUS
 62
   253
100
AcDbLine
 10
140.758417
 20
414.928436
 30
0.0
 11
140.258417
 21
414.062411
 31
0.0
  0
LINE
  5
9E
330
1F
100
AcDbEntity
  8
1
  6
CONTINUOUS
 62
   253
100
AcDbLine
 10
148.487136
 20
434.71497
 30
0.0
 11
138.487136
 21
417.394462
 31
0.0
  0
LINE
  5
9F
330
1F
100
AcDbEntity
  8
1
  6
CONTINUOUS
 62
   253
100
AcDbLine
 10
152.258417
 20
434.84702
 30
0.0
 11
151.758417
 21
433.980995
 31
0.0
  0
LINE
  5
A0
330
1F
100
AcDbEntity
  8
1
  6
CONTINUOUS
 62
   253
100
AcDbLine
 10
282.652609
 20
436.213046
 30
0.0
 11
293.328163
 21
442.37658
 31
0.0
  0
LINE
  5
A1
330
1F
100
AcDbEntity
  8
1
  6
CONTINUOUS
 62
   253
100
AcDbLine
 10
282.786583
 20
433.980995
 30
0.0
 11
282.286583
 21
434.84702
 31
0.0
  0
LINE
  5
A2
330
1F
100
AcDbEntity
  8
1
  6
CONTINUOUS
 62
   253
100
AcDbLine
 10
296.057865
 20
417.394462
 30
0.0
 11
286.057865
 21
434.71497
 31
0.0
  0
LINE
  5
A3
330
1F
100
AcDbEntity
  8
1
  6
CONTINUOUS
 62
   253
100
AcDbLine
 10
294.286583
 20
414.062411
 30
0.0
 11
293.786583
 21
414.928436
 31
0.0
  0
LINE
  5
A4
330
1F
100
AcDbEntity
  8
1
  6
CONTINUOUS
 62
   253
100
AcDbLine
 10
306.328163
 20
419.85992
 30
0.0
 11
295.652609
 21
413.696385
 31
0.0
  0
LINE
  5
A5
330
1F
100
AcDbEntity
  8
1
  6
CONTINUOUS
 62
   253
100
AcDbLine
 10
278.79079
 20
323.350639
 30
0.0
 11
286.908012
 21
315.233418
 31
0.0
  0
LINE
  5
A6
330
1F
100
AcDbEntity
  8
1
  6
CONTINUOUS
 62
   253
100
AcDbLine
 10
258.475613
 20
295.094354
 30
0.0
 11
253.615213
 21
305.517515
 31
0.0
  0
LINE
  5
A7
330
1F
100
AcDbEntity
  8
1
  6
CONTINUOUS
 62
   253
100
AcDbLine
 10
204.2725
 20
288.127647
 30
0.0
 11
204.2725
 21
300.454716
 31
0.0
  0
LINE
  5
A8
330
1F
100
AcDbEntity
  8
1
  6
CONTINUOUS
 62
   253
100
AcDbLine
 10
228.2725
 20
301.454716
 30
0.0
 11
229.2725
 21
301.454716
 31
0.0
  0
LINE
  5
A9
330
1F
100
AcDbEntity
  8
1
  6
CONTINUOUS
 62
   253
100
AcDbLine
 10
138.892392
 20
413.696385
 30
0.0
 11
128.216837
 21
419.85992
 31
0.0
  0
LINE
  5
AA
330
1F
100
AcDbEntity
  8
1
  6
CONTINUOUS
 62
   253
100
AcDbLine
 10
194.2725
 20
305.454716
 30
0.0
 11
194.2725
 21
306.85474
 31
0.0
  0
LINE
  5
AB
330
1F
100
AcDbEntity
  8
1
  6
CONTINUOUS
 62
   253
100
AcDbLine
 10
196.2725
 20
304.454716
 30
0.0
 11
195.2725
 21
304.454716
 31
0.0
  0
LINE
  5
AC
330
1F
100
AcDbEntity
  8
1
  6
CONTINUOUS
 62
   253
100
AcDbLine
 10
141.216837
 20
442.37658
 30
0.0
 11
151.892392
 21
436.213046
 31
0.0
  0
LINE
  5
AD
330
1F
100
AcDbEntity
  8
1
  6
CONTINUOUS
 62
   253
100
AcDbLine
 10
160.934954
 20
439.075224
 30
0.0
 11
159.722519
 21
439.775224
 31
0.0
  0
LINE
  5
AE
330
1F
100
AcDbEntity
  8
1
  6
CONTINUOUS
 62
   253
100
AcDbLine
 10
293.610046
 20
404.434208
 30
0.0
 11
294.822482
 21
405.134208
 31
0.0
  0
LINE
  5
AF
330
1F
100
AcDbEntity
  8
1
  6
CONTINUOUS
 62
   253
100
AcDbLine
 10
197.2725
 20
306.854716
 30
0.0
 11
197.2725
 21
305.454716
 31
0.0
  0
LINE
  5
B0
330
1F
100
AcDbEntity
  8
1
  6
CONTINUOUS
 62
   253
100
AcDbLine
 10
237.2725
 20
305.454716
 30
0.0
 11
237.2725
 21
306.854716
 31
0.0
  0
LINE
  5
B1
330
1F
100
AcDbEntity
  8
1
  6
CONTINUOUS
 62
   253
100
AcDbLine
 10
139.722519
 20
405.134208
 30
0.0
 11
140.934954
 21
404.434208
 31
0.0
  0
LINE
  5
B2
330
1F
100
AcDbEntity
  8
1
  6
CONTINUOUS
 62
   253
100
AcDbLine
 10
274.822482
 20
439.775224
 30
0.0
 11
273.610046
 21
439.075224
 31
0.0
  0
LINE
  5
B3
330
1F
100
AcDbEntity
  8
1
  6
CONTINUOUS
 62
   253
100
AcDbLine
 10
199.584872
 20
468.784358
 30
0.0
 11
189.925614
 21
466.196167
 31
0.0
  0
LINE
  5
B4
330
1F
100
AcDbEntity
  8
1
  6
CONTINUOUS
 62
   253
100
AcDbLine
 10
300.013952
 20
356.10783
 30
0.0
 11
302.602142
 21
365.767088
 31
0.0
  0
LINE
  5
B5
330
1F
100
AcDbEntity
  8
1
  6
CONTINUOUS
 62
   253
100
AcDbLine
 10
152.218676
 20
325.47196
 30
0.0
 11
159.289744
 21
318.400892
 31
0.0
  0
LINE
  5
B6
330
1F
100
AcDbEntity
  8
1
  6
CONTINUOUS
 62
   253
100
AcDbLine
 10
136.92829
 20
418.294462
 30
0.0
 11
146.92829
 21
435.61497
 31
0.0
  0
LINE
  5
B7
330
1F
100
AcDbEntity
  8
1
  6
CONTINUOUS
 62
   253
100
AcDbLine
 10
287.61671
 20
435.61497
 30
0.0
 11
297.61671
 21
418.294462
 31
0.0
  0
LINE
  5
B8
330
1F
100
AcDbEntity
  8
1
  6
CONTINUOUS
 62
   253
100
AcDbLine
 10
227.2725
 20
296.454716
 30
0.0
 11
207.2725
 21
296.454716
 31
0.0
  0
LINE
  5
B9
330
1F
100
AcDbEntity
  8
1
  6
CONTINUOUS
 62
   253
100
AcDbLine
 10
136.755085
 20
418.394462
 30
0.0
 11
146.755085
 21
435.71497
 31
0.0
  0
LINE
  5
BA
330
1F
100
AcDbEntity
  8
1
  6
CONTINUOUS
 62
   253
100
AcDbLine
 10
287.789915
 20
435.71497
 30
0.0
 11
297.789915
 21
418.394462
 31
0.0
  0
LINE
  5
BB
330
1F
100
AcDbEntity
  8
1
  6
CONTINUOUS
 62
   253
100
AcDbLine
 10
227.2725
 20
296.254716
 30
0.0
 11
207.2725
 21
296.254716
 31
0.0
  0
LINE
  5
BC
330
1F
100
AcDbEntity
  8
1
  6
CONTINUOUS
 62
   151
100
AcDbLine
 10
158.2725
 20
401.454716
 30
0.0
 11
158.2725
 21
404.454716
 31
0.0
  0
LINE
  5
BD
330
1F
100
AcDbEntity
  8
1
  6
CONTINUOUS
 62
   151
100
AcDbLine
 10
253.161217
 20
404.954716
 30
0.0
 11
181.383783
 21
404.954716
 31
0.0
  0
LINE
  5
BE
330
1F
100
AcDbEntity
  8
1
  6
CONTINUOUS
 62
   151
100
AcDbLine
 10
192.2725
 20
308.654716
 30
0.0
 11
242.2725
 21
308.654716
 31
0.0
  0
LINE
  5
BF
330
1F
100
AcDbEntity
  8
1
  6
CONTINUOUS
 62
   151
100
AcDbLine
 10
268.2725
 20
401.454716
 30
0.0
 11
268.2725
 21
404.454716
 31
0.0
  0
LINE
  5
C0
330
1F
100
AcDbEntity
  8
1
  6
CONTINUOUS
 62
   151
100
AcDbLine
 10
166.2725
 20
404.454716
 30
0.0
 11
166.2725
 21
401.454716
 31
0.0
  0
LINE
  5
C1
330
1F
100
AcDbEntity
  8
1
  6
CONTINUOUS
 62
   151
100
AcDbLine
 10
262.2725
 20
435.41624
 30
0.0
 11
262.2725
 21
417.454716
 31
0.0
  0
LINE
  5
C2
330
1F
100
AcDbEntity
  8
1
  6
CONTINUOUS
 62
   151
100
AcDbLine
 10
276.2725
 20
404.454716
 30
0.0
 11
276.2725
 21
401.454716
 31
0.0
  0
LINE
  5
C3
330
1F
100
AcDbEntity
  8
1
  6
CONTINUOUS
 62
   151
100
AcDbLine
 10
209.2725
 20
337.24595
 30
0.0
 11
209.2725
 21
331.454716
 31
0.0
  0
LINE
  5
C4
330
1F
100
AcDbEntity
  8
1
  6
CONTINUOUS
 62
   151
100
AcDbLine
 10
225.2725
 20
331.454716
 30
0.0
 11
225.2725
 21
337.24595
 31
0.0
  0
LINE
  5
C5
330
1F
100
AcDbEntity
  8
1
  6
CONTINUOUS
 62
   151
100
AcDbLine
 10
138.434954
 20
400.104081
 30
0.0
 11
163.434954
 21
443.405351
 31
0.0
  0
LINE
  5
C6
330
1F
100
AcDbEntity
  8
1
  6
CONTINUOUS
 62
   151
100
AcDbLine
 10
269.2725
 20
405.454716
 30
0.0
 11
275.2725
 21
405.454716
 31
0.0
  0
LINE
  5
C7
330
1F
100
AcDbEntity
  8
1
  6
CONTINUOUS
 62
   151
100
AcDbLine
 10
294.5512
 20
399.204081
 30
0.0
 11
269.5512
 21
442.505351
 31
0.0
  0
LINE
  5
C8
330
1F
100
AcDbEntity
  8
1
  6
CONTINUOUS
 62
   151
100
AcDbLine
 10
271.110046
 20
443.405351
 30
0.0
 11
296.110046
 21
400.104081
 31
0.0
  0
LINE
  5
C9
330
1F
100
AcDbEntity
  8
1
  6
CONTINUOUS
 62
   151
100
AcDbLine
 10
242.2725
 20
306.854716
 30
0.0
 11
192.2725
 21
306.854716
 31
0.0
  0
LINE
  5
CA
330
1F
100
AcDbEntity
  8
1
  6
CONTINUOUS
 62
   151
100
AcDbLine
 10
172.2725
 20
417.454716
 30
0.0
 11
172.2725
 21
435.41624
 31
0.0
  0
LINE
  5
CB
330
1F
100
AcDbEntity
  8
1
  6
CONTINUOUS
 62
   151
100
AcDbLine
 10
257.2725
 20
412.454716
 30
0.0
 11
177.2725
 21
412.454716
 31
0.0
  0
LINE
  5
CC
330
1F
100
AcDbEntity
  8
1
  6
CONTINUOUS
 62
   151
100
AcDbLine
 10
212.2725
 20
328.454716
 30
0.0
 11
222.2725
 21
328.454716
 31
0.0
  0
LINE
  5
CD
330
1F
100
AcDbEntity
  8
1
  6
CONTINUOUS
 62
   151
100
AcDbLine
 10
159.2725
 20
405.454716
 30
0.0
 11
165.2725
 21
405.454716
 31
0.0
  0
LINE
  5
CE
330
1F
100
AcDbEntity
  8
1
  6
CONTINUOUS
 62
   151
100
AcDbLine
 10
165.2725
 20
400.454716
 30
0.0
 11
159.2725
 21
400.454716
 31
0.0
  0
LINE
  5
CF
330
1F
100
AcDbEntity
  8
1
  6
CONTINUOUS
 62
   151
100
AcDbLine
 10
275.2725
 20
400.454716
 30
0.0
 11
269.2725
 21
400.454716
 31
0.0
  0
LINE
  5
D0
330
1F
100
AcDbEntity
  8
1
  6
CONTINUOUS
 62
   151
100
AcDbLine
 10
164.9938
 20
442.505351
 30
0.0
 11
139.9938
 21
399.204081
 31
0.0
  0
LINE
  5
D1
330
1F
100
AcDbEntity
  8
1
  6
CONTINUOUS
 62
   254
100
AcDbLine
 10
204.937948
 20
289.764488
 30
0.0
 11
205.43367
 21
289.699225
 31
0.0
  0
LINE
  5
D2
330
1F
100
AcDbEntity
  8
1
  6
CONTINUOUS
 62
   254
100
AcDbLine
 10
304.577894
 20
419.617794
 30
0.0
 11
304.386552
 21
420.079734
 31
0.0
  0
LINE
  5
D3
330
1F
100
AcDbEntity
  8
1
  6
CONTINUOUS
 62
   254
100
AcDbLine
 10
142.301659
 20
440.981865
 30
0.0
 11
141.997278
 21
440.585189
 31
0.0
  0
LINE
  5
D4
330
1F
100
AcDbEntity
  8
1
  6
CONTINUOUS
 62
   254
100
AcDbLine
 10
304.847473
 20
420.273517
 30
0.0
 11
304.386552
 21
420.079734
 31
0.0
  0
LINE
  5
D5
330
1F
100
AcDbEntity
  8
1
  6
CONTINUOUS
 62
   254
100
AcDbLine
 10
205.371031
 20
289.203164
 30
0.0
 11
205.43367
 21
289.699225
 31
0.0
  0
LINE
  5
D6
330
1F
100
AcDbEntity
  8
1
  6
CONTINUOUS
 62
   254
100
AcDbLine
 10
141.598997
 20
440.887466
 30
0.0
 11
141.997278
 21
440.585189
 31
0.0
  0
LINE
  5
D7
330
1F
100
AcDbEntity
  8
1
  6
CONTINUOUS
 62
   254
100
AcDbLine
 10
319.2725
 20
126.391829
 30
0.0
 11
115.2725
 21
126.391829
 31
0.0
  0
LINE
  5
D8
330
1F
100
AcDbEntity
  8
1
  6
CONTINUOUS
 62
   151
100
AcDbLine
 10
171.2725
 20
208.041829
 30
0.0
 11
171.2725
 21
208.841829
 31
0.0
  0
LINE
  5
D9
330
1F
100
AcDbEntity
  8
1
  6
CONTINUOUS
 62
   151
100
AcDbLine
 10
164.820595
 20
208.641829
 30
0.0
 11
139.820595
 21
208.641829
 31
0.0
  0
LINE
  5
DA
330
1F
100
AcDbEntity
  8
1
  6
CONTINUOUS
 62
   151
100
AcDbLine
 10
294.724405
 20
208.641829
 30
0.0
 11
269.724405
 21
208.641829
 31
0.0
  0
LINE
  5
DB
330
1F
100
AcDbEntity
  8
1
  6
CONTINUOUS
 62
   151
100
AcDbLine
 10
242.2725
 20
208.641829
 30
0.0
 11
192.2725
 21
208.641829
 31
0.0
  0
LINE
  5
DC
330
1F
100
AcDbEntity
  8
1
  6
CONTINUOUS
 62
   151
100
AcDbLine
 10
138.434954
 20
178.441829
 30
0.0
 11
139.820595
 21
178.441829
 31
0.0
  0
LINE
  5
DD
330
1F
100
AcDbEntity
  8
1
  6
CONTINUOUS
 62
   253
100
AcDbLine
 10
282.180015
 20
126.591829
 30
0.0
 11
290.838765
 21
126.591829
 31
0.0
  0
LINE
  5
DE
330
1F
100
AcDbEntity
  8
1
  6
CONTINUOUS
 62
    31
100
AcDbLine
 10
152.850009
 20
154.391789
 30
0.0
 11
152.361278
 21
126.392409
 31
0.0
  0
LINE
  5
DF
330
1F
100
AcDbEntity
  8
1
  6
CONTINUOUS
 62
   254
100
AcDbLine
 10
115.2725
 20
126.391829
 30
0.0
 11
115.406909
 21
122.542861
 31
0.0
  0
LINE
  5
E0
330
1F
100
AcDbEntity
  8
1
  6
CONTINUOUS
 62
   151
100
AcDbLine
 10
294.724405
 20
178.441829
 30
0.0
 11
296.110046
 21
178.441829
 31
0.0
  0
LINE
  5
E1
330
1F
100
AcDbEntity
  8
1
  6
CONTINUOUS
 62
   151
100
AcDbLine
 10
289.301905
 20
210.441829
 30
0.0
 11
289.301905
 21
208.841829
 31
0.0
  0
LINE
  5
E2
330
1F
100
AcDbEntity
  8
1
  6
CONTINUOUS
 62
   151
100
AcDbLine
 10
145.243096
 20
208.841829
 30
0.0
 11
145.243096
 21
210.441829
 31
0.0
  0
LINE
  5
E3
330
1F
100
AcDbEntity
  8
1
  6
CONTINUOUS
 62
   151
100
AcDbLine
 10
189.2725
 20
208.841829
 30
0.0
 11
189.2725
 21
210.441829
 31
0.0
  0
LINE
  5
E4
330
1F
100
AcDbEntity
  8
1
  6
CONTINUOUS
 62
   254
100
AcDbLine
 10
319.138091
 20
122.542861
 30
0.0
 11
319.2725
 21
126.391829
 31
0.0
  0
LINE
  5
E5
330
1F
100
AcDbEntity
  8
1
  6
CONTINUOUS
 62
   151
100
AcDbLine
 10
138.434954
 20
178.441829
 30
0.0
 11
138.434954
 21
208.641829
 31
0.0
  0
LINE
  5
E6
330
1F
100
AcDbEntity
  8
1
  6
CONTINUOUS
 62
   151
100
AcDbLine
 10
245.2725
 20
210.441829
 30
0.0
 11
245.2725
 21
208.841829
 31
0.0
  0
LINE
  5
E7
330
1F
100
AcDbEntity
  8
1
  6
CONTINUOUS
 62
   151
100
AcDbLine
 10
168.2725
 20
208.841829
 30
0.0
 11
168.2725
 21
208.041829
 31
0.0
  0
LINE
  5
E8
330
1F
100
AcDbEntity
  8
1
  6
CONTINUOUS
 62
   253
100
AcDbLine
 10
270.838765
 20
183.391829
 30
0.0
 11
270.838765
 21
175.391016
 31
0.0
  0
LINE
  5
E9
330
1F
100
AcDbEntity
  8
1
  6
CONTINUOUS
 62
   253
100
AcDbLine
 10
290.838765
 20
183.391829
 30
0.0
 11
290.838765
 21
176.391829
 31
0.0
  0
LINE
  5
EA
330
1F
100
AcDbEntity
  8
1
  6
CONTINUOUS
 62
   151
100
AcDbLine
 10
263.2725
 20
208.841829
 30
0.0
 11
263.2725
 21
208.041829
 31
0.0
  0
LINE
  5
EB
330
1F
100
AcDbEntity
  8
1
  6
CONTINUOUS
 62
   253
100
AcDbLine
 10
290.838765
 20
176.391829
 30
0.0
 11
292.224405
 21
176.391829
 31
0.0
  0
LINE
  5
EC
330
1F
100
AcDbEntity
  8
1
  6
CONTINUOUS
 62
   253
100
AcDbLine
 10
143.706235
 20
126.591829
 30
0.0
 11
152.364985
 21
126.591829
 31
0.0
  0
LINE
  5
ED
330
1F
100
AcDbEntity
  8
1
  6
CONTINUOUS
 62
   253
100
AcDbLine
 10
292.224405
 20
183.391829
 30
0.0
 11
292.224405
 21
176.391829
 31
0.0
  0
LINE
  5
EE
330
1F
100
AcDbEntity
  8
1
  6
CONTINUOUS
 62
   151
100
AcDbLine
 10
147.2725
 20
210.441829
 30
0.0
 11
147.2725
 21
208.841829
 31
0.0
  0
LINE
  5
EF
330
1F
100
AcDbEntity
  8
1
  6
CONTINUOUS
 62
   151
100
AcDbLine
 10
266.2725
 20
208.041829
 30
0.0
 11
266.2725
 21
208.841829
 31
0.0
  0
LINE
  5
F0
330
1F
100
AcDbEntity
  8
1
  6
CONTINUOUS
 62
   151
100
AcDbLine
 10
269.724405
 20
178.441829
 30
0.0
 11
269.724405
 21
208.641829
 31
0.0
  0
LINE
  5
F1
330
1F
100
AcDbEntity
  8
1
  6
CONTINUOUS
 62
    31
100
AcDbLine
 10
282.183722
 20
126.392409
 30
0.0
 11
281.694991
 21
154.391789
 31
0.0
  0
LINE
  5
F2
330
1F
100
AcDbEntity
  8
1
  6
CONTINUOUS
 62
   151
100
AcDbLine
 10
164.820595
 20
178.441829
 30
0.0
 11
164.820595
 21
208.641829
 31
0.0
  0
LINE
  5
F3
330
1F
100
AcDbEntity
  8
1
  6
CONTINUOUS
 62
   151
100
AcDbLine
 10
294.724405
 20
178.441829
 30
0.0
 11
294.724405
 21
208.641829
 31
0.0
  0
LINE
  5
F4
330
1F
100
AcDbEntity
  8
1
  6
CONTINUOUS
 62
   151
100
AcDbLine
 10
296.110046
 20
178.441829
 30
0.0
 11
296.110046
 21
208.641829
 31
0.0
  0
LINE
  5
F5
330
1F
100
AcDbEntity
  8
1
  6
CONTINUOUS
 62
   151
100
AcDbLine
 10
139.820595
 20
178.441829
 30
0.0
 11
139.820595
 21
208.641829
 31
0.0
  0
LINE
  5
F6
330
1F
100
AcDbEntity
  8
1
  6
CONTINUOUS
 62
   151
100
AcDbLine
 10
204.7725
 20
182.891829
 30
0.0
 11
203.7725
 21
182.891829
 31
0.0
  0
LINE
  5
F7
330
1F
100
AcDbEntity
  8
1
  6
CONTINUOUS
 62
   151
100
AcDbLine
 10
239.2725
 20
175.441829
 30
0.0
 11
195.2725
 21
175.441829
 31
0.0
  0
LINE
  5
F8
330
1F
100
AcDbEntity
  8
1
  6
CONTINUOUS
 62
   151
100
AcDbLine
 10
203.7725
 20
179.891829
 30
0.0
 11
204.7725
 21
179.891829
 31
0.0
  0
LINE
  5
F9
330
1F
100
AcDbEntity
  8
1
  6
CONTINUOUS
 62
   151
100
AcDbLine
 10
229.7725
 20
179.891829
 30
0.0
 11
230.7725
 21
179.891829
 31
0.0
  0
LINE
  5
FA
330
1F
100
AcDbEntity
  8
1
  6
CONTINUOUS
 62
   151
100
AcDbLine
 10
230.7725
 20
182.891829
 30
0.0
 11
229.7725
 21
182.891829
 31
0.0
  0
LINE
  5
FB
330
1F
100
AcDbEntity
  8
1
  6
CONTINUOUS
 62
   151
100
AcDbLine
 10
287.2725
 20
208.841829
 30
0.0
 11
287.2725
 21
210.441829
 31
0.0
  0
LINE
  5
FC
330
1F
100
AcDbEntity
  8
1
  6
CONTINUOUS
 62
     7
100
AcDbLine
 10
155.94903
 20
96.59185
 30
0.0
 11
156.043472
 21
94.7898
 31
0.0
  0
LINE
  5
FD
330
1F
100
AcDbEntity
  8
1
  6
CONTINUOUS
 62
     7
100
AcDbLine
 10
278.501528
 20
94.7898
 30
0.0
 11
278.59597
 21
96.59185
 31
0.0
  0
LINE
  5
FE
330
1F
100
AcDbEntity
  8
1
  6
CONTINUOUS
 62
   253
100
AcDbLine
 10
163.706235
 20
183.391829
 30
0.0
 11
163.706235
 21
176.391829
 31
0.0
  0
LINE
  5
FF
330
1F
100
AcDbEntity
  8
1
  6
CONTINUOUS
 62
     9
100
AcDbLine
 10
196.7725
 20
174.391829
 30
0.0
 11
195.2725
 21
174.391829
 31
0.0
  0
LINE
  5
100
330
1F
100
AcDbEntity
  8
1
  6
CONTINUOUS
 62
     9
100
AcDbLine
 10
195.2725
 20
166.391829
 30
0.0
 11
196.7725
 21
166.391829
 31
0.0
  0
LINE
  5
101
330
1F
100
AcDbEntity
  8
1
  6
CONTINUOUS
 62
     9
100
AcDbLine
 10
196.7725
 20
165.391829
 30
0.0
 11
195.2725
 21
165.391829
 31
0.0
  0
LINE
  5
102
330
1F
100
AcDbEntity
  8
1
  6
CONTINUOUS
 62
     9
100
AcDbLine
 10
237.7725
 20
166.391829
 30
0.0
 11
239.2725
 21
166.391829
 31
0.0
  0
LINE
  5
103
330
1F
100
AcDbEntity
  8
1
  6
CONTINUOUS
 62
     9
100
AcDbLine
 10
239.2725
 20
165.391829
 30
0.0
 11
237.7725
 21
165.391829
 31
0.0
  0
LINE
  5
104
330
1F
100
AcDbEntity
  8
1
  6
CONTINUOUS
 62
     9
100
AcDbLine
 10
239.2725
 20
174.391829
 30
0.0
 11
237.7725
 21
174.391829
 31
0.0
  0
LINE
  5
105
330
1F
100
AcDbEntity
  8
1
  6
CONTINUOUS
 62
     9
100
AcDbLine
 10
239.674424
 20
175.391829
 30
0.0
 11
239.674424
 21
174.391829
 31
0.0
  0
LINE
  5
106
330
1F
100
AcDbEntity
  8
1
  6
CONTINUOUS
 62
     9
100
AcDbLine
 10
194.870576
 20
174.391829
 30
0.0
 11
194.870576
 21
175.391829
 31
0.0
  0
LINE
  5
107
330
1F
100
AcDbEntity
  8
1
  6
CONTINUOUS
 62
     9
100
AcDbLine
 10
149.471937
 20
175.391829
 30
0.0
 11
150.5725
 21
154.391829
 31
0.0
  0
LINE
  5
108
330
1F
100
AcDbEntity
  8
1
  6
CONTINUOUS
 62
     9
100
AcDbLine
 10
283.9725
 20
154.391829
 30
0.0
 11
285.073063
 21
175.391829
 31
0.0
  0
LINE
  5
109
330
1F
100
AcDbEntity
  8
1
  6
CONTINUOUS
 62
   253
100
AcDbLine
 10
292.224405
 20
183.391829
 30
0.0
 11
290.838765
 21
183.391829
 31
0.0
  0
LINE
  5
10A
330
1F
100
AcDbEntity
  8
1
  6
CONTINUOUS
 62
   253
100
AcDbLine
 10
292.224405
 20
162.391829
 30
0.0
 11
292.224405
 21
126.591829
 31
0.0
  0
LINE
  5
10B
330
1F
100
AcDbEntity
  8
1
  6
CONTINUOUS
 62
   253
100
AcDbLine
 10
292.224405
 20
162.391829
 30
0.0
 11
290.838765
 21
162.391829
 31
0.0
  0
LINE
  5
10C
330
1F
100
AcDbEntity
  8
1
  6
CONTINUOUS
 62
     9
100
AcDbLine
 10
144.320595
 20
175.391829
 30
0.0
 11
144.320595
 21
174.391829
 31
0.0
  0
LINE
  5
10D
330
1F
100
AcDbEntity
  8
1
  6
CONTINUOUS
 62
     9
100
AcDbLine
 10
290.224405
 20
174.391829
 30
0.0
 11
290.224405
 21
175.391829
 31
0.0
  0
LINE
  5
10E
330
1F
100
AcDbEntity
  8
1
  6
CONTINUOUS
 62
     9
100
AcDbLine
 10
139.588544
 20
165.391829
 30
0.0
 11
149.995876
 21
165.391829
 31
0.0
  0
LINE
  5
10F
330
1F
100
AcDbEntity
  8
1
  6
CONTINUOUS
 62
     9
100
AcDbLine
 10
138.722519
 20
166.391829
 30
0.0
 11
138.722519
 21
174.391829
 31
0.0
  0
LINE
  5
110
330
1F
100
AcDbEntity
  8
1
  6
CONTINUOUS
 62
     9
100
AcDbLine
 10
143.222519
 20
174.391829
 30
0.0
 11
143.222519
 21
175.391829
 31
0.0
  0
LINE
  5
111
330
1F
100
AcDbEntity
  8
1
  6
CONTINUOUS
 62
     9
100
AcDbLine
 10
295.822482
 20
166.391829
 30
0.0
 11
295.822482
 21
174.391829
 31
0.0
  0
LINE
  5
112
330
1F
100
AcDbEntity
  8
1
  6
CONTINUOUS
 62
     9
100
AcDbLine
 10
289.933509
 20
169.391829
 30
0.0
 11
289.933509
 21
166.391829
 31
0.0
  0
LINE
  5
113
330
1F
100
AcDbEntity
  8
1
  6
CONTINUOUS
 62
     9
100
AcDbLine
 10
286.989022
 20
166.391829
 30
0.0
 11
286.989022
 21
169.391829
 31
0.0
  0
LINE
  5
114
330
1F
100
AcDbEntity
  8
1
  6
CONTINUOUS
 62
     9
100
AcDbLine
 10
286.122997
 20
165.391829
 30
0.0
 11
284.549021
 21
165.391829
 31
0.0
  0
LINE
  5
115
330
1F
100
AcDbEntity
  8
1
  6
CONTINUOUS
 62
     9
100
AcDbLine
 10
291.322482
 20
175.391829
 30
0.0
 11
291.322482
 21
174.391829
 31
0.0
  0
LINE
  5
116
330
1F
100
AcDbEntity
  8
1
  6
CONTINUOUS
 62
     9
100
AcDbLine
 10
289.183509
 20
169.391829
 30
0.0
 11
289.933509
 21
169.391829
 31
0.0
  0
LINE
  5
117
330
1F
100
AcDbEntity
  8
1
  6
CONTINUOUS
 62
     9
100
AcDbLine
 10
289.183509
 20
166.391829
 30
0.0
 11
289.933509
 21
166.391829
 31
0.0
  0
LINE
  5
118
330
1F
100
AcDbEntity
  8
1
  6
CONTINUOUS
 62
     9
100
AcDbLine
 10
289.183509
 20
169.391829
 30
0.0
 11
289.183509
 21
166.391829
 31
0.0
  0
LINE
  5
119
330
1F
100
AcDbEntity
  8
1
  6
CONTINUOUS
 62
   253
100
AcDbLine
 10
290.838765
 20
162.391829
 30
0.0
 11
290.838765
 21
126.591829
 31
0.0
  0
LINE
  5
11A
330
1F
100
AcDbEntity
  8
1
  6
CONTINUOUS
 62
   253
100
AcDbLine
 10
197.2725
 20
126.591829
 30
0.0
 11
237.2725
 21
126.591829
 31
0.0
  0
LINE
  5
11B
330
1F
100
AcDbEntity
  8
1
  6
CONTINUOUS
 62
   253
100
AcDbLine
 10
198.5725
 20
173.391829
 30
0.0
 11
198.5725
 21
165.391829
 31
0.0
  0
LINE
  5
11C
330
1F
100
AcDbEntity
  8
1
  6
CONTINUOUS
 62
   253
100
AcDbLine
 10
198.2725
 20
175.391829
 30
0.0
 11
200.2725
 21
175.391829
 31
0.0
  0
LINE
  5
11D
330
1F
100
AcDbEntity
  8
1
  6
CONTINUOUS
 62
   253
100
AcDbLine
 10
200.2725
 20
163.391829
 30
0.0
 11
198.2725
 21
163.391829
 31
0.0
  0
LINE
  5
11E
330
1F
100
AcDbEntity
  8
1
  6
CONTINUOUS
 62
   253
100
AcDbLine
 10
142.320595
 20
183.391829
 30
0.0
 11
142.320595
 21
175.391016
 31
0.0
  0
LINE
  5
11F
330
1F
100
AcDbEntity
  8
1
  6
CONTINUOUS
 62
   253
100
AcDbLine
 10
142.320595
 20
165.391554
 30
0.0
 11
142.320595
 21
126.591829
 31
0.0
  0
LINE
  5
120
330
1F
100
AcDbEntity
  8
1
  6
CONTINUOUS
 62
   253
100
AcDbLine
 10
143.706235
 20
183.391829
 30
0.0
 11
142.320595
 21
183.391829
 31
0.0
  0
LINE
  5
121
330
1F
100
AcDbEntity
  8
1
  6
CONTINUOUS
 62
   253
100
AcDbLine
 10
143.706235
 20
183.391829
 30
0.0
 11
143.706235
 21
175.391016
 31
0.0
  0
LINE
  5
122
330
1F
100
AcDbEntity
  8
1
  6
CONTINUOUS
 62
   253
100
AcDbLine
 10
143.706235
 20
165.391554
 30
0.0
 11
143.706235
 21
126.591829
 31
0.0
  0
LINE
  5
123
330
1F
100
AcDbEntity
  8
1
  6
CONTINUOUS
 62
     9
100
AcDbLine
 10
197.278579
 20
154.391829
 30
0.0
 11
150.5725
 21
154.391829
 31
0.0
  0
LINE
  5
124
330
1F
100
AcDbEntity
  8
1
  6
CONTINUOUS
 62
     9
100
AcDbLine
 10
283.9725
 20
154.391829
 30
0.0
 11
237.272668
 21
154.391829
 31
0.0
  0
LINE
  5
125
330
1F
100
AcDbEntity
  8
1
  6
CONTINUOUS
 62
   254
100
AcDbLine
 10
115.406909
 20
122.542861
 30
0.0
 11
319.138091
 21
122.542861
 31
0.0
  0
LINE
  5
126
330
1F
100
AcDbEntity
  8
1
  6
CONTINUOUS
 62
   254
100
AcDbLine
 10
316.438789
 20
118.899006
 30
0.0
 11
118.106211
 21
118.899006
 31
0.0
  0
LINE
  5
127
330
1F
100
AcDbEntity
  8
1
  6
CONTINUOUS
 62
   151
100
AcDbLine
 10
168.2725
 20
208.041829
 30
0.0
 11
171.2725
 21
208.041829
 31
0.0
  0
LINE
  5
128
330
1F
100
AcDbEntity
  8
1
  6
CONTINUOUS
 62
   254
100
AcDbLine
 10
280.064462
 20
96.591829
 30
0.0
 11
154.480538
 21
96.591829
 31
0.0
  0
LINE
  5
129
330
1F
100
AcDbEntity
  8
1
  6
CONTINUOUS
 62
   254
100
AcDbLine
 10
153.780455
 20
96.877768
 30
0.0
 11
280.764546
 21
96.877768
 31
0.0
  0
LINE
  5
12A
330
1F
100
AcDbEntity
  8
1
  6
CONTINUOUS
 62
   151
100
AcDbLine
 10
263.2725
 20
208.041829
 30
0.0
 11
266.2725
 21
208.041829
 31
0.0
  0
LINE
  5
12B
330
1F
100
AcDbEntity
  8
1
  6
CONTINUOUS
 62
     7
100
AcDbLine
 10
278.501528
 20
94.7898
 30
0.0
 11
156.043472
 21
94.7898
 31
0.0
  0
LINE
  5
12C
330
1F
100
AcDbEntity
  8
1
  6
CONTINUOUS
 62
     9
100
AcDbLine
 10
285.073063
 20
175.391829
 30
0.0
 11
246.016358
 21
175.391829
 31
0.0
  0
LINE
  5
12D
330
1F
100
AcDbEntity
  8
1
  6
CONTINUOUS
 62
     9
100
AcDbLine
 10
149.471937
 20
175.391829
 30
0.0
 11
188.528642
 21
175.391829
 31
0.0
  0
LINE
  5
12E
330
1F
100
AcDbEntity
  8
1
  6
CONTINUOUS
 62
   251
100
AcDbLine
 10
610.436718
 20
461.94621
 30
0.0
 11
610.436718
 21
469.473783
 31
0.0
  0
LINE
  5
12F
330
1F
100
AcDbEntity
  8
1
  6
CONTINUOUS
 62
   252
100
AcDbLine
 10
591.692329
 20
458.824938
 30
0.0
 11
590.214118
 21
464.343683
 31
0.0
  0
LINE
  5
130
330
1F
100
AcDbEntity
  8
1
  6
CONTINUOUS
 62
   252
100
AcDbLine
 10
591.692329
 20
457.921629
 30
0.0
 11
590.214118
 21
463.440374
 31
0.0
  0
LINE
  5
131
330
1F
100
AcDbEntity
  8
1
  6
CONTINUOUS
 62
   252
100
AcDbLine
 10
590.138157
 20
464.915244
 30
0.0
 11
590.138157
 21
464.011935
 31
0.0
  0
LINE
  5
132
330
1F
100
AcDbEntity
  8
1
  6
CONTINUOUS
 62
   252
100
AcDbLine
 10
541.728415
 20
435.731658
 30
0.0
 11
541.728415
 21
436.634967
 31
0.0
  0
LINE
  5
133
330
1F
100
AcDbEntity
  8
1
  6
CONTINUOUS
 62
   252
100
AcDbLine
 10
680.302171
 20
360.721442
 30
0.0
 11
680.302171
 21
361.624751
 31
0.0
  0
LINE
  5
134
330
1F
100
AcDbEntity
  8
1
  6
CONTINUOUS
 62
   252
100
AcDbLine
 10
687.508525
 20
362.164645
 30
0.0
 11
687.508525
 21
361.261337
 31
0.0
  0
LINE
  5
135
330
1F
100
AcDbEntity
  8
1
  6
CONTINUOUS
 62
   252
100
AcDbLine
 10
687.508525
 20
361.261337
 30
0.0
 11
680.302171
 21
360.721442
 31
0.0
  0
LINE
  5
136
330
1F
100
AcDbEntity
  8
1
  6
CONTINUOUS
 62
   252
100
AcDbLine
 10
680.302171
 20
361.624751
 30
0.0
 11
687.508525
 21
362.164645
 31
0.0
  0
LINE
  5
137
330
1F
100
AcDbEntity
  8
1
  6
CONTINUOUS
 62
   252
100
AcDbLine
 10
680.302171
 20
360.721442
 30
0.0
 11
673.781082
 21
364.323547
 31
0.0
  0
LINE
  5
138
330
1F
100
AcDbEntity
  8
1
  6
CONTINUOUS
 62
   252
100
AcDbLine
 10
680.302171
 20
361.624751
 30
0.0
 11
673.781082
 21
365.226855
 31
0.0
  0
LINE
  5
139
330
1F
100
AcDbEntity
  8
1
  6
CONTINUOUS
 62
   252
100
AcDbLine
 10
623.585278
 20
338.564697
 30
0.0
 11
623.585278
 21
339.468006
 31
0.0
  0
LINE
  5
13A
330
1F
100
AcDbEntity
  8
1
  6
CONTINUOUS
 62
   252
100
AcDbLine
 10
622.031106
 20
345.558312
 30
0.0
 11
623.509317
 21
340.039568
 31
0.0
  0
LINE
  5
13B
330
1F
100
AcDbEntity
  8
1
  6
CONTINUOUS
 62
   252
100
AcDbLine
 10
707.861718
 20
401.288316
 30
0.0
 11
707.861718
 21
402.191625
 31
0.0
  0
LINE
  5
13C
330
1F
100
AcDbEntity
  8
1
  6
CONTINUOUS
 62
   252
100
AcDbLine
 10
671.99502
 20
367.748284
 30
0.0
 11
671.99502
 21
366.844975
 31
0.0
  0
LINE
  5
13D
330
1F
100
AcDbEntity
  8
1
  6
CONTINUOUS
 62
   252
100
AcDbLine
 10
533.421264
 20
442.7585
 30
0.0
 11
526.21491
 21
442.218605
 31
0.0
  0
LINE
  5
13E
330
1F
100
AcDbEntity
  8
1
  6
CONTINUOUS
 62
   252
100
AcDbLine
 10
533.421264
 20
442.7585
 30
0.0
 11
539.942353
 21
439.156395
 31
0.0
  0
LINE
  5
13F
330
1F
100
AcDbEntity
  8
1
  6
CONTINUOUS
 62
   252
100
AcDbLine
 10
505.861718
 20
402.191625
 30
0.0
 11
505.861718
 21
401.288316
 31
0.0
  0
LINE
  5
140
330
1F
100
AcDbEntity
  8
1
  6
CONTINUOUS
 62
   251
100
AcDbLine
 10
682.095029
 20
379.616078
 30
0.0
 11
682.095029
 21
372.088506
 31
0.0
  0
LINE
  5
141
330
1F
100
AcDbEntity
  8
1
  6
CONTINUOUS
 62
   251
100
AcDbLine
 10
689.245029
 20
372.088506
 30
0.0
 11
689.245029
 21
379.616078
 31
0.0
  0
LINE
  5
142
330
1F
100
AcDbEntity
  8
1
  6
CONTINUOUS
 62
   251
100
AcDbLine
 10
531.628406
 20
372.088506
 30
0.0
 11
531.628406
 21
379.616078
 31
0.0
  0
LINE
  5
143
102
{ACAD_REACTORS
330
49E
102
}
330
1F
100
AcDbEntity
  8
1
  6
CONTINUOUS
 62
     4
100
AcDbLine
 10
171.7725
 20
304.646404
 30
0.0
 11
72.25
 21
304.646404
 31
0.0
  0
LINE
  5
144
102
{ACAD_REACTORS
330
49E
102
}
330
1F
100
AcDbEntity
  8
1
  6
CONTINUOUS
 62
     4
100
AcDbLine
 10
73.75
 20
304.646404
 30
0.0
 11
73.214102
 21
306.646402
 31
0.0
  0
LINE
  5
145
102
{ACAD_REACTORS
330
49E
102
}
330
1F
100
AcDbEntity
  8
1
  6
CONTINUOUS
 62
     4
100
AcDbLine
 10
73.75
 20
304.646404
 30
0.0
 11
74.285898
 21
306.646406
 31
0.0
  0
LINE
  5
146
330
1F
100
AcDbEntity
  8
1
  6
CONTINUOUS
 62
    81
 60
     1
100
AcDbLine
 10
217.2725
 20
210.441829
 30
0.0
 11
217.2735
 21
210.441829
 31
0.0
  0
LINE
  5
147
330
1F
100
AcDbEntity
  8
1
  6
CONTINUOUS
 62
    81
 60
     1
100
AcDbLine
 10
217.2725
 20
126.391829
 30
0.0
 11
217.2715
 21
126.391829
 31
0.0
  0
LINE
  5
148
102
{ACAD_REACTORS
330
49F
102
}
330
1F
100
AcDbEntity
  8
1
  6
CONTINUOUS
 62
     4
100
AcDbLine
 10
171.7725
 20
462.263027
 30
0.0
 11
72.25
 21
462.263027
 31
0.0
  0
LINE
  5
149
102
{ACAD_REACTORS
330
49F
102
}
330
1F
100
AcDbEntity
  8
1
  6
CONTINUOUS
 62
     4
100
AcDbLine
 10
73.75
 20
462.263027
 30
0.0
 11
74.285898
 21
460.263029
 31
0.0
  0
LINE
  5
14A
102
{ACAD_REACTORS
330
49F
102
}
330
1F
100
AcDbEntity
  8
1
  6
CONTINUOUS
 62
     4
100
AcDbLine
 10
73.75
 20
462.263027
 30
0.0
 11
73.214102
 21
460.263025
 31
0.0
  0
LINE
  5
14B
330
1F
100
AcDbEntity
  8
1
  6
CONTINUOUS
 62
   254
100
AcDbLine
 10
277.82486
 20
323.609462
 30
0.0
 11
287.981212
 21
313.45311
 31
0.0
  0
LINE
  5
14C
330
1F
100
AcDbEntity
  8
1
  6
CONTINUOUS
 62
   254
100
AcDbLine
 10
277.021966
 20
322.998143
 30
0.0
 11
287.274106
 21
312.746003
 31
0.0
  0
LINE
  5
14D
330
1F
100
AcDbEntity
  8
1
  6
CONTINUOUS
 62
   254
100
AcDbLine
 10
229.147515
 20
293.255026
 30
0.0
 11
229.672488
 21
289.267454
 31
0.0
  0
LINE
  5
14E
330
1F
100
AcDbEntity
  8
1
  6
CONTINUOUS
 62
   254
100
AcDbLine
 10
133.21977
 20
418.270496
 30
0.0
 11
129.503945
 21
419.809642
 31
0.0
  0
LINE
  5
14F
330
1F
100
AcDbEntity
  8
1
  6
CONTINUOUS
 62
   254
100
AcDbLine
 10
289.450216
 20
438.838625
 30
0.0
 11
292.641067
 21
441.287051
 31
0.0
  0
LINE
  5
150
330
1F
100
AcDbEntity
  8
1
  6
CONTINUOUS
 62
     9
100
AcDbLine
 10
273.359886
 20
439.508144
 30
0.0
 11
274.572482
 21
440.208236
 31
0.0
  0
LINE
  5
151
330
1F
100
AcDbEntity
  8
1
  6
CONTINUOUS
 62
     9
100
AcDbLine
 10
293.859886
 20
404.001102
 30
0.0
 11
295.072482
 21
404.701195
 31
0.0
  0
LINE
  5
152
330
1F
100
AcDbEntity
  8
1
  6
CONTINUOUS
 62
     9
100
AcDbLine
 10
294.610036
 20
402.702151
 30
0.0
 11
295.822482
 21
403.402157
 31
0.0
  0
LINE
  5
153
330
1F
100
AcDbEntity
  8
1
  6
CONTINUOUS
 62
     9
100
AcDbLine
 10
239.2725
 20
306.854727
 30
0.0
 11
239.2725
 21
305.454716
 31
0.0
  0
LINE
  5
154
330
1F
100
AcDbEntity
  8
1
  6
CONTINUOUS
 62
     9
100
AcDbLine
 10
237.7725
 20
306.854901
 30
0.0
 11
237.7725
 21
305.454716
 31
0.0
  0
LINE
  5
155
330
1F
100
AcDbEntity
  8
1
  6
CONTINUOUS
 62
     9
100
AcDbLine
 10
196.7725
 20
306.854901
 30
0.0
 11
196.7725
 21
305.454716
 31
0.0
  0
LINE
  5
156
330
1F
100
AcDbEntity
  8
1
  6
CONTINUOUS
 62
     9
100
AcDbLine
 10
195.2725
 20
306.854727
 30
0.0
 11
195.2725
 21
305.454716
 31
0.0
  0
LINE
  5
157
330
1F
100
AcDbEntity
  8
1
  6
CONTINUOUS
 62
     9
100
AcDbLine
 10
139.934964
 20
402.702151
 30
0.0
 11
138.722519
 21
403.402157
 31
0.0
  0
LINE
  5
158
330
1F
100
AcDbEntity
  8
1
  6
CONTINUOUS
 62
     9
100
AcDbLine
 10
140.685114
 20
404.001102
 30
0.0
 11
139.472519
 21
404.701195
 31
0.0
  0
LINE
  5
159
330
1F
100
AcDbEntity
  8
1
  6
CONTINUOUS
 62
     9
100
AcDbLine
 10
161.934964
 20
440.807269
 30
0.0
 11
160.722519
 21
441.507275
 31
0.0
  0
LINE
  5
15A
330
1F
100
AcDbEntity
  8
1
  6
CONTINUOUS
 62
     9
100
AcDbLine
 10
272.610036
 20
440.807269
 30
0.0
 11
273.822482
 21
441.507275
 31
0.0
  0
LINE
  5
15B
330
1F
100
AcDbEntity
  8
1
  6
CONTINUOUS
 62
     9
100
AcDbLine
 10
161.185114
 20
439.508144
 30
0.0
 11
159.972519
 21
440.208236
 31
0.0
  0
LINE
  5
15C
330
1F
100
AcDbEntity
  8
1
  6
CONTINUOUS
 62
   253
100
AcDbLine
 10
150.097356
 20
323.350639
 30
0.0
 11
152.218676
 21
325.47196
 31
0.0
  0
LINE
  5
15D
330
1F
100
AcDbEntity
  8
1
  6
CONTINUOUS
 62
   253
100
AcDbLine
 10
157.168424
 20
316.279571
 30
0.0
 11
159.289744
 21
318.400892
 31
0.0
  0
LINE
  5
15E
330
1F
100
AcDbEntity
  8
1
  6
CONTINUOUS
 62
   253
100
AcDbLine
 10
305.49992
 20
364.990631
 30
0.0
 11
302.602142
 21
365.767088
 31
0.0
  0
LINE
  5
15F
330
1F
100
AcDbEntity
  8
1
  6
CONTINUOUS
 62
   253
100
AcDbLine
 10
198.808415
 20
471.682135
 30
0.0
 11
199.584872
 21
468.784358
 31
0.0
  0
LINE
  5
160
330
1F
100
AcDbEntity
  8
1
  6
CONTINUOUS
 62
   253
100
AcDbLine
 10
189.149157
 20
469.093945
 30
0.0
 11
189.925614
 21
466.196167
 31
0.0
  0
LINE
  5
161
330
1F
100
AcDbEntity
  8
1
  6
CONTINUOUS
 62
   253
100
AcDbLine
 10
207.2725
 20
300.454716
 30
0.0
 11
207.2725
 21
295.57362
 31
0.0
  0
LINE
  5
162
330
1F
100
AcDbEntity
  8
1
  6
CONTINUOUS
 62
   253
100
AcDbLine
 10
140.392392
 20
416.294462
 30
0.0
 11
135.660748
 21
419.026277
 31
0.0
  0
LINE
  5
163
330
1F
100
AcDbEntity
  8
1
  6
CONTINUOUS
 62
   253
100
AcDbLine
 10
150.392392
 20
433.61497
 30
0.0
 11
146.165238
 21
436.055518
 31
0.0
  0
LINE
  5
164
330
1F
100
AcDbEntity
  8
1
  6
CONTINUOUS
 62
   253
100
AcDbLine
 10
284.152609
 20
433.61497
 30
0.0
 11
288.884252
 21
436.346786
 31
0.0
  0
LINE
  5
165
330
1F
100
AcDbEntity
  8
1
  6
CONTINUOUS
 62
   253
100
AcDbLine
 10
294.152609
 20
416.294462
 30
0.0
 11
298.379762
 21
418.73501
 31
0.0
  0
LINE
  5
166
330
1F
100
AcDbEntity
  8
1
  6
CONTINUOUS
 62
   253
100
AcDbLine
 10
227.2725
 20
300.454716
 30
0.0
 11
227.2725
 21
294.991084
 31
0.0
  0
LINE
  5
167
330
1F
100
AcDbEntity
  8
1
  6
CONTINUOUS
 62
   253
100
AcDbLine
 10
302.911729
 20
355.331372
 30
0.0
 11
300.013952
 21
356.10783
 31
0.0
  0
LINE
  5
168
330
1F
100
AcDbEntity
  8
1
  6
CONTINUOUS
 62
   151
100
AcDbLine
 10
242.2725
 20
314.71608
 30
0.0
 11
242.2725
 21
306.854716
 31
0.0
  0
LINE
  5
169
330
1F
100
AcDbEntity
  8
1
  6
CONTINUOUS
 62
   151
100
AcDbLine
 10
264.7725
 20
439.746367
 30
0.0
 11
271.110046
 21
443.405351
 31
0.0
  0
LINE
  5
16A
330
1F
100
AcDbEntity
  8
1
  6
CONTINUOUS
 62
   151
100
AcDbLine
 10
192.2725
 20
314.71608
 30
0.0
 11
192.2725
 21
306.854716
 31
0.0
  0
LINE
  5
16B
330
1F
100
AcDbEntity
  8
1
  6
CONTINUOUS
 62
   151
100
AcDbLine
 10
145.243096
 20
396.173398
 30
0.0
 11
138.434954
 21
400.104081
 31
0.0
  0
LINE
  5
16C
330
1F
100
AcDbEntity
  8
1
  6
CONTINUOUS
 62
   151
100
AcDbLine
 10
169.7725
 20
439.746367
 30
0.0
 11
163.434954
 21
443.405351
 31
0.0
  0
LINE
  5
16D
330
1F
100
AcDbEntity
  8
1
  6
CONTINUOUS
 62
   151
100
AcDbLine
 10
289.301905
 20
396.173398
 30
0.0
 11
296.110046
 21
400.104081
 31
0.0
  0
LINE
  5
16E
330
1F
100
AcDbEntity
  8
1
  6
CONTINUOUS
 62
    31
100
AcDbLine
 10
195.19892
 20
455.654141
 30
0.0
 11
194.321787
 21
458.523116
 31
0.0
  0
LINE
  5
16F
330
1F
100
AcDbEntity
  8
1
  6
CONTINUOUS
 62
    31
100
AcDbLine
 10
165.782753
 20
328.238722
 30
0.0
 11
163.736715
 21
326.044615
 31
0.0
  0
LINE
  5
170
330
1F
100
AcDbEntity
  8
1
  6
CONTINUOUS
 62
    31
100
AcDbLine
 10
290.835827
 20
366.471283
 30
0.0
 11
293.758999
 21
365.796416
 31
0.0
  0
LINE
  5
171
330
1F
100
AcDbEntity
  8
1
  6
CONTINUOUS
 62
   253
100
AcDbLine
 10
291.724405
 20
163.391829
 30
0.0
 11
289.338765
 21
163.391829
 31
0.0
  0
LINE
  5
172
330
1F
100
AcDbEntity
  8
1
  6
CONTINUOUS
 62
   253
100
AcDbLine
 10
290.724405
 20
186.391829
 30
0.0
 11
272.338765
 21
186.391829
 31
0.0
  0
LINE
  5
173
330
1F
100
AcDbEntity
  8
1
  6
CONTINUOUS
 62
   253
100
AcDbLine
 10
162.206235
 20
186.391829
 30
0.0
 11
143.820595
 21
186.391829
 31
0.0
  0
LINE
  5
174
330
1F
100
AcDbEntity
  8
1
  6
CONTINUOUS
 62
   151
100
AcDbLine
 10
142.320907
 20
175.441829
 30
0.0
 11
139.934954
 21
175.441829
 31
0.0
  0
LINE
  5
175
330
1F
100
AcDbEntity
  8
1
  6
CONTINUOUS
 62
   151
100
AcDbLine
 10
291.880343
 20
175.441829
 30
0.0
 11
294.610046
 21
175.441829
 31
0.0
  0
LINE
  5
176
330
1F
100
AcDbEntity
  8
1
  6
CONTINUOUS
 62
   151
100
AcDbLine
 10
294.5512
 20
208.841829
 30
0.0
 11
242.2725
 21
208.841829
 31
0.0
  0
LINE
  5
177
330
1F
100
AcDbEntity
  8
1
  6
CONTINUOUS
 62
   151
100
AcDbLine
 10
242.2725
 20
178.441829
 30
0.0
 11
242.2725
 21
210.441829
 31
0.0
  0
LINE
  5
178
330
1F
100
AcDbEntity
  8
1
  6
CONTINUOUS
 62
   151
100
AcDbLine
 10
192.2725
 20
178.441829
 30
0.0
 11
192.2725
 21
210.441829
 31
0.0
  0
LINE
  5
179
330
1F
100
AcDbEntity
  8
1
  6
CONTINUOUS
 62
     9
100
AcDbLine
 10
244.726998
 20
174.391829
 30
0.0
 11
239.2725
 21
174.391829
 31
0.0
  0
LINE
  5
17A
330
1F
100
AcDbEntity
  8
1
  6
CONTINUOUS
 62
     9
100
AcDbLine
 10
189.818002
 20
174.391829
 30
0.0
 11
195.2725
 21
174.391829
 31
0.0
  0
LINE
  5
17B
330
1F
100
AcDbEntity
  8
1
  6
CONTINUOUS
 62
     9
100
AcDbLine
 10
149.373169
 20
174.391829
 30
0.0
 11
143.222519
 21
174.391829
 31
0.0
  0
LINE
  5
17C
330
1F
100
AcDbEntity
  8
1
  6
CONTINUOUS
 62
     9
100
AcDbLine
 10
285.171831
 20
174.391829
 30
0.0
 11
291.322482
 21
174.391829
 31
0.0
  0
LINE
  5
17D
330
1F
100
AcDbEntity
  8
1
  6
CONTINUOUS
 62
     9
100
AcDbLine
 10
139.588544
 20
175.391829
 30
0.0
 11
149.327364
 21
175.391829
 31
0.0
  0
LINE
  5
17E
330
1F
100
AcDbEntity
  8
1
  6
CONTINUOUS
 62
     9
100
AcDbLine
 10
294.956456
 20
165.391829
 30
0.0
 11
290.049534
 21
165.391829
 31
0.0
  0
LINE
  5
17F
330
1F
100
AcDbEntity
  8
1
  6
CONTINUOUS
 62
     9
100
AcDbLine
 10
294.956456
 20
175.391829
 30
0.0
 11
285.217636
 21
175.391829
 31
0.0
  0
LINE
  5
180
330
1F
100
AcDbEntity
  8
1
  6
CONTINUOUS
 62
   253
100
AcDbLine
 10
200.2725
 20
165.391829
 30
0.0
 11
196.7725
 21
165.391829
 31
0.0
  0
LINE
  5
181
330
1F
100
AcDbEntity
  8
1
  6
CONTINUOUS
 62
   253
100
AcDbLine
 10
200.2725
 20
173.391829
 30
0.0
 11
196.7725
 21
173.391829
 31
0.0
  0
LINE
  5
182
330
1F
100
AcDbEntity
  8
1
  6
CONTINUOUS
 62
   253
100
AcDbLine
 10
237.2725
 20
175.441604
 30
0.0
 11
237.2725
 21
126.391829
 31
0.0
  0
LINE
  5
183
330
1F
100
AcDbEntity
  8
1
  6
CONTINUOUS
 62
   253
100
AcDbLine
 10
197.2725
 20
162.391829
 30
0.0
 11
197.2725
 21
126.391829
 31
0.0
  0
LINE
  5
184
330
1F
100
AcDbEntity
  8
1
  6
CONTINUOUS
 62
   253
100
AcDbLine
 10
290.799529
 20
165.391829
 30
0.0
 11
286.12299
 21
165.391829
 31
0.0
  0
LINE
  5
185
330
1F
100
AcDbEntity
  8
1
  6
CONTINUOUS
 62
   151
100
AcDbLine
 10
294.5512
 20
210.441829
 30
0.0
 11
139.9938
 21
210.441829
 31
0.0
  0
LINE
  5
186
330
1F
100
AcDbEntity
  8
1
  6
CONTINUOUS
 62
   151
100
AcDbLine
 10
192.2725
 20
208.841829
 30
0.0
 11
139.9938
 21
208.841829
 31
0.0
  0
LINE
  5
187
330
1F
100
AcDbEntity
  8
1
  6
CONTINUOUS
 62
     9
100
AcDbLine
 10
196.7725
 20
165.391829
 30
0.0
 11
196.7725
 21
175.391829
 31
0.0
  0
LINE
  5
188
330
1F
100
AcDbEntity
  8
1
  6
CONTINUOUS
 62
     9
100
AcDbLine
 10
195.2725
 20
165.391829
 30
0.0
 11
195.2725
 21
175.391829
 31
0.0
  0
LINE
  5
189
330
1F
100
AcDbEntity
  8
1
  6
CONTINUOUS
 62
     9
100
AcDbLine
 10
237.7725
 20
175.391829
 30
0.0
 11
237.7725
 21
165.391829
 31
0.0
  0
LINE
  5
18A
330
1F
100
AcDbEntity
  8
1
  6
CONTINUOUS
 62
     9
100
AcDbLine
 10
239.2725
 20
175.391829
 30
0.0
 11
239.2725
 21
165.391829
 31
0.0
  0
LINE
  5
18B
330
1F
100
AcDbEntity
  8
1
  6
CONTINUOUS
 62
     9
100
AcDbLine
 10
198.272894
 20
175.391829
 30
0.0
 11
189.863807
 21
175.391829
 31
0.0
  0
LINE
  5
18C
330
1F
100
AcDbEntity
  8
1
  6
CONTINUOUS
 62
     9
100
AcDbLine
 10
237.27189
 20
175.391829
 30
0.0
 11
244.681193
 21
175.391829
 31
0.0
  0
LINE
  5
18D
330
1F
100
AcDbEntity
  8
1
  6
CONTINUOUS
 62
   251
100
AcDbLine
 10
603.286718
 20
469.473783
 30
0.0
 11
603.286718
 21
461.94621
 31
0.0
  0
LINE
  5
18E
330
1F
100
AcDbEntity
  8
1
  6
CONTINUOUS
 62
   251
100
AcDbLine
 10
524.478406
 20
379.616078
 30
0.0
 11
524.478406
 21
372.088506
 31
0.0
  0
LINE
  5
18F
330
1F
100
AcDbEntity
  8
1
  6
CONTINUOUS
 62
     4
100
AcDbLine
 10
73.75
 20
304.646404
 30
0.0
 11
73.75
 21
462.263027
 31
0.0
  0
LINE
  5
190
330
1F
100
AcDbEntity
  8
1
  6
CONTINUOUS
 62
     4
100
AcDbLine
 10
112.2725
 20
383.454716
 30
0.0
 11
72.25
 21
383.454716
 31
0.0
  0
LINE
  5
191
330
1F
100
AcDbEntity
  8
1
  6
CONTINUOUS
 62
     4
100
AcDbLine
 10
74.285898
 20
381.454718
 30
0.0
 11
73.214102
 21
385.454714
 31
0.0
  0
LINE
  5
192
330
1F
100
AcDbEntity
  8
1
  6
CONTINUOUS
 62
     4
100
AcDbLine
 10
73.214102
 20
381.454714
 30
0.0
 11
74.285898
 21
385.454718
 31
0.0
  0
ARC
  5
193
330
1F
100
AcDbEntity
  8
1
  6
CONTINUOUS
 62
   151
100
AcDbCircle
 10
217.2725
 20
383.454716
 30
0.0
 40
70.0
100
AcDbArc
 50
173.578178
 51
246.421822
  0
ARC
  5
194
330
1F
100
AcDbEntity
  8
1
  6
CONTINUOUS
 62
   253
100
AcDbCircle
 10
171.7725
 20
462.263027
 30
0.0
 40
2.29999999999998
100
AcDbArc
 50
300.0
 51
120.0
  0
ARC
  5
195
330
1F
100
AcDbEntity
  8
1
  6
CONTINUOUS
 62
   253
100
AcDbCircle
 10
308.2725
 20
383.454716
 30
0.0
 40
2.299999999999997
100
AcDbArc
 50
180.0
 51
0.0
  0
ARC
  5
196
330
1F
100
AcDbEntity
  8
1
  6
CONTINUOUS
 62
   253
100
AcDbCircle
 10
171.7725
 20
304.646404
 30
0.0
 40
2.29999999999998
100
AcDbArc
 50
60.0
 51
240.0
  0
CIRCLE
  5
197
330
1F
100
AcDbEntity
  8
1
  6
CONTINUOUS
 62
   151
100
AcDbCircle
 10
264.2725
 20
401.454716
 30
0.0
 40
1.699999999999999
  0
CIRCLE
  5
198
330
1F
100
AcDbEntity
  8
1
  6
CONTINUOUS
 62
   151
100
AcDbCircle
 10
264.7725
 20
371.454716
 30
0.0
 40
1.5
  0
CIRCLE
  5
199
330
1F
100
AcDbEntity
  8
1
  6
CONTINUOUS
 62
   151
100
AcDbCircle
 10
169.7725
 20
371.454716
 30
0.0
 40
1.5
  0
CIRCLE
  5
19A
330
1F
100
AcDbEntity
  8
1
  6
CONTINUOUS
 62
   151
100
AcDbCircle
 10
170.2725
 20
401.454716
 30
0.0
 40
1.699999999999999
  0
CIRCLE
  5
19B
330
1F
100
AcDbEntity
  8
1
  6
CONTINUOUS
 62
   254
100
AcDbCircle
 10
217.2725
 20
383.454716
 30
0.0
 40
102.0
  0
ARC
  5
19C
330
1F
100
AcDbEntity
  8
1
  6
CONTINUOUS
 62
     7
100
AcDbCircle
 10
217.2725
 20
383.454716
 30
0.0
 40
59.59601617026386
100
AcDbArc
 50
158.338125
 51
163.42875
  0
ARC
  5
19D
330
1F
100
AcDbEntity
  8
1
  6
CONTINUOUS
 62
     7
100
AcDbCircle
 10
217.2725
 20
383.454716
 30
0.0
 40
59.59601617026386
100
AcDbArc
 50
40.9725
 51
139.033125
  0
ARC
  5
19E
330
1F
100
AcDbEntity
  8
1
  6
CONTINUOUS
 62
     7
100
AcDbCircle
 10
217.2725
 20
383.454716
 30
0.0
 40
59.59601617026386
100
AcDbArc
 50
16.576875
 51
21.6675
  0
ARC
  5
19F
330
1F
100
AcDbEntity
  8
1
  6
CONTINUOUS
 62
     7
100
AcDbCircle
 10
217.2725
 20
383.454716
 30
0.0
 40
59.06984819214241
100
AcDbArc
 50
16.723125
 51
21.864375
  0
ARC
  5
1A0
330
1F
100
AcDbEntity
  8
1
  6
CONTINUOUS
 62
     7
100
AcDbCircle
 10
217.2725
 20
383.454716
 30
0.0
 40
59.06984819214241
100
AcDbArc
 50
40.370625
 51
139.62375
  0
ARC
  5
1A1
330
1F
100
AcDbEntity
  8
1
  6
CONTINUOUS
 62
     7
100
AcDbCircle
 10
217.2725
 20
383.454716
 30
0.0
 40
59.06984819214241
100
AcDbArc
 50
158.13
 51
163.27125
  0
ARC
  5
1A2
330
1F
100
AcDbEntity
  8
1
  6
CONTINUOUS
 62
     7
100
AcDbCircle
 10
217.2725
 20
383.454716
 30
0.0
 40
58.23005631357745
100
AcDbArc
 50
16.970625
 51
22.19625
  0
ARC
  5
1A3
330
1F
100
AcDbEntity
  8
1
  6
CONTINUOUS
 62
     7
100
AcDbCircle
 10
217.2725
 20
383.454716
 30
0.0
 40
58.23005631357745
100
AcDbArc
 50
39.391875
 51
140.6025
  0
ARC
  5
1A4
330
1F
100
AcDbEntity
  8
1
  6
CONTINUOUS
 62
     7
100
AcDbCircle
 10
217.2725
 20
383.454716
 30
0.0
 40
58.23005631357745
100
AcDbArc
 50
157.798125
 51
163.02375
  0
ARC
  5
1A5
330
1F
100
AcDbEntity
  8
1
  6
CONTINUOUS
 62
     7
100
AcDbCircle
 10
217.2725
 20
383.454716
 30
0.0
 40
58.18005631357744
100
AcDbArc
 50
16.9875
 51
22.213125
  0
ARC
  5
1A6
330
1F
100
AcDbEntity
  8
1
  6
CONTINUOUS
 62
     7
100
AcDbCircle
 10
217.2725
 20
383.454716
 30
0.0
 40
58.18005631357744
100
AcDbArc
 50
39.33
 51
140.664375
  0
ARC
  5
1A7
330
1F
100
AcDbEntity
  8
1
  6
CONTINUOUS
 62
     7
100
AcDbCircle
 10
217.2725
 20
383.454716
 30
0.0
 40
58.18005631357744
100
AcDbArc
 50
157.78125
 51
163.006875
  0
ARC
  5
1A8
330
1F
100
AcDbEntity
  8
1
  6
CONTINUOUS
 62
    31
100
AcDbCircle
 10
217.2725
 20
383.454716
 30
0.0
 40
62.30000000000001
100
AcDbArc
 50
18.73125
 51
20.626875
  0
ARC
  5
1A9
330
1F
100
AcDbEntity
  8
1
  6
CONTINUOUS
 62
    31
100
AcDbCircle
 10
217.2725
 20
383.454716
 30
0.0
 40
62.30000000000001
100
AcDbArc
 50
43.75125
 51
136.243125
  0
ARC
  5
1AA
330
1F
100
AcDbEntity
  8
1
  6
CONTINUOUS
 62
    31
100
AcDbCircle
 10
217.2725
 20
383.454716
 30
0.0
 40
62.30000000000001
100
AcDbArc
 50
159.3675
 51
161.263125
  0
ARC
  5
1AB
330
1F
100
AcDbEntity
  8
1
  6
CONTINUOUS
 62
    31
100
AcDbCircle
 10
217.2725
 20
383.454716
 30
0.0
 40
75.78865695544502
100
AcDbArc
 50
98.403538
 51
104.622
  0
ARC
  5
1AC
330
1F
100
AcDbEntity
  8
1
  6
CONTINUOUS
 62
    31
100
AcDbCircle
 10
217.2725
 20
383.454716
 30
0.0
 40
78.27914370067438
100
AcDbArc
 50
99.134191
 51
104.634027
  0
ARC
  5
1AD
330
1F
100
AcDbEntity
  8
1
  6
CONTINUOUS
 62
    31
100
AcDbCircle
 10
217.2725
 20
383.454716
 30
0.0
 40
75.78865695544502
100
AcDbArc
 50
338.403538
 51
344.622
  0
ARC
  5
1AE
330
1F
100
AcDbEntity
  8
1
  6
CONTINUOUS
 62
    31
100
AcDbCircle
 10
217.2725
 20
383.454716
 30
0.0
 40
78.27914370067438
100
AcDbArc
 50
339.134191
 51
344.634027
  0
ARC
  5
1AF
330
1F
100
AcDbEntity
  8
1
  6
CONTINUOUS
 62
    31
100
AcDbCircle
 10
217.2725
 20
383.454716
 30
0.0
 40
75.78865695544502
100
AcDbArc
 50
218.403538
 51
224.622
  0
ARC
  5
1B0
330
1F
100
AcDbEntity
  8
1
  6
CONTINUOUS
 62
    31
100
AcDbCircle
 10
217.2725
 20
383.454716
 30
0.0
 40
78.27914370067438
100
AcDbArc
 50
219.134191
 51
224.634027
  0
ARC
  5
1B1
330
1F
100
AcDbEntity
  8
1
  6
CONTINUOUS
 62
    31
100
AcDbCircle
 10
217.2725
 20
383.454716
 30
0.0
 40
75.78865695544502
100
AcDbArc
 50
345.378
 51
347.0
  0
ARC
  5
1B2
330
1F
100
AcDbEntity
  8
1
  6
CONTINUOUS
 62
    31
100
AcDbCircle
 10
217.2725
 20
383.454716
 30
0.0
 40
78.27914370067438
100
AcDbArc
 50
345.365973
 51
347.0
  0
ARC
  5
1B3
330
1F
100
AcDbEntity
  8
1
  6
CONTINUOUS
 62
    31
100
AcDbCircle
 10
217.2725
 20
383.454716
 30
0.0
 40
75.78865695544502
100
AcDbArc
 50
105.378
 51
107.0
  0
ARC
  5
1B4
330
1F
100
AcDbEntity
  8
1
  6
CONTINUOUS
 62
    31
100
AcDbCircle
 10
217.2725
 20
383.454716
 30
0.0
 40
78.27914370067438
100
AcDbArc
 50
105.365973
 51
107.0
  0
ARC
  5
1B5
330
1F
100
AcDbEntity
  8
1
  6
CONTINUOUS
 62
    31
100
AcDbCircle
 10
217.2725
 20
383.454716
 30
0.0
 40
75.78865695544502
100
AcDbArc
 50
225.378
 51
227.0
  0
ARC
  5
1B6
330
1F
100
AcDbEntity
  8
1
  6
CONTINUOUS
 62
    31
100
AcDbCircle
 10
217.2725
 20
383.454716
 30
0.0
 40
78.27914370067438
100
AcDbArc
 50
225.365973
 51
227.0
  0
ARC
  5
1B7
330
1F
100
AcDbEntity
  8
1
  6
CONTINUOUS
 62
    31
100
AcDbCircle
 10
217.2725
 20
383.454716
 30
0.0
 40
84.0
100
AcDbArc
 50
219.538125
 51
230.4675
  0
ARC
  5
1B8
330
1F
100
AcDbEntity
  8
1
  6
CONTINUOUS
 62
    31
100
AcDbCircle
 10
217.2725
 20
383.454716
 30
0.0
 40
84.0
100
AcDbArc
 50
261.10125
 51
263.165625
  0
ARC
  5
1B9
330
1F
100
AcDbEntity
  8
1
  6
CONTINUOUS
 62
    31
100
AcDbCircle
 10
217.2725
 20
383.454716
 30
0.0
 40
84.0
100
AcDbArc
 50
276.84
 51
278.904375
  0
ARC
  5
1BA
330
1F
100
AcDbEntity
  8
1
  6
CONTINUOUS
 62
    31
100
AcDbCircle
 10
217.2725
 20
383.454716
 30
0.0
 40
84.0
100
AcDbArc
 50
339.53625
 51
350.465625
  0
ARC
  5
1BB
330
1F
100
AcDbEntity
  8
1
  6
CONTINUOUS
 62
    31
100
AcDbCircle
 10
217.2725
 20
383.454716
 30
0.0
 40
84.0
100
AcDbArc
 50
21.09375
 51
23.158125
  0
ARC
  5
1BC
330
1F
100
AcDbEntity
  8
1
  6
CONTINUOUS
 62
    31
100
AcDbCircle
 10
217.2725
 20
383.454716
 30
0.0
 40
84.0
100
AcDbArc
 50
36.8325
 51
38.9025
  0
ARC
  5
1BD
330
1F
100
AcDbEntity
  8
1
  6
CONTINUOUS
 62
    31
100
AcDbCircle
 10
217.2725
 20
383.454716
 30
0.0
 40
84.0
100
AcDbArc
 50
99.534375
 51
110.46375
  0
ARC
  5
1BE
330
1F
100
AcDbEntity
  8
1
  6
CONTINUOUS
 62
    31
100
AcDbCircle
 10
217.2725
 20
383.454716
 30
0.0
 40
84.0
100
AcDbArc
 50
141.091875
 51
143.161875
  0
ARC
  5
1BF
330
1F
100
AcDbEntity
  8
1
  6
CONTINUOUS
 62
    31
100
AcDbCircle
 10
217.2725
 20
383.454716
 30
0.0
 40
84.0
100
AcDbArc
 50
156.83625
 51
158.900625
  0
ARC
  5
1C0
330
1F
100
AcDbEntity
  8
1
  6
CONTINUOUS
 62
    31
100
AcDbCircle
 10
293.871474
 20
366.283601
 30
0.0
 40
0.4999999999999983
100
AcDbArc
 50
257.0
 51
347.364944
  0
ARC
  5
1C1
330
1F
100
AcDbEntity
  8
1
  6
CONTINUOUS
 62
    31
100
AcDbCircle
 10
217.2725
 20
383.454716
 30
0.0
 40
79.0
100
AcDbArc
 50
347.364944
 51
350.812189
  0
ARC
  5
1C2
330
1F
100
AcDbEntity
  8
1
  6
CONTINUOUS
 62
    31
100
AcDbCircle
 10
193.843634
 20
458.37693
 30
0.0
 40
0.4999999999999983
100
AcDbArc
 50
17.0
 51
107.364944
  0
ARC
  5
1C3
330
1F
100
AcDbEntity
  8
1
  6
CONTINUOUS
 62
    31
100
AcDbCircle
 10
217.2725
 20
383.454716
 30
0.0
 40
79.0
100
AcDbArc
 50
107.364944
 51
110.812189
  0
ARC
  5
1C4
330
1F
100
AcDbEntity
  8
1
  6
CONTINUOUS
 62
    31
100
AcDbCircle
 10
164.102392
 20
325.703615
 30
0.0
 40
0.4999999999999983
100
AcDbArc
 50
137.0
 51
227.364944
  0
ARC
  5
1C5
330
1F
100
AcDbEntity
  8
1
  6
CONTINUOUS
 62
    31
100
AcDbCircle
 10
217.2725
 20
383.454716
 30
0.0
 40
79.0
100
AcDbArc
 50
227.364944
 51
230.812189
  0
ARC
  5
1C6
330
1F
100
AcDbEntity
  8
1
  6
CONTINUOUS
 62
    31
100
AcDbCircle
 10
217.2725
 20
383.454716
 30
0.0
 40
75.59080421003834
100
AcDbArc
 50
98.226603
 51
104.621011
  0
ARC
  5
1C7
330
1F
100
AcDbEntity
  8
1
  6
CONTINUOUS
 62
    31
100
AcDbCircle
 10
217.2725
 20
383.454716
 30
0.0
 40
75.59080421003834
100
AcDbArc
 50
225.378989
 51
227.0
  0
ARC
  5
1C8
330
1F
100
AcDbEntity
  8
1
  6
CONTINUOUS
 62
    31
100
AcDbCircle
 10
217.2725
 20
383.454716
 30
0.0
 40
75.59080421003834
100
AcDbArc
 50
105.378989
 51
107.0
  0
ARC
  5
1C9
330
1F
100
AcDbEntity
  8
1
  6
CONTINUOUS
 62
    31
100
AcDbCircle
 10
217.2725
 20
383.454716
 30
0.0
 40
75.59080421003834
100
AcDbArc
 50
345.378989
 51
347.0
  0
ARC
  5
1CA
330
1F
100
AcDbEntity
  8
1
  6
CONTINUOUS
 62
    31
100
AcDbCircle
 10
217.2725
 20
383.454716
 30
0.0
 40
75.59080421003834
100
AcDbArc
 50
218.226603
 51
224.621011
  0
ARC
  5
1CB
330
1F
100
AcDbEntity
  8
1
  6
CONTINUOUS
 62
    31
100
AcDbCircle
 10
217.2725
 20
383.454716
 30
0.0
 40
75.59080421003834
100
AcDbArc
 50
338.226603
 51
344.621011
  0
ARC
  5
1CC
330
1F
100
AcDbEntity
  8
1
  6
CONTINUOUS
 62
    31
100
AcDbCircle
 10
217.2725
 20
383.454716
 30
0.0
 40
75.09270686099246
100
AcDbArc
 50
105.381503
 51
107.158756
  0
ARC
  5
1CD
330
1F
100
AcDbEntity
  8
1
  6
CONTINUOUS
 62
    31
100
AcDbCircle
 10
217.2725
 20
383.454716
 30
0.0
 40
75.09270686099246
100
AcDbArc
 50
217.446754
 51
224.618497
  0
ARC
  5
1CE
330
1F
100
AcDbEntity
  8
1
  6
CONTINUOUS
 62
    31
100
AcDbCircle
 10
217.2725
 20
383.454716
 30
0.0
 40
75.09270686099246
100
AcDbArc
 50
97.446754
 51
104.618497
  0
ARC
  5
1CF
330
1F
100
AcDbEntity
  8
1
  6
CONTINUOUS
 62
    31
100
AcDbCircle
 10
217.2725
 20
383.454716
 30
0.0
 40
75.09270686099246
100
AcDbArc
 50
225.381503
 51
227.158756
  0
ARC
  5
1D0
330
1F
100
AcDbEntity
  8
1
  6
CONTINUOUS
 62
    31
100
AcDbCircle
 10
217.2725
 20
383.454716
 30
0.0
 40
75.09270686099246
100
AcDbArc
 50
345.381503
 51
347.158756
  0
ARC
  5
1D1
330
1F
100
AcDbEntity
  8
1
  6
CONTINUOUS
 62
    31
100
AcDbCircle
 10
217.2725
 20
383.454716
 30
0.0
 40
75.09270686099246
100
AcDbArc
 50
337.446754
 51
344.618497
  0
CIRCLE
  5
1D2
330
1F
100
AcDbEntity
  8
1
  6
CONTINUOUS
 62
    31
100
AcDbCircle
 10
217.2725
 20
455.454716
 30
0.0
 40
2.2
  0
ARC
  5
1D3
330
1F
100
AcDbEntity
  8
1
  6
CONTINUOUS
 62
    31
100
AcDbCircle
 10
217.2725
 20
383.454716
 30
0.0
 40
75.0
100
AcDbArc
 50
227.379445
 51
233.107142
  0
ARC
  5
1D4
330
1F
100
AcDbEntity
  8
1
  6
CONTINUOUS
 62
    31
100
AcDbCircle
 10
166.14843
 20
327.897723
 30
0.0
 40
0.4999999999999983
100
AcDbArc
 50
47.379445
 51
82.722775
  0
ARC
  5
1D5
330
1F
100
AcDbEntity
  8
1
  6
CONTINUOUS
 62
    31
100
AcDbCircle
 10
145.2725
 20
383.454716
 30
0.0
 40
0.9999999999999993
100
AcDbArc
 50
270.0
 51
90.0
  0
ARC
  5
1D6
330
1F
100
AcDbEntity
  8
1
  6
CONTINUOUS
 62
    31
100
AcDbCircle
 10
144.2725
 20
383.454716
 30
0.0
 40
0.9999999999999991
100
AcDbArc
 50
90.0
 51
270.0
  0
ARC
  5
1D7
330
1F
100
AcDbEntity
  8
1
  6
CONTINUOUS
 62
    31
100
AcDbCircle
 10
154.918671
 20
347.454716
 30
0.0
 40
2.199999999999996
100
AcDbArc
 50
54.253135
 51
5.74875
  0
ARC
  5
1D8
330
1F
100
AcDbEntity
  8
1
  6
CONTINUOUS
 62
    31
100
AcDbCircle
 10
217.2725
 20
383.454716
 30
0.0
 40
75.0
100
AcDbArc
 50
107.379445
 51
113.107142
  0
ARC
  5
1D9
330
1F
100
AcDbEntity
  8
1
  6
CONTINUOUS
 62
    31
100
AcDbCircle
 10
194.720768
 20
455.507956
 30
0.0
 40
0.4999999999999983
100
AcDbArc
 50
287.379445
 51
322.722775
  0
ARC
  5
1DA
330
1F
100
AcDbEntity
  8
1
  6
CONTINUOUS
 62
    31
100
AcDbCircle
 10
279.626329
 20
347.454716
 30
0.0
 40
2.200000000000003
100
AcDbArc
 50
174.256879
 51
125.752495
  0
ARC
  5
1DB
330
1F
100
AcDbEntity
  8
1
  6
CONTINUOUS
 62
    31
100
AcDbCircle
 10
217.2725
 20
383.454716
 30
0.0
 40
75.0
100
AcDbArc
 50
347.379445
 51
353.107142
  0
CIRCLE
  5
1DC
330
1F
100
AcDbEntity
  8
1
  6
CONTINUOUS
 62
    31
100
AcDbCircle
 10
289.7725
 20
383.454716
 30
0.0
 40
1.000000000000003
  0
ARC
  5
1DD
330
1F
100
AcDbEntity
  8
1
  6
CONTINUOUS
 62
    31
100
AcDbCircle
 10
290.948302
 20
366.958469
 30
0.0
 40
0.4999999999999983
100
AcDbArc
 50
167.379445
 51
202.722775
  0
CIRCLE
  5
1DE
330
1F
100
AcDbEntity
  8
1
  6
CONTINUOUS
 62
    31
100
AcDbCircle
 10
279.626329
 20
347.454716
 30
0.0
 40
1.200000000000003
  0
CIRCLE
  5
1DF
330
1F
100
AcDbEntity
  8
1
  6
CONTINUOUS
 62
    31
100
AcDbCircle
 10
154.918671
 20
347.454716
 30
0.0
 40
1.200000000000003
  0
CIRCLE
  5
1E0
330
1F
100
AcDbEntity
  8
1
  6
CONTINUOUS
 62
    31
100
AcDbCircle
 10
217.2725
 20
455.454716
 30
0.0
 40
1.2
  0
ARC
  5
1E1
330
1F
100
AcDbEntity
  8
1
  6
CONTINUOUS
 62
   254
100
AcDbCircle
 10
217.2725
 20
383.454716
 30
0.0
 40
99.49847613925294
100
AcDbArc
 50
315.287924
 51
314.712076
  0
ARC
  5
1E2
330
1F
100
AcDbEntity
  8
1
  6
CONTINUOUS
 62
   254
100
AcDbCircle
 10
217.2725
 20
383.454716
 30
0.0
 40
99.36711401931608
100
AcDbArc
 50
315.288305
 51
314.711695
  0
ARC
  5
1E3
330
1F
100
AcDbEntity
  8
1
  6
CONTINUOUS
 62
   254
100
AcDbCircle
 10
304.386552
 20
420.079734
 30
0.0
 40
0.5
100
AcDbArc
 50
292.5
 51
22.803154
  0
ARC
  5
1E4
330
1F
100
AcDbEntity
  8
1
  6
CONTINUOUS
 62
   254
100
AcDbCircle
 10
205.43367
 20
289.699225
 30
0.0
 40
0.5
100
AcDbArc
 50
172.5
 51
262.803154
  0
ARC
  5
1E5
330
1F
100
AcDbEntity
  8
1
  6
CONTINUOUS
 62
   254
100
AcDbCircle
 10
217.2725
 20
383.454716
 30
0.0
 40
94.49999999999999
100
AcDbArc
 50
142.803154
 51
157.5
  0
ARC
  5
1E6
330
1F
100
AcDbEntity
  8
1
  6
CONTINUOUS
 62
   254
100
AcDbCircle
 10
217.2725
 20
383.454716
 30
0.0
 40
94.99999999999999
100
AcDbArc
 50
142.803154
 51
157.5
  0
ARC
  5
1E7
330
1F
100
AcDbEntity
  8
1
  6
CONTINUOUS
 62
   254
100
AcDbCircle
 10
217.2725
 20
383.454716
 30
0.0
 40
94.49999999999999
100
AcDbArc
 50
22.803154
 51
37.5
  0
ARC
  5
1E8
330
1F
100
AcDbEntity
  8
1
  6
CONTINUOUS
 62
   254
100
AcDbCircle
 10
217.2725
 20
383.454716
 30
0.0
 40
94.99999999999999
100
AcDbArc
 50
22.803154
 51
37.5
  0
ARC
  5
1E9
330
1F
100
AcDbEntity
  8
1
  6
CONTINUOUS
 62
   254
100
AcDbCircle
 10
227.164625
 20
292.993973
 30
0.0
 40
2.0
100
AcDbArc
 50
7.5
 51
96.240651
  0
ARC
  5
1EA
330
1F
100
AcDbEntity
  8
1
  6
CONTINUOUS
 62
   254
100
AcDbCircle
 10
217.2725
 20
383.454716
 30
0.0
 40
94.49999999999999
100
AcDbArc
 50
262.803154
 51
277.5
  0
ARC
  5
1EB
330
1F
100
AcDbEntity
  8
1
  6
CONTINUOUS
 62
   254
100
AcDbCircle
 10
217.2725
 20
383.454716
 30
0.0
 40
88.99999999999999
100
AcDbArc
 50
262.821888
 51
276.240651
  0
ARC
  5
1EC
330
1F
100
AcDbEntity
  8
1
  6
CONTINUOUS
 62
   254
100
AcDbCircle
 10
133.985137
 20
420.118255
 30
0.0
 40
2.0
100
AcDbArc
 50
247.5
 51
336.240651
  0
ARC
  5
1ED
330
1F
100
AcDbEntity
  8
1
  6
CONTINUOUS
 62
   254
100
AcDbCircle
 10
217.2725
 20
383.454716
 30
0.0
 40
88.99999999999999
100
AcDbArc
 50
142.821888
 51
156.240651
  0
ARC
  5
1EE
330
1F
100
AcDbEntity
  8
1
  6
CONTINUOUS
 62
   254
100
AcDbCircle
 10
217.2725
 20
383.454716
 30
0.0
 40
94.99999999999999
100
AcDbArc
 50
262.803154
 51
277.5
  0
ARC
  5
1EF
330
1F
100
AcDbEntity
  8
1
  6
CONTINUOUS
 62
   254
100
AcDbCircle
 10
141.997278
 20
440.585189
 30
0.0
 40
0.5
100
AcDbArc
 50
52.5
 51
142.803154
  0
ARC
  5
1F0
330
1F
100
AcDbEntity
  8
1
  6
CONTINUOUS
 62
   254
100
AcDbCircle
 10
290.667738
 20
437.251918
 30
0.0
 40
2.0
100
AcDbArc
 50
127.5
 51
216.240651
  0
ARC
  5
1F1
330
1F
100
AcDbEntity
  8
1
  6
CONTINUOUS
 62
   254
100
AcDbCircle
 10
217.2725
 20
383.454716
 30
0.0
 40
88.99999999999999
100
AcDbArc
 50
22.821888
 51
36.240651
  0
ARC
  5
1F2
330
1F
100
AcDbEntity
  8
1
  6
CONTINUOUS
 62
   254
100
AcDbCircle
 10
217.2725
 20
383.454716
 30
0.0
 40
90.5
100
AcDbArc
 50
99.935416
 51
101.790766
  0
ARC
  5
1F3
330
1F
100
AcDbEntity
  8
1
  6
CONTINUOUS
 62
   254
100
AcDbCircle
 10
217.2725
 20
383.454716
 30
0.0
 40
98.35487584274522
100
AcDbArc
 50
294.710516
 51
314.708728
  0
ARC
  5
1F4
330
1F
100
AcDbEntity
  8
1
  6
CONTINUOUS
 62
   254
100
AcDbCircle
 10
217.2725
 20
383.454716
 30
0.0
 40
98.35487584274522
100
AcDbArc
 50
261.492481
 51
278.497419
  0
ARC
  5
1F5
330
1F
100
AcDbEntity
  8
1
  6
CONTINUOUS
 62
   254
100
AcDbCircle
 10
217.2725
 20
383.454716
 30
0.0
 40
98.35487584274522
100
AcDbArc
 50
141.491978
 51
158.496916
  0
ARC
  5
1F6
330
1F
100
AcDbEntity
  8
1
  6
CONTINUOUS
 62
   254
100
AcDbCircle
 10
217.2725
 20
383.454716
 30
0.0
 40
98.35487584274522
100
AcDbArc
 50
21.502707
 51
38.507645
  0
ARC
  5
1F7
330
1F
100
AcDbEntity
  8
1
  6
CONTINUOUS
 62
   254
100
AcDbCircle
 10
217.2725
 20
383.454716
 30
0.0
 40
98.35487584274522
100
AcDbArc
 50
315.291272
 51
315.875326
  0
CIRCLE
  5
1F8
330
1F
100
AcDbEntity
  8
1
  6
CONTINUOUS
 62
   254
100
AcDbCircle
 10
289.7725
 20
383.454716
 30
0.0
 40
0.7000000000000027
  0
CIRCLE
  5
1F9
330
1F
100
AcDbEntity
  8
1
  6
CONTINUOUS
 62
   254
100
AcDbCircle
 10
144.7725
 20
383.454716
 30
0.0
 40
0.7000000000000027
  0
CIRCLE
  5
1FA
330
1F
100
AcDbEntity
  8
1
  6
CONTINUOUS
 62
   254
100
AcDbCircle
 10
144.7725
 20
383.454716
 30
0.0
 40
1.000000000000003
  0
CIRCLE
  5
1FB
330
1F
100
AcDbEntity
  8
1
  6
CONTINUOUS
 62
   254
100
AcDbCircle
 10
154.918671
 20
347.454716
 30
0.0
 40
0.8
  0
CIRCLE
  5
1FC
330
1F
100
AcDbEntity
  8
1
  6
CONTINUOUS
 62
   254
100
AcDbCircle
 10
154.918671
 20
347.454716
 30
0.0
 40
1.075
  0
CIRCLE
  5
1FD
330
1F
100
AcDbEntity
  8
1
  6
CONTINUOUS
 62
   254
100
AcDbCircle
 10
279.626329
 20
347.454716
 30
0.0
 40
1.075
  0
CIRCLE
  5
1FE
330
1F
100
AcDbEntity
  8
1
  6
CONTINUOUS
 62
   254
100
AcDbCircle
 10
279.626329
 20
347.454716
 30
0.0
 40
0.8
  0
CIRCLE
  5
1FF
330
1F
100
AcDbEntity
  8
1
  6
CONTINUOUS
 62
   254
100
AcDbCircle
 10
217.2725
 20
455.454716
 30
0.0
 40
1.075
  0
CIRCLE
  5
200
330
1F
100
AcDbEntity
  8
1
  6
CONTINUOUS
 62
   254
100
AcDbCircle
 10
217.2725
 20
455.454716
 30
0.0
 40
0.8
  0
CIRCLE
  5
201
330
1F
100
AcDbEntity
  8
1
  6
CONTINUOUS
 62
   254
100
AcDbCircle
 10
279.626329
 20
347.454716
 30
0.0
 40
0.694710786424857
  0
CIRCLE
  5
202
330
1F
100
AcDbEntity
  8
1
  6
CONTINUOUS
 62
   254
100
AcDbCircle
 10
217.2725
 20
455.454716
 30
0.0
 40
0.694710786424857
  0
CIRCLE
  5
203
330
1F
100
AcDbEntity
  8
1
  6
CONTINUOUS
 62
   254
100
AcDbCircle
 10
154.918671
 20
347.454716
 30
0.0
 40
0.694710786424857
  0
ARC
  5
204
330
1F
100
AcDbEntity
  8
1
  6
CONTINUOUS
 62
   254
100
AcDbCircle
 10
217.2725
 20
383.454716
 30
0.0
 40
72.00000000000001
100
AcDbArc
 50
179.20392
 51
179.313215
  0
ARC
  5
205
330
1F
100
AcDbEntity
  8
1
  6
CONTINUOUS
 62
   254
100
AcDbCircle
 10
217.2725
 20
383.454716
 30
0.0
 40
73.0
100
AcDbArc
 50
179.215017
 51
179.317936
  0
ARC
  5
206
330
1F
100
AcDbEntity
  8
1
  6
CONTINUOUS
 62
   254
100
AcDbCircle
 10
217.2725
 20
383.454716
 30
0.0
 40
73.0
100
AcDbArc
 50
180.682064
 51
180.784983
  0
ARC
  5
207
330
1F
100
AcDbEntity
  8
1
  6
CONTINUOUS
 62
   254
100
AcDbCircle
 10
217.2725
 20
383.454716
 30
0.0
 40
72.00000000000001
100
AcDbArc
 50
180.686785
 51
180.79608
  0
ARC
  5
208
330
1F
100
AcDbEntity
  8
1
  6
CONTINUOUS
 62
     9
100
AcDbCircle
 10
217.2725
 20
383.454716
 30
0.0
 40
65.79781867294804
100
AcDbArc
 50
46.845
 51
133.149374
  0
ARC
  5
209
330
1F
100
AcDbEntity
  8
1
  6
CONTINUOUS
 62
     9
100
AcDbCircle
 10
217.2725
 20
383.454716
 30
0.0
 40
67.80056336494388
100
AcDbArc
 50
55.084042
 51
124.915958
  0
ARC
  5
20A
330
1F
100
AcDbEntity
  8
1
  6
CONTINUOUS
 62
     9
100
AcDbCircle
 10
217.2725
 20
383.454716
 30
0.0
 40
65.69300311438197
100
AcDbArc
 50
46.760625
 51
133.23375
  0
ARC
  5
20B
330
1F
100
AcDbEntity
  8
1
  6
CONTINUOUS
 62
     9
100
AcDbCircle
 10
217.2725
 20
383.454716
 30
0.0
 40
63.1
100
AcDbArc
 50
44.505
 51
135.489375
  0
ARC
  5
20C
330
1F
100
AcDbEntity
  8
1
  6
CONTINUOUS
 62
     9
100
AcDbCircle
 10
217.2725
 20
383.454716
 30
0.0
 40
62.87212878339671
100
AcDbArc
 50
44.29125
 51
135.703125
  0
CIRCLE
  5
20D
330
1F
100
AcDbEntity
  8
1
  6
CONTINUOUS
 62
   253
100
AcDbCircle
 10
217.2725
 20
474.454716
 30
0.0
 40
3.764490471062697
  0
CIRCLE
  5
20E
330
1F
100
AcDbEntity
  8
1
  6
CONTINUOUS
 62
   253
100
AcDbCircle
 10
217.2725
 20
474.454716
 30
0.0
 40
3.529141624366986
  0
ARC
  5
20F
330
1F
100
AcDbEntity
  8
1
  6
CONTINUOUS
 62
   253
100
AcDbCircle
 10
188.183231
 20
468.835126
 30
0.0
 40
1.0
100
AcDbArc
 50
15.0
 51
105.0
  0
ARC
  5
210
330
1F
100
AcDbEntity
  8
1
  6
CONTINUOUS
 62
   253
100
AcDbCircle
 10
217.2725
 20
383.454716
 30
0.0
 40
75.0
100
AcDbArc
 50
113.1072
 51
130.528779
  0
ARC
  5
211
330
1F
100
AcDbEntity
  8
1
  6
CONTINUOUS
 62
   253
100
AcDbCircle
 10
160.722519
 20
441.507275
 30
0.0
 40
1.0
100
AcDbArc
 50
60.0
 51
150.0
  0
ARC
  5
212
330
1F
100
AcDbEntity
  8
1
  6
CONTINUOUS
 62
   253
100
AcDbCircle
 10
160.222519
 20
440.641249
 30
0.0
 40
1.0
100
AcDbArc
 50
150.0
 51
240.0
  0
ARC
  5
213
330
1F
100
AcDbEntity
  8
1
  6
CONTINUOUS
 62
   253
100
AcDbCircle
 10
139.222519
 20
404.268182
 30
0.0
 40
1.0
100
AcDbArc
 50
60.0
 51
150.0
  0
ARC
  5
214
330
1F
100
AcDbEntity
  8
1
  6
CONTINUOUS
 62
   253
100
AcDbCircle
 10
138.722519
 20
403.402157
 30
0.0
 40
1.0
100
AcDbArc
 50
150.0
 51
240.0
  0
ARC
  5
215
330
1F
100
AcDbEntity
  8
1
  6
CONTINUOUS
 62
   253
100
AcDbCircle
 10
217.2725
 20
383.454716
 30
0.0
 40
75.0
100
AcDbArc
 50
169.471221
 51
216.8928
  0
ARC
  5
216
330
1F
100
AcDbEntity
  8
1
  6
CONTINUOUS
 62
   253
100
AcDbCircle
 10
148.683142
 20
324.764853
 30
0.0
 40
1.0
100
AcDbArc
 50
135.0
 51
225.0
  0
ARC
  5
217
330
1F
100
AcDbEntity
  8
1
  6
CONTINUOUS
 62
   253
100
AcDbCircle
 10
149.390249
 20
324.057746
 30
0.0
 40
1.0
100
AcDbArc
 50
225.0
 51
315.0
  0
ARC
  5
218
330
1F
100
AcDbEntity
  8
1
  6
CONTINUOUS
 62
   253
100
AcDbCircle
 10
157.87553
 20
315.572465
 30
0.0
 40
1.0
100
AcDbArc
 50
135.0
 51
225.0
  0
ARC
  5
219
330
1F
100
AcDbEntity
  8
1
  6
CONTINUOUS
 62
   253
100
AcDbCircle
 10
158.582637
 20
314.865358
 30
0.0
 40
1.0
100
AcDbArc
 50
225.0
 51
315.0
  0
ARC
  5
21A
330
1F
100
AcDbEntity
  8
1
  6
CONTINUOUS
 62
   253
100
AcDbCircle
 10
170.447561
 20
321.073428
 30
0.0
 40
3.0
100
AcDbArc
 50
53.1072
 51
135.0
  0
ARC
  5
21B
330
1F
100
AcDbEntity
  8
1
  6
CONTINUOUS
 62
   253
100
AcDbCircle
 10
217.2725
 20
383.454716
 30
0.0
 40
75.0
100
AcDbArc
 50
233.1072
 51
250.528779
  0
ARC
  5
21C
330
1F
100
AcDbEntity
  8
1
  6
CONTINUOUS
 62
   253
100
AcDbCircle
 10
196.2725
 20
305.454716
 30
0.0
 40
1.0
100
AcDbArc
 50
270.0
 51
0.0
  0
ARC
  5
21D
330
1F
100
AcDbEntity
  8
1
  6
CONTINUOUS
 62
   253
100
AcDbCircle
 10
238.2725
 20
305.454716
 30
0.0
 40
1.0
100
AcDbArc
 50
180.0
 51
270.0
  0
ARC
  5
21E
330
1F
100
AcDbEntity
  8
1
  6
CONTINUOUS
 62
   253
100
AcDbCircle
 10
239.2725
 20
305.454716
 30
0.0
 40
1.0
100
AcDbArc
 50
270.0
 51
0.0
  0
ARC
  5
21F
330
1F
100
AcDbEntity
  8
1
  6
CONTINUOUS
 62
   253
100
AcDbCircle
 10
217.2725
 20
383.454716
 30
0.0
 40
75.0
100
AcDbArc
 50
289.471221
 51
336.8928
  0
ARC
  5
220
330
1F
100
AcDbEntity
  8
1
  6
CONTINUOUS
 62
   253
100
AcDbCircle
 10
302.394091
 20
353.399521
 30
0.0
 40
1.0
100
AcDbArc
 50
255.0
 51
345.0
  0
ARC
  5
221
330
1F
100
AcDbEntity
  8
1
  6
CONTINUOUS
 62
   253
100
AcDbCircle
 10
302.65291
 20
354.365447
 30
0.0
 40
1.0
100
AcDbArc
 50
345.0
 51
75.0
  0
ARC
  5
222
330
1F
100
AcDbEntity
  8
1
  6
CONTINUOUS
 62
   253
100
AcDbCircle
 10
305.758739
 20
365.956557
 30
0.0
 40
1.0
100
AcDbArc
 50
255.0
 51
345.0
  0
ARC
  5
223
330
1F
100
AcDbEntity
  8
1
  6
CONTINUOUS
 62
   253
100
AcDbCircle
 10
306.017558
 20
366.922482
 30
0.0
 40
1.0
100
AcDbArc
 50
345.0
 51
75.0
  0
ARC
  5
224
330
1F
100
AcDbEntity
  8
1
  6
CONTINUOUS
 62
   253
100
AcDbCircle
 10
217.2725
 20
383.454716
 30
0.0
 40
75.0
100
AcDbArc
 50
353.1072
 51
10.528779
  0
ARC
  5
225
330
1F
100
AcDbEntity
  8
1
  6
CONTINUOUS
 62
   253
100
AcDbCircle
 10
295.822482
 20
403.402157
 30
0.0
 40
1.0
100
AcDbArc
 50
300.0
 51
30.0
  0
ARC
  5
226
330
1F
100
AcDbEntity
  8
1
  6
CONTINUOUS
 62
   253
100
AcDbCircle
 10
295.322482
 20
404.268182
 30
0.0
 40
1.0
100
AcDbArc
 50
30.0
 51
120.0
  0
ARC
  5
227
330
1F
100
AcDbEntity
  8
1
  6
CONTINUOUS
 62
   253
100
AcDbCircle
 10
274.322482
 20
440.641249
 30
0.0
 40
1.0
100
AcDbArc
 50
300.0
 51
30.0
  0
ARC
  5
228
330
1F
100
AcDbEntity
  8
1
  6
CONTINUOUS
 62
   253
100
AcDbCircle
 10
200.740267
 20
472.199773
 30
0.0
 40
1.0
100
AcDbArc
 50
15.0
 51
105.0
  0
ARC
  5
229
330
1F
100
AcDbEntity
  8
1
  6
CONTINUOUS
 62
   253
100
AcDbCircle
 10
199.774341
 20
471.940954
 30
0.0
 40
1.0
100
AcDbArc
 50
105.0
 51
195.0
  0
ARC
  5
22A
330
1F
100
AcDbEntity
  8
1
  6
CONTINUOUS
 62
   253
100
AcDbCircle
 10
232.2725
 20
288.127647
 30
0.0
 40
2.0
100
AcDbArc
 50
180.0
 51
278.94234
  0
ARC
  5
22B
330
1F
100
AcDbEntity
  8
1
  6
CONTINUOUS
 62
   253
100
AcDbCircle
 10
206.2725
 20
300.454716
 30
0.0
 40
1.0
100
AcDbArc
 50
360.0
 51
90.0
  0
ARC
  5
22C
330
1F
100
AcDbEntity
  8
1
  6
CONTINUOUS
 62
   253
100
AcDbCircle
 10
205.2725
 20
300.454716
 30
0.0
 40
1.0
100
AcDbArc
 50
90.0
 51
180.0
  0
ARC
  5
22D
330
1F
100
AcDbEntity
  8
1
  6
CONTINUOUS
 62
   253
100
AcDbCircle
 10
202.2725
 20
288.127647
 30
0.0
 40
2.0
100
AcDbArc
 50
261.05766
 51
0.0
  0
ARC
  5
22E
330
1F
100
AcDbEntity
  8
1
  6
CONTINUOUS
 62
   253
100
AcDbCircle
 10
217.2725
 20
383.454716
 30
0.0
 40
98.5
100
AcDbArc
 50
158.94234
 51
261.05766
  0
ARC
  5
22F
330
1F
100
AcDbEntity
  8
1
  6
CONTINUOUS
 62
   253
100
AcDbCircle
 10
127.216837
 20
418.127869
 30
0.0
 40
2.0
100
AcDbArc
 50
60.0
 51
158.94234
  0
ARC
  5
230
330
1F
100
AcDbEntity
  8
1
  6
CONTINUOUS
 62
   253
100
AcDbCircle
 10
139.392392
 20
414.562411
 30
0.0
 40
1.0
100
AcDbArc
 50
240.0
 51
330.0
  0
ARC
  5
231
330
1F
100
AcDbEntity
  8
1
  6
CONTINUOUS
 62
   253
100
AcDbCircle
 10
139.892392
 20
415.428436
 30
0.0
 40
1.0
100
AcDbArc
 50
330.0
 51
60.0
  0
ARC
  5
232
330
1F
100
AcDbEntity
  8
1
  6
CONTINUOUS
 62
   253
100
AcDbCircle
 10
150.892392
 20
434.480995
 30
0.0
 40
1.0
100
AcDbArc
 50
240.0
 51
330.0
  0
ARC
  5
233
330
1F
100
AcDbEntity
  8
1
  6
CONTINUOUS
 62
   253
100
AcDbCircle
 10
151.392392
 20
435.34702
 30
0.0
 40
1.0
100
AcDbArc
 50
330.0
 51
60.0
  0
ARC
  5
234
330
1F
100
AcDbEntity
  8
1
  6
CONTINUOUS
 62
   253
100
AcDbCircle
 10
142.216837
 20
444.108631
 30
0.0
 40
2.0
100
AcDbArc
 50
141.05766
 51
240.0
  0
ARC
  5
235
330
1F
100
AcDbEntity
  8
1
  6
CONTINUOUS
 62
   253
100
AcDbCircle
 10
217.2725
 20
383.454716
 30
0.0
 40
98.5
100
AcDbArc
 50
38.94234
 51
141.05766
  0
ARC
  5
236
330
1F
100
AcDbEntity
  8
1
  6
CONTINUOUS
 62
   253
100
AcDbCircle
 10
292.328163
 20
444.108631
 30
0.0
 40
2.0
100
AcDbArc
 50
300.0
 51
38.94234
  0
ARC
  5
237
330
1F
100
AcDbEntity
  8
1
  6
CONTINUOUS
 62
   253
100
AcDbCircle
 10
283.152609
 20
435.34702
 30
0.0
 40
1.0
100
AcDbArc
 50
120.0
 51
210.0
  0
ARC
  5
238
330
1F
100
AcDbEntity
  8
1
  6
CONTINUOUS
 62
   253
100
AcDbCircle
 10
283.652609
 20
434.480995
 30
0.0
 40
1.0
100
AcDbArc
 50
210.0
 51
300.0
  0
ARC
  5
239
330
1F
100
AcDbEntity
  8
1
  6
CONTINUOUS
 62
   253
100
AcDbCircle
 10
294.652609
 20
415.428436
 30
0.0
 40
1.0
100
AcDbArc
 50
120.0
 51
210.0
  0
ARC
  5
23A
330
1F
100
AcDbEntity
  8
1
  6
CONTINUOUS
 62
   253
100
AcDbCircle
 10
295.152609
 20
414.562411
 30
0.0
 40
1.0
100
AcDbArc
 50
210.0
 51
300.0
  0
ARC
  5
23B
330
1F
100
AcDbEntity
  8
1
  6
CONTINUOUS
 62
   253
100
AcDbCircle
 10
307.328163
 20
418.127869
 30
0.0
 40
2.0
100
AcDbArc
 50
21.05766
 51
120.0
  0
ARC
  5
23C
330
1F
100
AcDbEntity
  8
1
  6
CONTINUOUS
 62
   253
100
AcDbCircle
 10
217.2725
 20
383.454716
 30
0.0
 40
98.5
100
AcDbArc
 50
316.17538
 51
21.05766
  0
ARC
  5
23D
330
1F
100
AcDbEntity
  8
1
  6
CONTINUOUS
 62
   253
100
AcDbCircle
 10
287.615119
 20
315.940524
 30
0.0
 40
1.0
100
AcDbArc
 50
225.0
 51
316.17538
  0
ARC
  5
23E
330
1F
100
AcDbEntity
  8
1
  6
CONTINUOUS
 62
   253
100
AcDbCircle
 10
278.083683
 20
322.643532
 30
0.0
 40
1.0
100
AcDbArc
 50
45.0
 51
135.0
  0
ARC
  5
23F
330
1F
100
AcDbEntity
  8
1
  6
CONTINUOUS
 62
   253
100
AcDbCircle
 10
217.2725
 20
383.454716
 30
0.0
 40
85.00000000000001
100
AcDbArc
 50
295.666245
 51
315.0
  0
ARC
  5
240
330
1F
100
AcDbEntity
  8
1
  6
CONTINUOUS
 62
   253
100
AcDbCircle
 10
254.521521
 20
305.940134
 30
0.0
 40
1.0
100
AcDbArc
 50
115.666245
 51
205.0
  0
CIRCLE
  5
241
330
1F
100
AcDbEntity
  8
1
  6
CONTINUOUS
 62
   253
100
AcDbCircle
 10
126.2725
 20
383.454716
 30
0.0
 40
1.621
  0
ARC
  5
242
330
1F
100
AcDbEntity
  8
1
  6
CONTINUOUS
 62
   253
100
AcDbCircle
 10
168.244367
 20
454.960885
 30
0.0
 40
2.0
100
AcDbArc
 50
124.436445
 51
178.339748
  0
ARC
  5
243
330
1F
100
AcDbEntity
  8
1
  6
CONTINUOUS
 62
   253
100
AcDbCircle
 10
217.2725
 20
383.454716
 30
0.0
 40
88.7
100
AcDbArc
 50
120.0
 51
124.436445
  0
ARC
  5
244
330
1F
100
AcDbEntity
  8
1
  6
CONTINUOUS
 62
   253
100
AcDbCircle
 10
163.155505
 20
461.898587
 30
0.0
 40
2.0
100
AcDbArc
 50
254.180963
 51
304.601085
  0
ARC
  5
245
330
1F
100
AcDbEntity
  8
1
  6
CONTINUOUS
 62
   253
100
AcDbCircle
 10
161.247306
 20
455.163694
 30
0.0
 40
4.999999999999999
100
AcDbArc
 50
74.180963
 51
358.339748
  0
ARC
  5
246
330
1F
100
AcDbEntity
  8
1
  6
CONTINUOUS
 62
   253
100
AcDbCircle
 10
303.712725
 20
390.16124
 30
0.0
 40
2.0
100
AcDbArc
 50
4.436445
 51
58.339748
  0
ARC
  5
247
330
1F
100
AcDbEntity
  8
1
  6
CONTINUOUS
 62
   253
100
AcDbCircle
 10
217.2725
 20
383.454716
 30
0.0
 40
88.69999999999999
100
AcDbArc
 50
0.0
 51
4.436445
  0
ARC
  5
248
330
1F
100
AcDbEntity
  8
1
  6
CONTINUOUS
 62
   253
100
AcDbCircle
 10
217.2725
 20
383.454716
 30
0.0
 40
93.3
100
AcDbArc
 50
0.0
 51
4.601085
  0
ARC
  5
249
330
1F
100
AcDbEntity
  8
1
  6
CONTINUOUS
 62
   253
100
AcDbCircle
 10
312.265382
 20
391.099472
 30
0.0
 40
2.0
100
AcDbArc
 50
134.180963
 51
184.601085
  0
ARC
  5
24A
330
1F
100
AcDbEntity
  8
1
  6
CONTINUOUS
 62
   253
100
AcDbCircle
 10
307.386894
 20
396.119468
 30
0.0
 40
5.000000000000001
100
AcDbArc
 50
314.180963
 51
238.339748
  0
ARC
  5
24B
330
1F
100
AcDbEntity
  8
1
  6
CONTINUOUS
 62
   253
100
AcDbCircle
 10
179.860408
 20
305.242023
 30
0.0
 40
2.0
100
AcDbArc
 50
244.436445
 51
298.339748
  0
ARC
  5
24C
330
1F
100
AcDbEntity
  8
1
  6
CONTINUOUS
 62
   253
100
AcDbCircle
 10
217.2725
 20
383.454716
 30
0.0
 40
88.69999999999999
100
AcDbArc
 50
240.0
 51
244.436445
  0
ARC
  5
24D
330
1F
100
AcDbEntity
  8
1
  6
CONTINUOUS
 62
   253
100
AcDbCircle
 10
217.2725
 20
383.454716
 30
0.0
 40
93.29999999999998
100
AcDbArc
 50
240.0
 51
244.601085
  0
ARC
  5
24E
330
1F
100
AcDbEntity
  8
1
  6
CONTINUOUS
 62
   253
100
AcDbCircle
 10
176.396613
 20
297.366088
 30
0.0
 40
2.0
100
AcDbArc
 50
14.180963
 51
64.601085
  0
ARC
  5
24F
330
1F
100
AcDbEntity
  8
1
  6
CONTINUOUS
 62
   253
100
AcDbCircle
 10
183.1833
 20
299.080985
 30
0.0
 40
5.000000000000001
100
AcDbArc
 50
194.180963
 51
118.339748
  0
CIRCLE
  5
250
330
1F
100
AcDbEntity
  8
1
  6
CONTINUOUS
 62
   253
100
AcDbCircle
 10
126.9508
 20
372.364605
 30
0.0
 40
5.09373457240566
  0
CIRCLE
  5
251
330
1F
100
AcDbEntity
  8
1
  6
CONTINUOUS
 62
   253
100
AcDbCircle
 10
252.829033
 20
467.220657
 30
0.0
 40
5.09373457240566
  0
ARC
  5
252
330
1F
100
AcDbEntity
  8
1
  6
CONTINUOUS
 62
   253
100
AcDbCircle
 10
217.2725
 20
383.454716
 30
0.0
 40
93.3
100
AcDbArc
 50
120.0
 51
124.601085
  0
ARC
  5
253
330
1F
100
AcDbEntity
  8
1
  6
CONTINUOUS
 62
   253
100
AcDbCircle
 10
217.2725
 20
383.454716
 30
0.0
 40
75.0
100
AcDbArc
 50
49.471221
 51
96.8928
  0
ARC
  5
254
330
1F
100
AcDbEntity
  8
1
  6
CONTINUOUS
 62
   253
100
AcDbCircle
 10
154.891212
 20
336.629777
 30
0.0
 40
3.0
100
AcDbArc
 50
315.0
 51
36.8928
  0
ARC
  5
255
330
1F
100
AcDbEntity
  8
1
  6
CONTINUOUS
 62
   253
100
AcDbCircle
 10
207.911558
 20
460.890965
 30
0.0
 40
3.0
100
AcDbArc
 50
195.0
 51
276.8928
  0
ARC
  5
256
330
1F
100
AcDbEntity
  8
1
  6
CONTINUOUS
 62
   253
100
AcDbCircle
 10
186.661189
 20
455.196946
 30
0.0
 40
3.0
100
AcDbArc
 50
293.1072
 51
15.0
  0
ARC
  5
257
330
1F
100
AcDbEntity
  8
1
  6
CONTINUOUS
 62
   253
100
AcDbCircle
 10
289.014731
 20
352.843405
 30
0.0
 40
3.0
100
AcDbArc
 50
75.0
 51
156.8928
  0
ARC
  5
258
330
1F
100
AcDbEntity
  8
1
  6
CONTINUOUS
 62
   253
100
AcDbCircle
 10
294.70875
 20
374.093773
 30
0.0
 40
3.0
100
AcDbArc
 50
173.1072
 51
255.0
  0
ARC
  5
259
330
1F
100
AcDbEntity
  8
1
  6
CONTINUOUS
 62
   253
100
AcDbCircle
 10
257.569306
 20
294.671736
 30
0.0
 40
1.0
100
AcDbArc
 50
294.412341
 51
25.0
  0
ARC
  5
25A
330
1F
100
AcDbEntity
  8
1
  6
CONTINUOUS
 62
   253
100
AcDbCircle
 10
273.822482
 20
441.507275
 30
0.0
 40
1.0
100
AcDbArc
 50
30.0
 51
120.0
  0
ARC
  5
25B
330
1F
100
AcDbEntity
  8
1
  6
CONTINUOUS
 62
   253
100
AcDbCircle
 10
195.2725
 20
305.454716
 30
0.0
 40
1.0
100
AcDbArc
 50
180.0
 51
270.0
  0
ARC
  5
25C
330
1F
100
AcDbEntity
  8
1
  6
CONTINUOUS
 62
   253
100
AcDbCircle
 10
229.2725
 20
300.454716
 30
0.0
 40
1.0
100
AcDbArc
 50
360.0
 51
90.0
  0
ARC
  5
25D
330
1F
100
AcDbEntity
  8
1
  6
CONTINUOUS
 62
   253
100
AcDbCircle
 10
217.2725
 20
383.454716
 30
0.0
 40
98.5
100
AcDbArc
 50
278.94234
 51
294.412341
  0
ARC
  5
25E
330
1F
100
AcDbEntity
  8
1
  6
CONTINUOUS
 62
   253
100
AcDbCircle
 10
228.2725
 20
300.454716
 30
0.0
 40
1.0
100
AcDbArc
 50
90.0
 51
180.0
  0
ARC
  5
25F
330
1F
100
AcDbEntity
  8
1
  6
CONTINUOUS
 62
   253
100
AcDbCircle
 10
187.217305
 20
468.576307
 30
0.0
 40
1.0
100
AcDbArc
 50
105.0
 51
195.0
  0
CIRCLE
  5
260
330
1F
100
AcDbEntity
  8
1
  6
CONTINUOUS
 62
   253
100
AcDbCircle
 10
252.829033
 20
467.220657
 30
0.0
 40
3.190937658735007
  0
CIRCLE
  5
261
330
1F
100
AcDbEntity
  8
1
  6
CONTINUOUS
 62
   253
100
AcDbCircle
 10
126.9508
 20
372.364605
 30
0.0
 40
3.190937658735011
  0
CIRCLE
  5
262
330
1F
100
AcDbEntity
  8
1
  6
CONTINUOUS
 62
   253
100
AcDbCircle
 10
252.829033
 20
467.220657
 30
0.0
 40
2.737890774527712
  0
CIRCLE
  5
263
330
1F
100
AcDbEntity
  8
1
  6
CONTINUOUS
 62
   253
100
AcDbCircle
 10
126.9508
 20
372.364605
 30
0.0
 40
2.737890774527712
  0
CIRCLE
  5
264
330
1F
100
AcDbEntity
  8
1
  6
CONTINUOUS
 62
   253
100
AcDbCircle
 10
217.2725
 20
474.454716
 30
0.0
 40
3.332180073764544
  0
CIRCLE
  5
265
330
1F
100
AcDbEntity
  8
1
  6
CONTINUOUS
 62
   253
100
AcDbCircle
 10
217.2725
 20
474.454716
 30
0.0
 40
0.7835000000000037
  0
ARC
  5
266
330
1F
100
AcDbEntity
  8
1
  6
CONTINUOUS
 62
   253
100
AcDbCircle
 10
209.2725
 20
295.57362
 30
0.0
 40
2.0
100
AcDbArc
 50
180.0
 51
196.394299
  0
ARC
  5
267
330
1F
100
AcDbEntity
  8
1
  6
CONTINUOUS
 62
   253
100
AcDbCircle
 10
297.379762
 20
420.46706
 30
0.0
 40
2.0
100
AcDbArc
 50
300.0
 51
316.394299
  0
ARC
  5
268
330
1F
100
AcDbEntity
  8
1
  6
CONTINUOUS
 62
   253
100
AcDbCircle
 10
145.165238
 20
434.323467
 30
0.0
 40
2.0
100
AcDbArc
 50
60.0
 51
76.394299
  0
CIRCLE
  5
269
330
1F
100
AcDbEntity
  8
1
  6
CONTINUOUS
 62
   151
100
AcDbCircle
 10
232.2725
 20
335.454716
 30
0.0
 40
1.700000000000003
  0
ARC
  5
26A
330
1F
100
AcDbEntity
  8
1
  6
CONTINUOUS
 62
   151
100
AcDbCircle
 10
159.2725
 20
404.454716
 30
0.0
 40
1.0
100
AcDbArc
 50
90.0
 51
180.0
  0
ARC
  5
26B
330
1F
100
AcDbEntity
  8
1
  6
CONTINUOUS
 62
   151
100
AcDbCircle
 10
159.2725
 20
401.454716
 30
0.0
 40
1.0
100
AcDbArc
 50
180.0
 51
270.0
  0
ARC
  5
26C
330
1F
100
AcDbEntity
  8
1
  6
CONTINUOUS
 62
   151
100
AcDbCircle
 10
165.2725
 20
401.454716
 30
0.0
 40
1.0
100
AcDbArc
 50
270.0
 51
0.0
  0
ARC
  5
26D
330
1F
100
AcDbEntity
  8
1
  6
CONTINUOUS
 62
   151
100
AcDbCircle
 10
165.2725
 20
404.454716
 30
0.0
 40
1.0
100
AcDbArc
 50
0.0
 51
90.0
  0
ARC
  5
26E
330
1F
100
AcDbEntity
  8
1
  6
CONTINUOUS
 62
   151
100
AcDbCircle
 10
167.2725
 20
435.41624
 30
0.0
 40
5.0
100
AcDbArc
 50
0.0
 51
60.0
  0
ARC
  5
26F
330
1F
100
AcDbEntity
  8
1
  6
CONTINUOUS
 62
   151
100
AcDbCircle
 10
177.2725
 20
417.454716
 30
0.0
 40
5.0
100
AcDbArc
 50
180.0
 51
270.0
  0
ARC
  5
270
330
1F
100
AcDbEntity
  8
1
  6
CONTINUOUS
 62
   151
100
AcDbCircle
 10
257.2725
 20
417.454716
 30
0.0
 40
5.0
100
AcDbArc
 50
270.0
 51
0.0
  0
ARC
  5
271
330
1F
100
AcDbEntity
  8
1
  6
CONTINUOUS
 62
   151
100
AcDbCircle
 10
267.2725
 20
435.41624
 30
0.0
 40
5.0
100
AcDbArc
 50
120.0
 51
180.0
  0
ARC
  5
272
330
1F
100
AcDbEntity
  8
1
  6
CONTINUOUS
 62
   151
100
AcDbCircle
 10
291.801905
 20
391.843271
 30
0.0
 40
5.0
100
AcDbArc
 50
120.0
 51
186.421822
  0
ARC
  5
273
330
1F
100
AcDbEntity
  8
1
  6
CONTINUOUS
 62
   151
100
AcDbCircle
 10
217.2725
 20
383.454716
 30
0.0
 40
70.0
100
AcDbArc
 50
293.578178
 51
6.421822
  0
ARC
  5
274
330
1F
100
AcDbEntity
  8
1
  6
CONTINUOUS
 62
   151
100
AcDbCircle
 10
247.2725
 20
314.71608
 30
0.0
 40
5.0
100
AcDbArc
 50
113.578178
 51
180.0
  0
ARC
  5
275
330
1F
100
AcDbEntity
  8
1
  6
CONTINUOUS
 62
   151
100
AcDbCircle
 10
187.2725
 20
314.71608
 30
0.0
 40
5.0
100
AcDbArc
 50
0.0
 51
66.421822
  0
ARC
  5
276
330
1F
100
AcDbEntity
  8
1
  6
CONTINUOUS
 62
   151
100
AcDbCircle
 10
142.743096
 20
391.843271
 30
0.0
 40
5.0
100
AcDbArc
 50
353.578178
 51
60.0
  0
ARC
  5
277
330
1F
100
AcDbEntity
  8
1
  6
CONTINUOUS
 62
   151
100
AcDbCircle
 10
212.2725
 20
331.454716
 30
0.0
 40
3.0
100
AcDbArc
 50
180.0
 51
270.0
  0
ARC
  5
278
330
1F
100
AcDbEntity
  8
1
  6
CONTINUOUS
 62
   151
100
AcDbCircle
 10
222.2725
 20
331.454716
 30
0.0
 40
3.0
100
AcDbArc
 50
270.0
 51
0.0
  0
ARC
  5
279
330
1F
100
AcDbEntity
  8
1
  6
CONTINUOUS
 62
   151
100
AcDbCircle
 10
228.2725
 20
337.24595
 30
0.0
 40
3.0
100
AcDbArc
 50
103.390049
 51
180.0
  0
ARC
  5
27A
330
1F
100
AcDbEntity
  8
1
  6
CONTINUOUS
 62
   151
100
AcDbCircle
 10
217.2725
 20
383.454716
 30
0.0
 40
44.5
100
AcDbArc
 50
283.390049
 51
24.690821
  0
ARC
  5
27B
330
1F
100
AcDbEntity
  8
1
  6
CONTINUOUS
 62
   151
100
AcDbCircle
 10
253.161217
 20
399.954716
 30
0.0
 40
4.999999999999996
100
AcDbArc
 50
24.690821
 51
90.0
  0
ARC
  5
27C
330
1F
100
AcDbEntity
  8
1
  6
CONTINUOUS
 62
   151
100
AcDbCircle
 10
181.383783
 20
399.954716
 30
0.0
 40
5.0
100
AcDbArc
 50
90.0
 51
155.309179
  0
ARC
  5
27D
330
1F
100
AcDbEntity
  8
1
  6
CONTINUOUS
 62
   151
100
AcDbCircle
 10
217.2725
 20
383.454716
 30
0.0
 40
44.5
100
AcDbArc
 50
155.309179
 51
256.609951
  0
ARC
  5
27E
330
1F
100
AcDbEntity
  8
1
  6
CONTINUOUS
 62
   151
100
AcDbCircle
 10
206.2725
 20
337.24595
 30
0.0
 40
3.0
100
AcDbArc
 50
0.0
 51
76.609951
  0
CIRCLE
  5
27F
330
1F
100
AcDbEntity
  8
1
  6
CONTINUOUS
 62
   151
100
AcDbCircle
 10
202.2725
 20
335.454716
 30
0.0
 40
1.700000000000003
  0
ARC
  5
280
330
1F
100
AcDbEntity
  8
1
  6
CONTINUOUS
 62
   151
100
AcDbCircle
 10
275.2725
 20
401.454716
 30
0.0
 40
1.0
100
AcDbArc
 50
270.0
 51
0.0
  0
ARC
  5
281
330
1F
100
AcDbEntity
  8
1
  6
CONTINUOUS
 62
   151
100
AcDbCircle
 10
275.2725
 20
404.454716
 30
0.0
 40
1.0
100
AcDbArc
 50
0.0
 51
90.0
  0
ARC
  5
282
330
1F
100
AcDbEntity
  8
1
  6
CONTINUOUS
 62
   151
100
AcDbCircle
 10
269.2725
 20
404.454716
 30
0.0
 40
1.0
100
AcDbArc
 50
90.0
 51
180.0
  0
ARC
  5
283
330
1F
100
AcDbEntity
  8
1
  6
CONTINUOUS
 62
   151
100
AcDbCircle
 10
269.2725
 20
401.454716
 30
0.0
 40
1.0
100
AcDbArc
 50
180.0
 51
270.0
  0
CIRCLE
  5
284
330
1F
100
AcDbEntity
  8
1
  6
CONTINUOUS
 62
   253
100
AcDbCircle
 10
217.2725
 20
181.391829
 30
0.0
 40
1.2295
  0
ARC
  5
285
330
1F
100
AcDbEntity
  8
1
  6
CONTINUOUS
 62
     7
100
AcDbCircle
 10
217.2725
 20
96.391829
 30
0.0
 40
61.2
100
AcDbArc
 50
181.5
 51
358.5
  0
ARC
  5
286
330
1F
100
AcDbEntity
  8
1
  6
CONTINUOUS
 62
   151
100
AcDbCircle
 10
204.7725
 20
181.391829
 30
0.0
 40
1.5
100
AcDbArc
 50
270.0
 51
90.0
  0
ARC
  5
287
330
1F
100
AcDbEntity
  8
1
  6
CONTINUOUS
 62
   151
100
AcDbCircle
 10
195.2725
 20
178.441829
 30
0.0
 40
3.0
100
AcDbArc
 50
180.0
 51
270.0
  0
ARC
  5
288
330
1F
100
AcDbEntity
  8
1
  6
CONTINUOUS
 62
   151
100
AcDbCircle
 10
229.7725
 20
181.391829
 30
0.0
 40
1.5
100
AcDbArc
 50
90.0
 51
270.0
  0
ARC
  5
289
330
1F
100
AcDbEntity
  8
1
  6
CONTINUOUS
 62
   151
100
AcDbCircle
 10
230.7725
 20
181.391829
 30
0.0
 40
1.5
100
AcDbArc
 50
270.0
 51
90.0
  0
ARC
  5
28A
330
1F
100
AcDbEntity
  8
1
  6
CONTINUOUS
 62
   151
100
AcDbCircle
 10
239.2725
 20
178.441829
 30
0.0
 40
3.0
100
AcDbArc
 50
270.0
 51
0.0
  0
ARC
  5
28B
330
1F
100
AcDbEntity
  8
1
  6
CONTINUOUS
 62
   151
100
AcDbCircle
 10
203.7725
 20
181.391829
 30
0.0
 40
1.5
100
AcDbArc
 50
90.0
 51
270.0
  0
CIRCLE
  5
28C
330
1F
100
AcDbEntity
  8
1
  6
CONTINUOUS
 62
   151
100
AcDbCircle
 10
217.2725
 20
181.391829
 30
0.0
 40
1.7
  0
ARC
  5
28D
330
1F
100
AcDbEntity
  8
1
  6
CONTINUOUS
 62
   254
100
AcDbCircle
 10
119.404472
 20
122.682459
 30
0.0
 40
4.0
100
AcDbArc
 50
182.0
 51
251.060754
  0
ARC
  5
28E
330
1F
100
AcDbEntity
  8
1
  6
CONTINUOUS
 62
   254
100
AcDbCircle
 10
315.140528
 20
122.682459
 30
0.0
 40
4.0
100
AcDbArc
 50
288.939246
 51
358.0
  0
ARC
  5
28F
330
1F
100
AcDbEntity
  8
1
  6
CONTINUOUS
 62
   254
100
AcDbCircle
 10
347.2725
 20
29.041996
 30
0.0
 40
95.0
100
AcDbArc
 50
108.939246
 51
134.433722
  0
ARC
  5
290
330
1F
100
AcDbEntity
  8
1
  6
CONTINUOUS
 62
   254
100
AcDbCircle
 10
87.2725
 20
29.041996
 30
0.0
 40
95.0
100
AcDbArc
 50
45.566278
 51
71.060754
  0
ARC
  5
291
330
1F
100
AcDbEntity
  8
1
  6
CONTINUOUS
 62
   254
100
AcDbCircle
 10
154.480538
 20
97.591829
 30
0.0
 40
1.0
100
AcDbArc
 50
225.566278
 51
270.0
  0
ARC
  5
292
330
1F
100
AcDbEntity
  8
1
  6
CONTINUOUS
 62
   254
100
AcDbCircle
 10
280.064462
 20
97.591829
 30
0.0
 40
1.0
100
AcDbArc
 50
270.0
 51
314.433722
  0
ARC
  5
293
330
1F
100
AcDbEntity
  8
1
  6
CONTINUOUS
 62
   253
100
AcDbCircle
 10
200.2725
 20
164.391829
 30
0.0
 40
1.0
100
AcDbArc
 50
270.0
 51
90.0
  0
ARC
  5
294
330
1F
100
AcDbEntity
  8
1
  6
CONTINUOUS
 62
   253
100
AcDbCircle
 10
200.2725
 20
174.391829
 30
0.0
 40
1.0
100
AcDbArc
 50
270.0
 51
90.0
  0
ARC
  5
295
330
1F
100
AcDbEntity
  8
1
  6
CONTINUOUS
 62
   253
100
AcDbCircle
 10
198.2725
 20
176.391829
 30
0.0
 40
1.0
100
AcDbArc
 50
251.804522
 51
270.0
  0
ARC
  5
296
330
1F
100
AcDbEntity
  8
1
  6
CONTINUOUS
 62
   253
100
AcDbCircle
 10
198.2725
 20
162.391829
 30
0.0
 40
1.0
100
AcDbArc
 50
90.0
 51
180.0
  0
CIRCLE
  5
297
330
1F
100
AcDbEntity
  8
1
  6
CONTINUOUS
 62
   253
100
AcDbCircle
 10
204.2725
 20
181.391829
 30
0.0
 40
1.5
  0
CIRCLE
  5
298
330
1F
100
AcDbEntity
  8
1
  6
CONTINUOUS
 62
   253
100
AcDbCircle
 10
230.2725
 20
181.391829
 30
0.0
 40
1.5
  0
CIRCLE
  5
299
330
1F
100
AcDbEntity
  8
1
  6
CONTINUOUS
 62
    81
100
AcDbCircle
 10
217.2725
 20
383.454716
 30
0.0
 40
0.5
  0
ELLIPSE
  5
29A
330
1F
100
AcDbEntity
  8
1
  6
CONTINUOUS
 62
   253
100
AcDbEllipse
 10
289.338765
 20
164.391829
 30
0.0
 11
6.123233995736766E-17
 21
1.0
 31
0.0
210
0.0
220
0.0
230
1.0
 40
0.5
 41
0.0
 42
3.141592653589793
  0
ELLIPSE
  5
29B
330
1F
100
AcDbEntity
  8
1
  6
CONTINUOUS
 62
   253
100
AcDbEllipse
 10
287.338765
 20
181.391829
 30
0.0
 11
-9.184850993605148E-17
 21
-1.5
 31
0.0
210
0.0
220
0.0
230
1.0
 40
0.5
 41
0.0
 42
6.283185307179586
  0
ELLIPSE
  5
29C
330
1F
100
AcDbEntity
  8
1
  6
CONTINUOUS
 62
   253
100
AcDbEllipse
 10
280.838765
 20
181.391829
 30
0.0
 11
-7.528516197758354E-17
 21
-1.2295
 31
0.0
210
0.0
220
0.0
230
1.0
 40
0.5
 41
0.0
 42
6.283185307179586
  0
ELLIPSE
  5
29D
330
1F
100
AcDbEntity
  8
1
  6
CONTINUOUS
 62
   253
100
AcDbEllipse
 10
291.724405
 20
176.391829
 30
0.0
 11
6.123233995736766E-17
 21
1.0
 31
0.0
210
0.0
220
0.0
230
1.0
 40
0.5
 41
3.141592653589793
 42
4.71238898038469
  0
ELLIPSE
  5
29E
330
1F
100
AcDbEntity
  8
1
  6
CONTINUOUS
 62
   253
100
AcDbEllipse
 10
272.338765
 20
183.391829
 30
0.0
 11
-1.836970198721030E-16
 21
-3.0
 31
0.0
210
0.0
220
0.0
230
1.0
 40
0.5
 41
3.141592653589793
 42
4.71238898038469
  0
ELLIPSE
  5
29F
330
1F
100
AcDbEntity
  8
1
  6
CONTINUOUS
 62
   151
100
AcDbEllipse
 10
139.9938
 20
208.641829
 30
0.0
 11
-1.102182119232618E-16
 21
-1.8
 31
0.0
210
0.0
220
0.0
230
1.0
 40
0.866025
 41
3.141592653589784
 42
4.71238898038469
  0
ELLIPSE
  5
2A0
330
1F
100
AcDbEntity
  8
1
  6
CONTINUOUS
 62
   253
100
AcDbEllipse
 10
290.724405
 20
183.391829
 30
0.0
 11
1.836970198721030E-16
 21
3.0
 31
0.0
210
0.0
220
0.0
230
1.0
 40
0.5
 41
4.71238898038469
 42
6.283185307179586
  0
ELLIPSE
  5
2A1
330
1F
100
AcDbEntity
  8
1
  6
CONTINUOUS
 62
   253
100
AcDbEllipse
 10
287.711266
 20
169.391829
 30
0.0
 11
7.528516197758364E-17
 21
1.229500000000002
 31
0.0
210
0.0
220
0.0
230
1.0
 40
0.866025
 41
2.396151497414372
 42
6.283185307179586
  0
ELLIPSE
  5
2A2
330
1F
100
AcDbEntity
  8
1
  6
CONTINUOUS
 62
   253
100
AcDbEllipse
 10
287.711266
 20
169.391829
 30
0.0
 11
7.528516197758364E-17
 21
1.229500000000002
 31
0.0
210
0.0
220
0.0
230
1.0
 40
0.866025
 41
0.0
 42
0.2994331101280202
  0
ELLIPSE
  5
2A3
330
1F
100
AcDbEntity
  8
1
  6
CONTINUOUS
 62
   253
100
AcDbEllipse
 10
290.724405
 20
164.391829
 30
0.0
 11
-6.123233995736766E-17
 21
-1.0
 31
0.0
210
0.0
220
0.0
230
1.0
 40
0.5
 41
3.141592653589793
 42
6.283185307179586
  0
ELLIPSE
  5
2A4
330
1F
100
AcDbEntity
  8
1
  6
CONTINUOUS
 62
   151
100
AcDbEllipse
 10
271.224405
 20
178.441829
 30
0.0
 11
-1.836970198721030E-16
 21
-3.0
 31
0.0
210
0.0
220
0.0
230
1.0
 40
0.5
 41
4.71238898038469
 42
6.023169298883118
  0
ELLIPSE
  5
2A5
330
1F
100
AcDbEntity
  8
1
  6
CONTINUOUS
 62
   253
100
AcDbEllipse
 10
145.206235
 20
183.391829
 30
0.0
 11
1.836970198721030E-16
 21
3.0
 31
0.0
210
0.0
220
0.0
230
1.0
 40
0.5
 41
0.0
 42
1.570796326794897
  0
ELLIPSE
  5
2A6
330
1F
100
AcDbEntity
  8
1
  6
CONTINUOUS
 62
   253
100
AcDbEllipse
 10
147.206235
 20
181.391829
 30
0.0
 11
9.184850993605148E-17
 21
1.5
 31
0.0
210
0.0
220
0.0
230
1.0
 40
0.5
 41
0.0
 42
6.283185307179586
  0
ELLIPSE
  5
2A7
330
1F
100
AcDbEntity
  8
1
  6
CONTINUOUS
 62
   253
100
AcDbEllipse
 10
143.820595
 20
183.391829
 30
0.0
 11
-1.836970198721030E-16
 21
-3.0
 31
0.0
210
0.0
220
0.0
230
1.0
 40
0.5
 41
3.141592653589793
 42
4.71238898038469
  0
ELLIPSE
  5
2A8
330
1F
100
AcDbEntity
  8
1
  6
CONTINUOUS
 62
   253
100
AcDbEllipse
 10
286.911266
 20
169.391829
 30
0.0
 11
-7.528516197758364E-17
 21
-1.229500000000002
 31
0.0
210
0.0
220
0.0
230
1.0
 40
0.866025
 41
0.3850416576171009
 42
1.57079661890423
  0
ELLIPSE
  5
2A9
330
1F
100
AcDbEntity
  8
1
  6
CONTINUOUS
 62
   253
100
AcDbEllipse
 10
286.911266
 20
169.391829
 30
0.0
 11
-7.528516197758364E-17
 21
-1.229500000000002
 31
0.0
210
0.0
220
0.0
230
1.0
 40
0.866025
 41
1.570796618904233
 42
2.714041457007231
  0
ELLIPSE
  5
2AA
330
1F
100
AcDbEntity
  8
1
  6
CONTINUOUS
 62
   253
100
AcDbEllipse
 10
291.724405
 20
162.391829
 30
0.0
 11
6.123233995736766E-17
 21
1.0
 31
0.0
210
0.0
220
0.0
230
1.0
 40
0.5
 41
4.71238898038469
 42
6.283185307179586
  0
ELLIPSE
  5
2AB
330
1F
100
AcDbEntity
  8
1
  6
CONTINUOUS
 62
   253
100
AcDbEllipse
 10
162.206235
 20
183.391829
 30
0.0
 11
1.836970198721030E-16
 21
3.0
 31
0.0
210
0.0
220
0.0
230
1.0
 40
0.5
 41
4.71238898038469
 42
6.283185307179586
  0
ELLIPSE
  5
2AC
330
1F
100
AcDbEntity
  8
1
  6
CONTINUOUS
 62
   253
100
AcDbEllipse
 10
289.338765
 20
183.391829
 30
0.0
 11
-1.836970198721030E-16
 21
-3.0
 31
0.0
210
0.0
220
0.0
230
1.0
 40
0.5
 41
1.570796326794897
 42
3.141592653589793
  0
ELLIPSE
  5
2AD
330
1F
100
AcDbEntity
  8
1
  6
CONTINUOUS
 62
   253
100
AcDbEllipse
 10
290.338765
 20
162.391829
 30
0.0
 11
-6.123233995736766E-17
 21
-1.0
 31
0.0
210
0.0
220
0.0
230
1.0
 40
0.5
 41
1.570796326794911
 42
3.141592653589793
  0
ELLIPSE
  5
2AE
330
1F
100
AcDbEntity
  8
1
  6
CONTINUOUS
 62
   151
100
AcDbEllipse
 10
269.5512
 20
208.641829
 30
0.0
 11
1.224646799147353E-17
 21
0.2
 31
0.0
210
0.0
220
0.0
230
1.0
 40
0.866025
 41
4.71238898038469
 42
6.283185307179586
  0
ELLIPSE
  5
2AF
330
1F
100
AcDbEntity
  8
1
  6
CONTINUOUS
 62
   151
100
AcDbEllipse
 10
294.610046
 20
178.441829
 30
0.0
 11
1.836970198721030E-16
 21
3.0
 31
0.0
210
0.0
220
0.0
230
1.0
 40
0.5
 41
3.141592653589793
 42
4.71238898038469
  0
ELLIPSE
  5
2B0
330
1F
100
AcDbEntity
  8
1
  6
CONTINUOUS
 62
   151
100
AcDbEllipse
 10
163.320595
 20
178.441829
 30
0.0
 11
1.836970198721030E-16
 21
3.0
 31
0.0
210
0.0
220
0.0
230
1.0
 40
0.5
 41
3.170725685782978
 42
4.71238898038469
  0
ELLIPSE
  5
2B1
330
1F
100
AcDbEntity
  8
1
  6
CONTINUOUS
 62
   151
100
AcDbEllipse
 10
293.224405
 20
178.441829
 30
0.0
 11
-1.836970198721030E-16
 21
-3.0
 31
0.0
210
0.0
220
0.0
230
1.0
 40
0.5
 41
0.0
 42
1.570796326794897
  0
ELLIPSE
  5
2B2
330
1F
100
AcDbEntity
  8
1
  6
CONTINUOUS
 62
   253
100
AcDbEllipse
 10
290.338765
 20
176.391829
 30
0.0
 11
-6.123233995736766E-17
 21
-1.0
 31
0.0
210
0.0
220
0.0
230
1.0
 40
0.5
 41
0.0
 42
1.570796326794897
  0
ELLIPSE
  5
2B3
330
1F
100
AcDbEntity
  8
1
  6
CONTINUOUS
 62
   151
100
AcDbEllipse
 10
139.934954
 20
178.441829
 30
0.0
 11
-1.836970198721030E-16
 21
-3.0
 31
0.0
210
0.0
220
0.0
230
1.0
 40
0.5
 41
4.71238898038469
 42
6.283185307179586
  0
ELLIPSE
  5
2B4
330
1F
100
AcDbEntity
  8
1
  6
CONTINUOUS
 62
   151
100
AcDbEllipse
 10
141.320595
 20
178.441829
 30
0.0
 11
1.836970198721030E-16
 21
3.0
 31
0.0
210
0.0
220
0.0
230
1.0
 40
0.5
 41
1.570796326794897
 42
3.141592653589793
  0
ELLIPSE
  5
2B5
330
1F
100
AcDbEntity
  8
1
  6
CONTINUOUS
 62
   151
100
AcDbEllipse
 10
164.9938
 20
208.641829
 30
0.0
 11
-1.224646799147353E-17
 21
-0.2
 31
0.0
210
0.0
220
0.0
230
1.0
 40
0.866025
 41
3.141592653589793
 42
4.71238898038469
  0
ELLIPSE
  5
2B6
330
1F
100
AcDbEntity
  8
1
  6
CONTINUOUS
 62
   151
100
AcDbEllipse
 10
294.5512
 20
208.641829
 30
0.0
 11
1.102182119232618E-16
 21
1.8
 31
0.0
210
0.0
220
0.0
230
1.0
 40
0.866025
 41
4.71238898038469
 42
6.283185307179586
  0
ELLIPSE
  5
2B7
330
1F
100
AcDbEntity
  8
1
  6
CONTINUOUS
 62
   151
100
AcDbEllipse
 10
294.5512
 20
208.641829
 30
0.0
 11
-1.224646799147353E-17
 21
-0.2
 31
0.0
210
0.0
220
0.0
230
1.0
 40
0.866025
 41
1.570796326794897
 42
3.141592653589793
  0
ELLIPSE
  5
2B8
330
1F
100
AcDbEntity
  8
1
  6
CONTINUOUS
 62
   151
100
AcDbEllipse
 10
139.9938
 20
208.641829
 30
0.0
 11
1.224646799147353E-17
 21
0.2
 31
0.0
210
0.0
220
0.0
230
1.0
 40
0.866025
 41
0.0
 42
1.570796326794897
  0
ELLIPSE
  5
2B9
330
1F
100
AcDbEntity
  8
1
  6
CONTINUOUS
 62
   253
100
AcDbEllipse
 10
292.39761
 20
126.591829
 30
0.0
 11
-1.224646799147353E-17
 21
-0.2
 31
0.0
210
0.0
220
0.0
230
1.0
 40
0.866025
 41
4.71238898038469
 42
6.283185307179751
  0
ELLIPSE
  5
2BA
330
1F
100
AcDbEntity
  8
1
  6
CONTINUOUS
 62
   253
100
AcDbEllipse
 10
146.513415
 20
181.391829
 30
0.0
 11
9.184850993605148E-17
 21
1.5
 31
0.0
210
0.0
220
0.0
230
1.0
 40
0.5
 41
4.71238900795313
 42
5.803012998380996
  0
ELLIPSE
  5
2BB
330
1F
100
AcDbEntity
  8
1
  6
CONTINUOUS
 62
   253
100
AcDbEllipse
 10
146.513415
 20
181.391829
 30
0.0
 11
9.184850993605148E-17
 21
1.5
 31
0.0
210
0.0
220
0.0
230
1.0
 40
0.5
 41
3.621765048493954
 42
4.712389007953131
  0
ELLIPSE
  5
2BC
330
1F
100
AcDbEntity
  8
1
  6
CONTINUOUS
 62
   253
100
AcDbEllipse
 10
153.706235
 20
181.391829
 30
0.0
 11
7.528516197758354E-17
 21
1.2295
 31
0.0
210
0.0
220
0.0
230
1.0
 40
0.5
 41
0.0
 42
6.283185307179586
  0
ELLIPSE
  5
2BD
330
1F
100
AcDbEntity
  8
1
  6
CONTINUOUS
 62
   253
100
AcDbEllipse
 10
288.031585
 20
181.391829
 30
0.0
 11
-9.184850993605148E-17
 21
-1.5
 31
0.0
210
0.0
220
0.0
230
1.0
 40
0.5
 41
3.621667180303221
 42
5.803110866578047
  0
ELLIPSE
  5
2BE
330
1F
100
AcDbEntity
  8
1
  6
CONTINUOUS
 62
   253
100
AcDbEllipse
 10
163.206235
 20
176.391829
 30
0.0
 11
6.123233995736766E-17
 21
1.0
 31
0.0
210
0.0
220
0.0
230
1.0
 40
0.5
 41
3.141592653589793
 42
4.71238898038469
  0
ELLIPSE
  5
2BF
330
1F
100
AcDbEntity
  8
1
  6
CONTINUOUS
 62
     9
100
AcDbEllipse
 10
139.588544
 20
166.391829
 30
0.0
 11
-6.123233995736766E-17
 21
-1.0
 31
0.0
210
0.0
220
0.0
230
1.0
 40
0.866025
 41
4.71238898038469
 42
6.283185307179586
  0
ELLIPSE
  5
2C0
330
1F
100
AcDbEntity
  8
1
  6
CONTINUOUS
 62
     9
100
AcDbEllipse
 10
139.588544
 20
174.391829
 30
0.0
 11
-6.123233995736766E-17
 21
-1.0
 31
0.0
210
0.0
220
0.0
230
1.0
 40
0.866025
 41
3.14159265358981
 42
4.71238898038469
  0
ELLIPSE
  5
2C1
330
1F
100
AcDbEntity
  8
1
  6
CONTINUOUS
 62
     9
100
AcDbEllipse
 10
294.956456
 20
174.391829
 30
0.0
 11
6.123233995736766E-17
 21
1.0
 31
0.0
210
0.0
220
0.0
230
1.0
 40
0.866025
 41
4.71238898038469
 42
6.283185307179586
  0
ELLIPSE
  5
2C2
330
1F
100
AcDbEntity
  8
1
  6
CONTINUOUS
 62
     9
100
AcDbEllipse
 10
294.956456
 20
166.391829
 30
0.0
 11
6.123233995736766E-17
 21
1.0
 31
0.0
210
0.0
220
0.0
230
1.0
 40
0.866025
 41
3.141592653589793
 42
4.71238898038469
  0
ELLIPSE
  5
2C3
330
1F
100
AcDbEntity
  8
1
  6
CONTINUOUS
 62
     9
100
AcDbEllipse
 10
290.799534
 20
166.391829
 30
0.0
 11
6.123233995736766E-17
 21
1.0
 31
0.0
210
0.0
220
0.0
230
1.0
 40
0.866025
 41
1.570796326794897
 42
3.141592653589793
  0
ELLIPSE
  5
2C4
330
1F
100
AcDbEntity
  8
1
  6
CONTINUOUS
 62
     9
100
AcDbEllipse
 10
288.461266
 20
169.391829
 30
0.0
 11
-1.040949779275252E-16
 21
-1.700000000000003
 31
0.0
210
0.0
220
0.0
230
1.0
 40
0.866025
 41
1.570796326794905
 42
4.712388980384681
  0
ELLIPSE
  5
2C5
330
1F
100
AcDbEntity
  8
1
  6
CONTINUOUS
 62
     9
100
AcDbEllipse
 10
286.122997
 20
166.391829
 30
0.0
 11
6.123233995736766E-17
 21
1.0
 31
0.0
210
0.0
220
0.0
230
1.0
 40
0.866025
 41
3.141592653589793
 42
4.71238898038469
  0
ELLIPSE
  5
2C6
330
1F
100
AcDbEntity
  8
1
  6
CONTINUOUS
 62
     9
100
AcDbEllipse
 10
287.711266
 20
169.391829
 30
0.0
 11
-1.040949779275252E-16
 21
-1.700000000000003
 31
0.0
210
0.0
220
0.0
230
1.0
 40
0.866025
 41
1.570796326794905
 42
2.884080223639945
  0
ELLIPSE
  5
2C7
330
1F
100
AcDbEntity
  8
1
  6
CONTINUOUS
 62
     9
100
AcDbEllipse
 10
290.049534
 20
166.391829
 30
0.0
 11
-6.123233995736766E-17
 21
-1.0
 31
0.0
210
0.0
220
0.0
230
1.0
 40
0.866025
 41
4.71238898038469
 42
6.283185307179586
  0
ELLIPSE
  5
2C8
330
1F
100
AcDbEntity
  8
1
  6
CONTINUOUS
 62
   253
100
AcDbEllipse
 10
286.412228
 20
167.391829
 30
0.0
 11
1.224646799147353E-16
 21
2.0
 31
0.0
210
0.0
220
0.0
230
1.0
 40
0.866025
 41
3.043565174166937
 42
3.141592653589793
  0
ELLIPSE
  5
2C9
330
1F
100
AcDbEntity
  8
1
  6
CONTINUOUS
 62
   253
100
AcDbEllipse
 10
292.39761
 20
126.591829
 30
0.0
 11
1.102182119232618E-16
 21
1.800000000000001
 31
0.0
210
0.0
220
0.0
230
1.0
 40
0.866025
 41
1.570796326794889
 42
1.68215096569073
  0
ELLIPSE
  5
2CA
330
1F
100
AcDbEntity
  8
1
  6
CONTINUOUS
 62
   253
100
AcDbEllipse
 10
142.14739
 20
126.591829
 30
0.0
 11
1.224646799147353E-17
 21
0.2
 31
0.0
210
0.0
220
0.0
230
1.0
 40
0.866025
 41
3.141592653589711
 42
4.71238898038469
  0
ELLIPSE
  5
2CB
330
1F
100
AcDbEntity
  8
1
  6
CONTINUOUS
 62
   253
100
AcDbEllipse
 10
142.14739
 20
126.591829
 30
0.0
 11
-1.102182119232618E-16
 21
-1.800000000000001
 31
0.0
210
0.0
220
0.0
230
1.0
 40
0.866025
 41
1.459441687899063
 42
1.570796326794905
  0
ELLIPSE
  5
2CC
330
1F
100
AcDbEntity
  8
1
  6
CONTINUOUS
 62
   252
100
AcDbEllipse
 10
685.670029
 20
432.144193
 30
0.0
 11
3.625
 21
0.0
 31
0.0
210
0.0
220
0.0
230
1.0
 40
0.658298
 41
0.0
 42
6.283185307179586
  0
ELLIPSE
  5
2CD
330
1F
100
AcDbEntity
  8
1
  6
CONTINUOUS
 62
   252
100
AcDbEllipse
 10
685.670029
 20
372.239057
 30
0.0
 11
3.625
 21
0.0
 31
0.0
210
0.0
220
0.0
230
1.0
 40
0.658298
 41
2.975317248766975
 42
6.283185307179586
  0
ELLIPSE
  5
2CE
330
1F
100
AcDbEntity
  8
1
  6
CONTINUOUS
 62
   252
100
AcDbEllipse
 10
685.670029
 20
372.239057
 30
0.0
 11
3.625
 21
0.0
 31
0.0
210
0.0
220
0.0
230
1.0
 40
0.658298
 41
0.0
 42
0.1663408519304805
  0
ELLIPSE
  5
2CF
330
1F
100
AcDbEntity
  8
1
  6
CONTINUOUS
 62
   252
100
AcDbEllipse
 10
676.99502
 20
367.748284
 30
0.0
 11
4.999999999999992
 21
0.0
 31
0.0
210
0.0
220
0.0
230
1.0
 40
0.658298
 41
2.500634953872731
 42
4.01425727958696
  0
ELLIPSE
  5
2D0
330
1F
100
AcDbEntity
  8
1
  6
CONTINUOUS
 62
   252
100
AcDbEllipse
 10
606.861718
 20
402.191625
 30
0.0
 11
-82.50000000000001
 21
5.051668046482833E-15
 31
0.0
210
0.0
220
0.0
230
1.0
 40
0.658298
 41
2.500634953872723
 42
2.719899100766335
  0
ELLIPSE
  5
2D1
330
1F
100
AcDbEntity
  8
1
  6
CONTINUOUS
 62
   252
100
AcDbEllipse
 10
606.861718
 20
402.191625
 30
0.0
 11
-82.50000000000001
 21
5.051668046482833E-15
 31
0.0
210
0.0
220
0.0
230
1.0
 40
0.658298
 41
2.74246238440915
 42
4.829747904503459
  0
ELLIPSE
  5
2D2
330
1F
100
AcDbEntity
  8
1
  6
CONTINUOUS
 62
   252
100
AcDbEllipse
 10
595.138157
 20
464.915244
 30
0.0
 11
5.000000000000013
 21
0.0
 31
0.0
210
0.0
220
0.0
230
1.0
 40
0.658298
 41
1.69322234235599
 42
3.316125578789226
  0
ELLIPSE
  5
2D3
330
1F
100
AcDbEntity
  8
1
  6
CONTINUOUS
 62
   252
100
AcDbEllipse
 10
676.99502
 20
366.844975
 30
0.0
 11
4.999999999999992
 21
0.0
 31
0.0
210
0.0
220
0.0
230
1.0
 40
0.658298
 41
3.141606568535221
 42
4.01425727958696
  0
ELLIPSE
  5
2D4
330
1F
100
AcDbEntity
  8
1
  6
CONTINUOUS
 62
   252
100
AcDbEllipse
 10
685.670029
 20
431.240885
 30
0.0
 11
3.625
 21
0.0
 31
0.0
210
0.0
220
0.0
230
1.0
 40
0.658298
 41
0.1904919510682655
 42
0.5235989259405746
  0
ELLIPSE
  5
2D5
330
1F
100
AcDbEntity
  8
1
  6
CONTINUOUS
 62
   252
100
AcDbEllipse
 10
685.670029
 20
431.240885
 30
0.0
 11
3.625
 21
0.0
 31
0.0
210
0.0
220
0.0
230
1.0
 40
0.658298
 41
0.5235989259405763
 42
2.951166583825024
  0
ELLIPSE
  5
2D6
330
1F
100
AcDbEntity
  8
1
  6
CONTINUOUS
 62
   252
100
AcDbEllipse
 10
528.053406
 20
372.239057
 30
0.0
 11
3.625
 21
0.0
 31
0.0
210
0.0
220
0.0
230
1.0
 40
0.658298
 41
2.975317248766975
 42
3.665191233198408
  0
ELLIPSE
  5
2D7
330
1F
100
AcDbEntity
  8
1
  6
CONTINUOUS
 62
   252
100
AcDbEllipse
 10
528.053406
 20
372.239057
 30
0.0
 11
3.625
 21
0.0
 31
0.0
210
0.0
220
0.0
230
1.0
 40
0.658298
 41
3.665191596989039
 42
6.283185307179586
  0
ELLIPSE
  5
2D8
330
1F
100
AcDbEntity
  8
1
  6
CONTINUOUS
 62
   252
100
AcDbEllipse
 10
528.053406
 20
372.239057
 30
0.0
 11
3.625
 21
0.0
 31
0.0
210
0.0
220
0.0
230
1.0
 40
0.658298
 41
0.0
 42
0.1663408519304805
  0
ELLIPSE
  5
2D9
330
1F
100
AcDbEntity
  8
1
  6
CONTINUOUS
 62
   252
100
AcDbEllipse
 10
528.053406
 20
432.144193
 30
0.0
 11
3.625
 21
0.0
 31
0.0
210
0.0
220
0.0
230
1.0
 40
0.658298
 41
0.0
 42
6.283185307179586
  0
ELLIPSE
  5
2DA
330
1F
100
AcDbEntity
  8
1
  6
CONTINUOUS
 62
   252
100
AcDbEllipse
 10
606.861718
 20
402.191625
 30
0.0
 11
-82.50000000000001
 21
5.051668046482833E-15
 31
0.0
210
0.0
220
0.0
230
1.0
 40
0.658298
 41
5.642227607462516
 42
6.682358497109728
  0
ELLIPSE
  5
2DB
330
1F
100
AcDbEntity
  8
1
  6
CONTINUOUS
 62
   252
100
AcDbEllipse
 10
606.861718
 20
402.191625
 30
0.0
 11
-82.50000000000001
 21
5.051668046482833E-15
 31
0.0
210
0.0
220
0.0
230
1.0
 40
0.658298
 41
0.4217364754316275
 42
1.688155250913666
  0
ELLIPSE
  5
2DC
330
1F
100
AcDbEntity
  8
1
  6
CONTINUOUS
 62
   252
100
AcDbEllipse
 10
617.107067
 20
344.986751
 30
0.0
 11
4.999999999999986
 21
0.0
 31
0.0
210
0.0
220
0.0
230
1.0
 40
0.658298
 41
0.1745329251994299
 42
1.688155250913667
  0
ELLIPSE
  5
2DD
330
1F
100
AcDbEntity
  8
1
  6
CONTINUOUS
 62
   252
100
AcDbEllipse
 10
528.053406
 20
431.240885
 30
0.0
 11
3.625
 21
0.0
 31
0.0
210
0.0
220
0.0
230
1.0
 40
0.658298
 41
0.1904919510682655
 42
2.951166583825023
  0
ELLIPSE
  5
2DE
330
1F
100
AcDbEntity
  8
1
  6
CONTINUOUS
 62
   251
100
AcDbEllipse
 10
685.670029
 20
372.088506
 30
0.0
 11
-3.575000000000009
 21
2.189056153475899E-16
 31
0.0
210
0.0
220
0.0
230
1.0
 40
0.658298
 41
0.0
 42
0.1893792425729529
  0
ELLIPSE
  5
2DF
330
1F
100
AcDbEntity
  8
1
  6
CONTINUOUS
 62
   251
100
AcDbEllipse
 10
685.670029
 20
372.088506
 30
0.0
 11
-3.575000000000009
 21
2.189056153475899E-16
 31
0.0
210
0.0
220
0.0
230
1.0
 40
0.658298
 41
2.952213543191875
 42
3.14159278879247
  0
ELLIPSE
  5
2E0
330
1F
100
AcDbEntity
  8
1
  6
CONTINUOUS
 62
   251
100
AcDbEllipse
 10
685.670029
 20
379.616078
 30
0.0
 11
-3.575000000000009
 21
2.189056153475899E-16
 31
0.0
210
0.0
220
0.0
230
1.0
 40
0.658298
 41
0.0
 42
6.283185307179586
  0
ELLIPSE
  5
2E1
330
1F
100
AcDbEntity
  8
1
  6
CONTINUOUS
 62
   251
100
AcDbEllipse
 10
685.670029
 20
379.616078
 30
0.0
 11
-1.620999999999997
 21
9.925762307089281E-17
 31
0.0
210
0.0
220
0.0
230
1.0
 40
0.658298
 41
0.0
 42
6.283185307179586
  0
ELLIPSE
  5
2E2
330
1F
100
AcDbEntity
  8
1
  6
CONTINUOUS
 62
   251
100
AcDbEllipse
 10
528.053406
 20
379.616078
 30
0.0
 11
-3.575000000000009
 21
2.189056153475899E-16
 31
0.0
210
0.0
220
0.0
230
1.0
 40
0.658298
 41
0.0
 42
6.283185307179586
  0
ELLIPSE
  5
2E3
330
1F
100
AcDbEntity
  8
1
  6
CONTINUOUS
 62
   251
100
AcDbEllipse
 10
528.053406
 20
379.616078
 30
0.0
 11
-1.620999999999997
 21
9.925762307089281E-17
 31
0.0
210
0.0
220
0.0
230
1.0
 40
0.658298
 41
0.0
 42
6.283185307179586
  0
ELLIPSE
  5
2E4
330
1F
100
AcDbEntity
  8
1
  6
CONTINUOUS
 62
   251
100
AcDbEllipse
 10
528.053406
 20
372.088506
 30
0.0
 11
-3.575000000000009
 21
2.189056153475899E-16
 31
0.0
210
0.0
220
0.0
230
1.0
 40
0.658298
 41
0.0
 42
0.1893464259294455
  0
ELLIPSE
  5
2E5
330
1F
100
AcDbEntity
  8
1
  6
CONTINUOUS
 62
   251
100
AcDbEllipse
 10
528.053406
 20
372.088506
 30
0.0
 11
-3.575000000000009
 21
2.189056153475899E-16
 31
0.0
210
0.0
220
0.0
230
1.0
 40
0.658298
 41
2.952180726796174
 42
3.141559645481792
  0
ELLIPSE
  5
2E6
330
1F
100
AcDbEntity
  8
1
  6
CONTINUOUS
 62
   251
100
AcDbEllipse
 10
606.861718
 20
469.473783
 30
0.0
 11
-3.575000000000009
 21
2.189056153475899E-16
 31
0.0
210
0.0
220
0.0
230
1.0
 40
0.658298
 41
0.0
 42
6.283185307179586
  0
ELLIPSE
  5
2E7
330
1F
100
AcDbEntity
  8
1
  6
CONTINUOUS
 62
   251
100
AcDbEllipse
 10
606.861718
 20
469.473783
 30
0.0
 11
-1.620999999999997
 21
9.925762307089281E-17
 31
0.0
210
0.0
220
0.0
230
1.0
 40
0.658298
 41
0.0
 42
6.283185307179586
  0
ELLIPSE
  5
2E8
330
1F
100
AcDbEntity
  8
1
  6
CONTINUOUS
 62
   252
100
AcDbEllipse
 10
606.861718
 20
462.096761
 30
0.0
 11
3.625
 21
0.0
 31
0.0
210
0.0
220
0.0
230
1.0
 40
0.658298
 41
2.975317248766975
 42
6.283185307179586
  0
ELLIPSE
  5
2E9
330
1F
100
AcDbEntity
  8
1
  6
CONTINUOUS
 62
   252
100
AcDbEllipse
 10
606.861718
 20
462.096761
 30
0.0
 11
3.625
 21
0.0
 31
0.0
210
0.0
220
0.0
230
1.0
 40
0.658298
 41
0.0
 42
0.1663408519304805
  0
ELLIPSE
  5
2EA
330
1F
100
AcDbEntity
  8
1
  6
CONTINUOUS
 62
   252
100
AcDbEllipse
 10
596.616368
 20
459.3965
 30
0.0
 11
4.999999999999986
 21
0.0
 31
0.0
210
0.0
220
0.0
230
1.0
 40
0.658298
 41
3.31612557878922
 42
4.829747904503461
  0
ELLIPSE
  5
2EB
330
1F
100
AcDbEntity
  8
1
  6
CONTINUOUS
 62
   252
100
AcDbEllipse
 10
606.861718
 20
401.288316
 30
0.0
 11
-82.50000000000001
 21
5.051668046482833E-15
 31
0.0
210
0.0
220
0.0
230
1.0
 40
0.658298
 41
3.14991157607195
 42
4.829747904503459
  0
ELLIPSE
  5
2EC
330
1F
100
AcDbEntity
  8
1
  6
CONTINUOUS
 62
   252
100
AcDbEllipse
 10
596.616368
 20
458.493191
 30
0.0
 11
4.999999999999986
 21
0.0
 31
0.0
210
0.0
220
0.0
230
1.0
 40
0.658298
 41
3.316125578789221
 42
4.82974790450346
  0
ELLIPSE
  5
2ED
330
1F
100
AcDbEntity
  8
1
  6
CONTINUOUS
 62
   252
100
AcDbEllipse
 10
595.138157
 20
464.011935
 30
0.0
 11
5.000000000000013
 21
0.0
 31
0.0
210
0.0
220
0.0
230
1.0
 40
0.658298
 41
3.141587448330445
 42
3.316125578789225
  0
ELLIPSE
  5
2EE
330
1F
100
AcDbEntity
  8
1
  6
CONTINUOUS
 62
   252
100
AcDbEllipse
 10
536.728415
 20
436.634967
 30
0.0
 11
4.999999999999992
 21
0.0
 31
0.0
210
0.0
220
0.0
230
1.0
 40
0.658298
 41
5.64222760746252
 42
7.155849933176751
  0
ELLIPSE
  5
2EF
330
1F
100
AcDbEntity
  8
1
  6
CONTINUOUS
 62
   252
100
AcDbEllipse
 10
606.861718
 20
401.288316
 30
0.0
 11
-82.50000000000001
 21
5.051668046482833E-15
 31
0.0
210
0.0
220
0.0
230
1.0
 40
0.658298
 41
5.642227607462516
 42
6.274872917757282
  0
ELLIPSE
  5
2F0
330
1F
100
AcDbEntity
  8
1
  6
CONTINUOUS
 62
   252
100
AcDbEllipse
 10
536.728415
 20
435.731658
 30
0.0
 11
4.999999999999992
 21
0.0
 31
0.0
210
0.0
220
0.0
230
1.0
 40
0.658298
 41
5.64222760746252
 42
6.283199478600428
  0
ELLIPSE
  5
2F1
330
1F
100
AcDbEntity
  8
1
  6
CONTINUOUS
 62
   251
100
AcDbEllipse
 10
606.861718
 20
461.94621
 30
0.0
 11
-3.575000000000009
 21
2.189056153475899E-16
 31
0.0
210
0.0
220
0.0
230
1.0
 40
0.658298
 41
2.952147910649331
 42
3.141526927085406
  0
ELLIPSE
  5
2F2
330
1F
100
AcDbEntity
  8
1
  6
CONTINUOUS
 62
   251
100
AcDbEllipse
 10
606.861718
 20
461.94621
 30
0.0
 11
-3.575000000000009
 21
2.189056153475899E-16
 31
0.0
210
0.0
220
0.0
230
1.0
 40
0.658298
 41
0.0
 42
0.1893136090371568
  0
ELLIPSE
  5
2F3
330
1F
100
AcDbEntity
  8
1
  6
CONTINUOUS
 62
   252
100
AcDbEllipse
 10
606.861718
 20
401.288316
 30
0.0
 11
101.0
 21
0.0
 31
0.0
210
0.0
220
0.0
230
1.0
 40
0.658298
 41
5.637160516020196
 42
6.28319478596997
  0
ELLIPSE
  5
2F4
330
1F
100
AcDbEntity
  8
1
  6
CONTINUOUS
 62
   252
100
AcDbEllipse
 10
606.861718
 20
402.191625
 30
0.0
 11
101.0
 21
0.0
 31
0.0
210
0.0
220
0.0
230
1.0
 40
0.658298
 41
1.606195042164501
 42
1.693222342355988
  0
ELLIPSE
  5
2F5
330
1F
100
AcDbEntity
  8
1
  6
CONTINUOUS
 62
   252
100
AcDbEllipse
 10
606.861718
 20
402.191625
 30
0.0
 11
101.0
 21
0.0
 31
0.0
210
0.0
220
0.0
230
1.0
 40
0.658298
 41
5.637160516020196
 42
7.818545016837843
  0
ELLIPSE
  5
2F6
330
1F
100
AcDbEntity
  8
1
  6
CONTINUOUS
 62
   252
100
AcDbEllipse
 10
606.861718
 20
402.191625
 30
0.0
 11
101.0
 21
0.0
 31
0.0
210
0.0
220
0.0
230
1.0
 40
0.658298
 41
2.495567862430403
 42
4.834814995945781
  0
ELLIPSE
  5
2F7
330
1F
100
AcDbEntity
  8
1
  6
CONTINUOUS
 62
   252
100
AcDbEllipse
 10
606.861718
 20
401.288316
 30
0.0
 11
101.0
 21
0.0
 31
0.0
210
0.0
220
0.0
230
1.0
 40
0.658298
 41
3.141602134574256
 42
4.834814995945781
  0
ELLIPSE
  5
2F8
330
1F
100
AcDbEntity
  8
1
  6
CONTINUOUS
 62
   252
100
AcDbEllipse
 10
618.585278
 20
339.468006
 30
0.0
 11
5.000000000000013
 21
0.0
 31
0.0
210
0.0
220
0.0
230
1.0
 40
0.658298
 41
4.834814995945782
 42
6.457718232379019
  0
ELLIPSE
  5
2F9
330
1F
100
AcDbEntity
  8
1
  6
CONTINUOUS
 62
   252
100
AcDbEllipse
 10
618.585278
 20
338.564697
 30
0.0
 11
5.000000000000013
 21
0.0
 31
0.0
210
0.0
220
0.0
230
1.0
 40
0.658298
 41
4.834814995945782
 42
6.283179965695462
  0
ELLIPSE
  5
2FA
330
1F
100
AcDbEntity
  8
1
  6
CONTINUOUS
 62
   252
100
AcDbEllipse
 10
606.861718
 20
342.286489
 30
0.0
 11
3.625
 21
0.0
 31
0.0
210
0.0
220
0.0
230
1.0
 40
0.658298
 41
0.0
 42
6.283185307179586
  0
ELLIPSE
  5
2FB
330
1F
100
AcDbEntity
  8
1
  6
CONTINUOUS
 62
   252
100
AcDbEllipse
 10
606.861718
 20
341.38318
 30
0.0
 11
3.625
 21
0.0
 31
0.0
210
0.0
220
0.0
230
1.0
 40
0.658298
 41
0.1904919510682655
 42
2.951166583825023
  0
SPLINE
  5
2FC
330
1F
100
AcDbEntity
  8
1
  6
CONTINUOUS
 62
    31
100
AcDbSpline
210
0.0
220
0.0
230
1.0
 70
     8
 71
     3
 72
    28
 73
    24
 74
     0
 42
0.000000001
 43
0.0000000001
 40
0.0
 40
0.0
 40
0.0
 40
0.0
 40
0.0624999999999725
 40
0.0624999999999725
 40
0.124999999999945
 40
0.124999999999945
 40
0.2499999999998888
 40
0.2499999999998888
 40
0.3124999999998593
 40
0.3124999999998593
 40
0.3749999999998299
 40
0.3749999999998299
 40
0.4999999999998381
 40
0.4999999999998381
 40
0.6249999999998465
 40
0.6249999999998465
 40
0.7499999999998547
 40
0.7499999999998547
 40
0.8124999999998883
 40
0.8124999999998883
 40
0.8749999999999218
 40
0.8749999999999218
 40
1.0
 40
1.0
 40
1.0
 40
1.0
 10
195.1186252454266
 20
455.2051194799538
 30
0.0
 10
195.1254297064087
 20
455.2140589811846
 30
0.0
 10
195.1319830842219
 20
455.2232980467822
 30
0.0
 10
195.1444219574749
 20
455.2421641534883
 30
0.0
 10
195.1502786726968
 20
455.2517421278678
 30
0.0
 10
195.1667916116042
 20
455.2808836550222
 30
0.0
 10
195.1763941369251
 20
455.3008536924035
 30
0.0
 10
195.1887415300354
 20
455.3315400450217
 30
0.0
 10
195.1925136804802
 20
455.3418910292943
 30
0.0
 10
195.1993690935919
 20
455.3628266184506
 30
0.0
 10
195.2024658804517
 20
455.3734667728966
 30
0.0
 10
195.2106074868151
 20
455.4053040778301
 30
0.0
 10
195.2144783209307
 20
455.42623316749
 30
0.0
 10
195.2195432486108
 20
455.4673146658511
 30
0.0
 10
195.2207349479046
 20
455.4874682484034
 30
0.0
 10
195.2207998786762
 20
455.5267916632563
 30
0.0
 10
195.2196761830576
 20
455.5453851694242
 30
0.0
 10
195.2167731817895
 20
455.5716463533606
 30
0.0
 10
195.2156012697909
 20
455.5801320939495
 30
0.0
 10
195.2129237868984
 20
455.5965676227439
 30
0.0
 10
195.2114141344506
 20
455.6045356206021
 30
0.0
 10
195.206519755515
 20
455.6274976208082
 30
0.0
 10
195.2027987331518
 20
455.6414561886754
 30
0.0
 10
195.1989204728847
 20
455.6541414064243
 30
0.0
  0
SPLINE
  5
2FD
330
1F
100
AcDbEntity
  8
1
  6
CONTINUOUS
 62
    31
100
AcDbSpline
210
0.0
220
0.0
230
1.0
 70
     8
 71
     3
 72
    28
 73
    24
 74
     0
 42
0.000000001
 43
0.0000000001
 40
0.0
 40
0.0
 40
0.0
 40
0.0
 40
0.0625000000000045
 40
0.0625000000000045
 40
0.125000000000009
 40
0.125000000000009
 40
0.2499999999999805
 40
0.2499999999999805
 40
0.3124999999999826
 40
0.3124999999999826
 40
0.3749999999999847
 40
0.3749999999999847
 40
0.4999999999999937
 40
0.4999999999999937
 40
0.6250000000000027
 40
0.6250000000000027
 40
0.7500000000000118
 40
0.7500000000000118
 40
0.8125000000000103
 40
0.8125000000000103
 40
0.8750000000000088
 40
0.8750000000000088
 40
1.0
 40
1.0
 40
1.0
 40
1.0
 10
166.2117650879546
 20
328.3936952825664
 30
0.0
 10
166.200620831389
 20
328.3951183923998
 30
0.0
 10
166.1893423752677
 20
328.3961742776676
 30
0.0
 10
166.1667849444883
 20
328.3975135535557
 30
0.0
 10
166.1555620209357
 20
328.397796626982
 30
0.0
 10
166.1220686693334
 20
328.3975265037312
 30
0.0
 10
166.0999728759485
 20
328.3958575618573
 30
0.0
 10
166.0672236838244
 20
328.3912075123999
 30
0.0
 10
166.0563732185992
 20
328.3892987722654
 30
0.0
 10
166.0348142832597
 20
328.38476782772
 30
0.0
 10
166.0240507440206
 20
328.3821294943147
 30
0.0
 10
165.9924088489975
 20
328.3732618594185
 30
0.0
 10
165.9723485377424
 20
328.3661496594436
 30
0.0
 10
165.9342384343887
 20
328.3499952633196
 30
0.0
 10
165.9161888221131
 20
328.3409504074059
 30
0.0
 10
165.8821004512436
 20
328.3213443895196
 30
0.0
 10
165.8665607170087
 20
328.3110750010803
 30
0.0
 10
165.8452693496316
 20
328.2954303100508
 30
0.0
 10
165.8385063997117
 20
328.290172499894
 30
0.0
 10
165.8256114302265
 20
328.2796358487556
 30
0.0
 10
165.8194656023921
 20
328.2743442944865
 30
0.0
 10
165.8020273114082
 20
328.2586247752814
 30
0.0
 10
165.7917995091502
 20
328.2484231346992
 30
0.0
 10
165.7827530790446
 20
328.2387220261164
 30
0.0
  0
SPLINE
  5
2FE
330
1F
100
AcDbEntity
  8
1
  6
CONTINUOUS
 62
    31
100
AcDbSpline
210
0.0
220
0.0
230
1.0
 70
     8
 71
     3
 72
    28
 73
    24
 74
     0
 42
0.000000001
 43
0.0000000001
 40
0.0
 40
0.0
 40
0.0
 40
0.0
 40
0.062500000000009
 40
0.062500000000009
 40
0.1250000000000179
 40
0.1250000000000179
 40
0.2500000000000525
 40
0.2500000000000525
 40
0.3125000000000551
 40
0.3125000000000551
 40
0.3750000000000576
 40
0.3750000000000576
 40
0.5000000000000496
 40
0.5000000000000496
 40
0.6250000000000416
 40
0.6250000000000416
 40
0.7500000000000338
 40
0.7500000000000338
 40
0.8125000000000299
 40
0.8125000000000299
 40
0.8750000000000259
 40
0.8750000000000259
 40
1.0
 40
1.0
 40
1.0
 40
1.0
 10
290.4871100117114
 20
366.7653321412432
 30
0.0
 10
290.4914496109832
 20
366.7549695674535
 30
0.0
 10
290.4961741708267
 20
366.7446746759123
 30
0.0
 10
290.5062932784888
 20
366.7244692060364
 30
0.0
 10
290.5116596973818
 20
366.7146081414115
 30
0.0
 10
290.5286405476265
 20
366.6857367264943
 30
0.0
 10
290.5411338489413
 20
366.6674356764914
 30
0.0
 10
290.5615352995958
 20
366.6413993639798
 30
0.0
 10
290.5686134317783
 20
366.6329571037996
 30
0.0
 10
290.5833164529344
 20
366.6165523734011
 30
0.0
 10
290.590982675453
 20
366.6085504264921
 30
0.0
 10
290.6144838294368
 20
366.5855808899854
 30
0.0
 10
290.6306735511444
 20
366.5717640936115
 30
0.0
 10
290.6637187083445
 20
366.5468369893705
 30
0.0
 10
290.6805763575729
 20
366.5357281681478
 30
0.0
 10
290.7145989039334
 20
366.5160102620495
 30
0.0
 10
290.7312632652004
 20
366.5076866217361
 30
0.0
 10
290.7554576162833
 20
366.497070102841
 30
0.0
 10
290.7633924356592
 20
366.4938421394039
 30
0.0
 10
290.7789647505232
 20
366.4879431469966
 30
0.0
 10
290.7866200492942
 20
366.4852665502253
 30
0.0
 10
290.8089529297665
 20
366.4780241996569
 30
0.0
 10
290.8229019283261
 20
366.4742674113917
 30
0.0
 10
290.8358267931617
 20
366.4712834712267
 30
0.0
  0
SPLINE
  5
2FF
330
1F
100
AcDbEntity
  8
1
  6
CONTINUOUS
 62
   254
100
AcDbSpline
210
0.0
220
0.0
230
1.0
 70
     8
 71
     3
 72
    29
 73
    25
 74
     0
 42
0.000000001
 43
0.0000000001
 40
0.0
 40
0.0
 40
0.0
 40
0.0
 40
0.1250000000000042
 40
0.1250000000000042
 40
0.187500000000007
 40
0.187500000000007
 40
0.2500000000000097
 40
0.2500000000000097
 40
0.3750000000000178
 40
0.3750000000000178
 40
0.4375000000000182
 40
0.4375000000000182
 40
0.5000000000000187
 40
0.5000000000000187
 40
0.6250000000000195
 40
0.6250000000000195
 40
0.6875000000000163
 40
0.6875000000000163
 40
0.750000000000013
 40
0.8125000000000098
 40
0.8125000000000098
 40
0.8750000000000066
 40
0.8750000000000066
 40
1.0
 40
1.0
 40
1.0
 40
1.0
 10
205.6556640497592
 20
295.2161236252712
 30
0.0
 10
205.6556739651318
 20
295.2161223193666
 30
0.0
 10
205.6588788938279
 20
295.2157002141898
 30
0.0
 10
205.6683117975228
 20
295.2144593818462
 30
0.0
 10
205.6722314988191
 20
295.2139439322412
 30
0.0
 10
205.6816570811884
 20
295.212705342671
 30
0.0
 10
205.6871897804903
 20
295.2119786885215
 30
0.0
 10
205.7058321633304
 20
295.2095324820998
 30
0.0
 10
205.7210433409439
 20
295.2075390519507
 30
0.0
 10
205.7479972837271
 20
295.2040163931996
 30
0.0
 10
205.7577114756896
 20
295.2027482247623
 30
0.0
 10
205.7784276941948
 20
295.2000477223568
 30
0.0
 10
205.7893281333698
 20
295.1986286264074
 30
0.0
 10
205.8236057143573
 20
295.1941732159855
 30
0.0
 10
205.8485442210422
 20
295.1909406359256
 30
0.0
 10
205.8891568724989
 20
295.1856968174328
 30
0.0
 10
205.9032313252533
 20
295.1838827668908
 30
0.0
 10
205.9318380256336
 20
295.1802029406895
 30
0.0
 10
205.9610525710078
 20
295.1764519921928
 30
0.0
 10
205.9914644630439
 20
295.1725629701044
 30
0.0
 10
206.022483155596
 20
295.1686048194149
 30
0.0
 10
206.038365564003
 20
295.1665823342509
 30
0.0
 10
206.0864241827569
 20
295.1604760245657
 30
0.0
 10
206.1188198396248
 20
295.1563775629329
 30
0.0
 10
206.1515747628826
 20
295.152252365934
 30
0.0
  0
SPLINE
  5
300
330
1F
100
AcDbEntity
  8
1
  6
CONTINUOUS
 62
   254
100
AcDbSpline
210
0.0
220
0.0
230
1.0
 70
     8
 71
     3
 72
    29
 73
    25
 74
     0
 42
0.000000001
 43
0.0000000001
 40
0.0
 40
0.0
 40
0.0
 40
0.0
 40
0.1249999999999873
 40
0.1249999999999873
 40
0.187499999999981
 40
0.187499999999981
 40
0.2499999999999746
 40
0.2499999999999746
 40
0.3749999999999741
 40
0.3749999999999741
 40
0.4374999999999851
 40
0.4374999999999851
 40
0.4999999999999961
 40
0.4999999999999961
 40
0.6250000000000085
 40
0.6250000000000085
 40
0.6875000000000111
 40
0.6875000000000111
 40
0.7500000000000135
 40
0.8125000000000161
 40
0.8125000000000161
 40
0.8750000000000187
 40
0.8750000000000187
 40
1.0
 40
1.0
 40
1.0
 40
1.0
 10
299.4977804219046
 20
417.5135364951224
 30
0.0
 10
299.4977765951647
 20
417.5135457350391
 30
0.0
 10
299.4965396846228
 20
417.5165323372957
 30
0.0
 10
299.4928978251068
 20
417.5253218876987
 30
0.0
 10
299.4913843669109
 20
417.5289741733991
 30
0.0
 10
299.4877442257589
 20
417.5377562619615
 30
0.0
 10
299.4856071770612
 20
417.5429110471832
 30
0.0
 10
299.4784044625453
 20
417.5602789275206
 30
0.0
 10
299.4725252348883
 20
417.5744489088299
 30
0.0
 10
299.462098975464
 20
417.5995530373879
 30
0.0
 10
299.4583401455657
 20
417.6085998586232
 30
0.0
 10
299.4503207399993
 20
417.6278908813219
 30
0.0
 10
299.4460994935544
 20
417.6380404865345
 30
0.0
 10
299.4328192016702
 20
417.6699534476609
 30
0.0
 10
299.4231494447794
 20
417.6931671180124
 30
0.0
 10
299.4073843990787
 20
417.7309606151354
 30
0.0
 10
299.4019181865546
 20
417.744056474036
 30
0.0
 10
299.3908016593363
 20
417.7706705163845
 30
0.0
 10
299.3794428035033
 20
417.7978465324907
 30
0.0
 10
299.367604849242
 20
417.8261285112116
 30
0.0
 10
299.355523362015
 20
417.8549705622985
 30
0.0
 10
299.3493336813423
 20
417.8697363740343
 30
0.0
 10
299.3305925912762
 20
417.9144095135886
 30
0.0
 10
299.3179441347327
 20
417.9445142062249
 30
0.0
 10
299.3051391985004
 20
417.9749434003646
 30
0.0
  0
SPLINE
  5
301
330
1F
100
AcDbEntity
  8
1
  6
CONTINUOUS
 62
   254
100
AcDbSpline
210
0.0
220
0.0
230
1.0
 70
     8
 71
     3
 72
    29
 73
    25
 74
     0
 42
0.000000001
 43
0.0000000001
 40
0.0
 40
0.0
 40
0.0
 40
0.0
 40
0.1250000000000041
 40
0.1250000000000041
 40
0.1875000000000051
 40
0.1875000000000051
 40
0.2500000000000061
 40
0.2500000000000061
 40
0.3750000000000037
 40
0.3750000000000037
 40
0.4375000000000028
 40
0.4375000000000028
 40
0.500000000000002
 40
0.500000000000002
 40
0.6249999999999909
 40
0.6249999999999909
 40
0.687499999999989
 40
0.687499999999989
 40
0.749999999999987
 40
0.8124999999999851
 40
0.8124999999999851
 40
0.8749999999999832
 40
0.8749999999999832
 40
1.0
 40
1.0
 40
1.0
 40
1.0
 10
146.6640558734266
 20
437.63448678337
 30
0.0
 10
146.6640497847937
 20
437.6344788493577
 30
0.0
 10
146.6620817666395
 20
437.631914352278
 30
0.0
 10
146.6562907224606
 20
437.6243656342185
 30
0.0
 10
146.6538844793602
 20
437.6212287981232
 30
0.0
 10
146.6480990381429
 20
437.613685299131
 30
0.0
 10
146.6447033875387
 20
437.6092571680588
 30
0.0
 10
146.6332637192146
 20
437.5943354941431
 30
0.0
 10
146.623931769258
 20
437.5821589429829
 30
0.0
 10
146.6074040858991
 20
437.560577473176
 30
0.0
 10
146.6014487238349
 20
437.5527988203779
 30
0.0
 10
146.5887519108961
 20
437.5362083000848
 30
0.0
 10
146.5820727181661
 20
437.5274777908215
 30
0.0
 10
146.5610754290628
 20
437.5000202401171
 30
0.0
 10
146.5458066792686
 20
437.4800391498254
 30
0.0
 10
146.5209590735126
 20
437.4474894711953
 30
0.0
 10
146.5123508332823
 20
437.4362076628366
 30
0.0
 10
146.4948606601203
 20
437.4132734466895
 30
0.0
 10
146.4770049707469
 20
437.3898483824837
 30
0.0
 10
146.4584310328042
 20
437.3654554224475
 30
0.0
 10
146.4394938274791
 20
437.34057152205
 30
0.0
 10
146.4298010997449
 20
437.3278281954782
 30
0.0
 10
146.4004835710571
 20
437.2892613656091
 30
0.0
 10
146.3807363707327
 20
437.2632551346057
 30
0.0
 10
146.3607863837072
 20
437.2369511374648
 30
0.0
  0
SPLINE
  5
302
330
1F
100
AcDbEntity
  8
1
  6
CONTINUOUS
 62
   254
100
AcDbSpline
210
0.0
220
0.0
230
1.0
 70
     8
 71
     3
 72
     8
 73
     4
 74
     0
 42
0.000000001
 43
0.0000000001
 40
0.0
 40
0.0
 40
0.0
 40
0.0
 40
1.0
 40
1.0
 40
1.0
 40
1.0
 10
186.2348466171652
 20
468.7299677728285
 30
0.0
 10
186.2336925530381
 20
468.7331385379584
 30
0.0
 10
186.2325390832287
 20
468.736309599719
 30
0.0
 10
186.2313862073033
 20
468.7394809579567
 30
0.0
  0
SPLINE
  5
303
330
1F
100
AcDbEntity
  8
1
  6
CONTINUOUS
 62
     9
100
AcDbSpline
210
0.0
220
0.0
230
1.0
 70
     8
 71
     3
 72
    13
 73
     9
 74
     0
 42
0.000000001
 43
0.0000000001
 40
0.0
 40
0.0
 40
0.0
 40
0.0
 40
0.25
 40
0.25
 40
0.5
 40
0.5
 40
0.75
 40
1.0
 40
1.0
 40
1.0
 40
1.0
 10
257.8089426583521
 20
438.5072745178456
 30
0.0
 10
257.6543413210066
 20
438.5072745178456
 30
0.0
 10
257.5015397214665
 20
438.5190550605685
 30
0.0
 10
257.1994145528226
 20
438.565382287853
 30
0.0
 10
257.0500395342314
 20
438.599944931634
 30
0.0
 10
256.7551017843123
 20
438.6926053690742
 30
0.0
 10
256.4706738898731
 20
438.8066800652235
 30
0.0
 10
256.2065748665572
 20
438.9621756644804
 30
0.0
 10
256.0797988197562
 20
439.0506683635945
 30
0.0
  0
SPLINE
  5
304
330
1F
100
AcDbEntity
  8
1
  6
CONTINUOUS
 62
     9
100
AcDbSpline
210
0.0
220
0.0
230
1.0
 70
     8
 71
     3
 72
    15
 73
    11
 74
     0
 42
0.000000001
 43
0.0000000001
 40
0.0
 40
0.0
 40
0.0
 40
0.0
 40
0.2499999999999907
 40
0.2499999999999907
 40
0.3749999999999911
 40
0.3749999999999911
 40
0.4999999999999916
 40
0.4999999999999916
 40
0.7499999999999958
 40
1.0
 40
1.0
 40
1.0
 40
1.0
 10
178.4652014103039
 20
439.0506683635944
 30
0.0
 10
178.3384254216265
 20
438.9621757050519
 30
0.0
 10
178.2063644355037
 20
438.8844202398981
 30
0.0
 10
178.0006293065276
 20
438.7833161596096
 30
0.0
 10
177.9307711434462
 20
438.7522148609209
 30
0.0
 10
177.7884743982067
 20
438.6952547369665
 30
0.0
 10
177.7160093803036
 20
438.6693873207853
 30
0.0
 10
177.4948040517566
 20
438.5999044517214
 30
0.0
 10
177.196234351826
 20
438.5308354987783
 30
0.0
 10
176.8906588728533
 20
438.5072745178456
 30
0.0
 10
176.7360575717081
 20
438.5072745178455
 30
0.0
  0
SPLINE
  5
305
330
1F
100
AcDbEntity
  8
1
  6
CONTINUOUS
 62
   254
100
AcDbSpline
210
0.0
220
0.0
230
1.0
 70
     8
 71
     3
 72
    36
 73
    32
 74
     0
 42
0.000000001
 43
0.0000000001
 40
0.0
 40
0.0
 40
0.0
 40
0.0
 40
0.0365033889183786
 40
0.1240939899257983
 40
0.1240939899257983
 40
0.1678892904295081
 40
0.1678892904295081
 40
0.1897869406813621
 40
0.1897869406813621
 40
0.2116845909332161
 40
0.2116845909332161
 40
0.2992751919406344
 40
0.2992751919406344
 40
0.3868657929480529
 40
0.4744563939554713
 40
0.4744563939554713
 40
0.496354044207326
 40
0.496354044207326
 40
0.5182516944591808
 40
0.5182516944591808
 40
0.5620469949628903
 40
0.5620469949628903
 40
0.6496375959703107
 40
0.7372281969777311
 40
0.7372281969777311
 40
0.7810234974814421
 40
0.7810234974814421
 40
0.8248187979851529
 40
0.8248187979851529
 40
0.9124093989925766
 40
1.0
 40
1.0
 40
1.0
 40
1.0
 10
188.9913436150742
 20
469.4223036967843
 30
0.0
 10
188.9332126046078
 20
469.4031800485652
 30
0.0
 10
188.7378322880634
 20
469.3386825549615
 30
0.0
 10
188.5499853753056
 20
469.2759578646267
 30
0.0
 10
188.3567609755236
 20
469.2109669970174
 30
0.0
 10
188.2932978865246
 20
469.1895404937323
 30
0.0
 10
188.1995399348964
 20
469.1577731951065
 30
0.0
 10
188.1685268412345
 20
469.1472462077253
 30
0.0
 10
188.1069843250473
 20
469.1263197111672
 30
0.0
 10
188.0764234661707
 20
469.11590943744
 30
0.0
 10
187.9256324933889
 20
469.06445577817
 30
0.0
 10
187.8108996697104
 20
469.0250224559868
 30
0.0
 10
187.5928240109694
 20
468.9496285631712
 30
0.0
 10
187.3861403755962
 20
468.8777075923753
 30
0.0
 10
187.2020958223141
 20
468.8129557216075
 30
0.0
 10
187.0943037398098
 20
468.77485971766
 30
0.0
 10
187.0731079753951
 20
468.7673594964887
 30
0.0
 10
187.0314492970055
 20
468.7526015036563
 30
0.0
 10
187.0110060994138
 20
468.7453506939556
 30
0.0
 10
186.951108882571
 20
468.7240831077775
 30
0.0
 10
186.9129772904882
 20
468.7105122973782
 30
0.0
 10
186.803875565633
 20
468.6716088015626
 30
0.0
 10
186.6724959572951
 20
468.6245538723168
 30
0.0
 10
186.5688029990338
 20
468.5871727639129
 30
0.0
 10
186.501536388649
 20
468.5628724687982
 30
0.0
 10
186.4808678521045
 20
468.5553959255296
 30
0.0
 10
186.4430979791414
 20
468.5417203259036
 30
0.0
 10
186.42597738834
 20
468.5355142683435
 30
0.0
 10
186.3804609543743
 20
468.5190028439687
 30
0.0
 10
186.3350101622528
 20
468.5024808695783
 30
0.0
 10
186.3196668069012
 20
468.4968940517506
 30
0.0
 10
186.3196816078289
 20
468.4968994410598
 30
0.0
  0
SPLINE
  5
306
330
1F
100
AcDbEntity
  8
1
  6
CONTINUOUS
 62
    81
100
AcDbSpline
210
0.0
220
0.0
230
1.0
 70
     8
 71
     3
 72
    11
 73
     7
 74
     0
 42
0.000000001
 43
0.0000000001
 40
0.0
 40
0.0
 40
0.0
 40
0.0
 40
0.2509999001004811
 40
0.4993214515744318
 40
0.7479860096952753
 40
1.0
 40
1.0
 40
1.0
 40
1.0
 10
216.8044535798147
 20
294.6609433003997
 30
0.0
 10
216.8259645973156
 20
294.6525184798192
 30
0.0
 10
216.8687570943605
 20
294.6357587375252
 30
0.0
 10
216.9362387784549
 20
294.6190122188355
 30
0.0
 10
217.0052940852511
 20
294.6082581562164
 30
0.0
 10
217.0520409722119
 20
294.6069683228546
 30
0.0
 10
217.0755707790198
 20
294.6063190918194
 30
0.0
  0
SPLINE
  5
307
330
1F
100
AcDbEntity
  8
1
  6
CONTINUOUS
 62
    81
100
AcDbSpline
210
0.0
220
0.0
230
1.0
 70
     8
 71
     3
 72
     8
 73
     4
 74
     0
 42
0.000000001
 43
0.0000000001
 40
0.0
 40
0.0
 40
0.0
 40
0.0
 40
1.0
 40
1.0
 40
1.0
 40
1.0
 10
211.6714147870927
 20
297.0831510131978
 30
0.0
 10
211.647314156079
 20
297.1085857617183
 30
0.0
 10
211.6232351026381
 20
297.1340253855855
 30
0.0
 10
211.5991776207076
 20
297.1594698482565
 30
0.0
  0
SPLINE
  5
308
330
1F
100
AcDbEntity
  8
1
  6
CONTINUOUS
 62
    81
100
AcDbSpline
210
0.0
220
0.0
230
1.0
 70
     8
 71
     3
 72
    11
 73
     7
 74
     0
 42
0.000000001
 43
0.0000000001
 40
0.0
 40
0.0
 40
0.0
 40
0.0
 40
0.2502384012392809
 40
0.4990480118595072
 40
0.7483367503293842
 40
1.0
 40
1.0
 40
1.0
 40
1.0
 10
213.888420378328
 20
294.674877086749
 30
0.0
 10
213.9171755977461
 20
294.6658711745375
 30
0.0
 10
213.9745218523981
 20
294.6479107713305
 30
0.0
 10
214.0633560865236
 20
294.6299119629073
 30
0.0
 10
214.153581817689
 20
294.6181252000247
 30
0.0
 10
214.2143573300161
 20
294.6164124057056
 30
0.0
 10
214.2448891240696
 20
294.6155519492256
 30
0.0
  0
SPLINE
  5
309
330
1F
100
AcDbEntity
  8
1
  6
CONTINUOUS
 62
    81
100
AcDbSpline
210
0.0
220
0.0
230
1.0
 70
     8
 71
     3
 72
    11
 73
     7
 74
     0
 42
0.000000001
 43
0.0000000001
 40
0.0
 40
0.0
 40
0.0
 40
0.0
 40
0.2515476900218722
 40
0.5000463894029644
 40
0.7485224615135719
 40
1.0
 40
1.0
 40
1.0
 40
1.0
 10
224.8386298767749
 20
294.718140486775
 30
0.0
 10
224.8601040594808
 20
294.7100267476024
 30
0.0
 10
224.9027921379382
 20
294.6938976152798
 30
0.0
 10
224.9700704450292
 20
294.6781459574149
 30
0.0
 10
225.0388358550293
 20
294.66843380922
 30
0.0
 10
225.0853646963761
 20
294.6678718027802
 30
0.0
 10
225.1087687847605
 20
294.6675891125603
 30
0.0
  0
SPLINE
  5
30A
330
1F
100
AcDbEntity
  8
1
  6
CONTINUOUS
 62
    81
100
AcDbSpline
210
0.0
220
0.0
230
1.0
 70
     8
 71
     3
 72
    11
 73
     7
 74
     0
 42
0.000000001
 43
0.0000000001
 40
0.0
 40
0.0
 40
0.0
 40
0.0
 40
0.2515958227998413
 40
0.5001351383923479
 40
0.7486069325193194
 40
1.0
 40
1.0
 40
1.0
 40
1.0
 10
218.7275607489616
 20
294.6628734704068
 30
0.0
 10
218.7491539160503
 20
294.6545333875792
 30
0.0
 10
218.7920779260359
 20
294.6379545412662
 30
0.0
 10
218.8596760161961
 20
294.6214626233423
 30
0.0
 10
218.9287348337776
 20
294.6109701196566
 30
0.0
 10
218.9754467079432
 20
294.6098584727546
 30
0.0
 10
218.9989391400707
 20
294.6092994010012
 30
0.0
  0
SPLINE
  5
30B
330
1F
100
AcDbEntity
  8
1
  6
CONTINUOUS
 62
     9
100
AcDbSpline
210
0.0
220
0.0
230
1.0
 70
     8
 71
     3
 72
    10
 73
     6
 74
     0
 42
0.000000001
 43
0.0000000001
 40
0.0
 40
0.0
 40
0.0
 40
0.0
 40
0.4135580904822927
 40
0.4135580904822927
 40
1.0
 40
1.0
 40
1.0
 40
1.0
 10
244.7269983236037
 20
174.3918287529669
 30
-0.0000000000000006
 10
244.7206792178227
 20
174.5296805754846
 30
-0.0000000000000006
 10
244.7143620894455
 20
174.6675327606347
 30
-0.0000000000000006
 10
244.6990917885622
 20
175.0008657302246
 30
-0.0000000000000006
 10
244.6901406093112
 20
175.1963468801342
 30
-0.0000000000000006
 10
244.6811933796089
 20
175.3918287529669
 30
-0.0000000000000006
  0
SPLINE
  5
30C
330
1F
100
AcDbEntity
  8
1
  6
CONTINUOUS
 62
     9
100
AcDbSpline
210
0.0
220
0.0
230
1.0
 70
     8
 71
     3
 72
    10
 73
     6
 74
     0
 42
0.000000001
 43
0.0000000001
 40
0.0
 40
0.0
 40
0.0
 40
0.0
 40
0.5864419095177241
 40
0.5864419095177241
 40
1.0
 40
1.0
 40
1.0
 40
1.0
 10
189.8638068504513
 20
175.3918287529669
 30
-0.0000000000000039
 10
189.854859620749
 20
175.1963468801342
 30
-0.000000000000004
 10
189.845908441498
 20
175.0008657302246
 30
-0.000000000000004
 10
189.8306381406147
 20
174.6675327606347
 30
-0.000000000000004
 10
189.8243210122374
 20
174.5296805754846
 30
-0.000000000000004
 10
189.8180019064565
 20
174.3918287529669
 30
-0.000000000000004
  0
SPLINE
  5
30D
330
1F
100
AcDbEntity
  8
1
  6
CONTINUOUS
 62
     9
100
AcDbSpline
210
0.0
220
0.0
230
1.0
 70
     8
 71
     3
 72
    10
 73
     6
 74
     0
 42
0.000000001
 43
0.0000000001
 40
0.0
 40
0.0
 40
0.0
 40
0.0
 40
0.5705658277657516
 40
0.5705658277657516
 40
1.0
 40
1.0
 40
1.0
 40
1.0
 10
188.4857072844835
 20
174.3918287529669
 30
-0.0000000000000041
 10
188.4938788991311
 20
174.5820162699557
 30
-0.0000000000000041
 10
188.5020471338754
 20
174.7722044119618
 30
-0.0000000000000041
 10
188.5163572587158
 20
175.105538016258
 30
-0.000000000000004
 10
188.5225006082824
 20
175.2486832090992
 30
-0.000000000000004
 10
188.5286420564747
 20
175.3918287529669
 30
-0.000000000000004
  0
SPLINE
  5
30E
330
1F
100
AcDbEntity
  8
1
  6
CONTINUOUS
 62
     9
100
AcDbSpline
210
0.0
220
0.0
230
1.0
 70
     8
 71
     3
 72
    10
 73
     6
 74
     0
 42
0.000000001
 43
0.0000000001
 40
0.0
 40
0.0
 40
0.0
 40
0.0
 40
0.4294341722342329
 40
0.4294341722342329
 40
1.0
 40
1.0
 40
1.0
 40
1.0
 10
246.0163581735854
 20
175.3918287529669
 30
-0.0000000000000005
 10
246.0224996217778
 20
175.2486832090992
 30
-0.0000000000000005
 10
246.0286429713443
 20
175.105538016258
 30
-0.0000000000000005
 10
246.0429530961848
 20
174.7722044119618
 30
-0.0000000000000005
 10
246.0511213309291
 20
174.5820162699557
 30
-0.0000000000000006
 10
246.0592929455767
 20
174.3918287529669
 30
-0.0000000000000006
  0
SPLINE
  5
30F
330
1F
100
AcDbEntity
  8
1
  6
CONTINUOUS
 62
     9
100
AcDbSpline
210
0.0
220
0.0
230
1.0
 70
    24
 71
     3
 72
    10
 73
     6
 74
     0
 42
0.000000001
 43
0.0000000001
 40
0.0
 40
0.0
 40
0.0
 40
0.0
 40
0.5
 40
0.5
 40
1.0
 40
1.0
 40
1.0
 40
1.0
 10
246.0592929455767
 20
174.3918287529669
 30
-0.0000000000000006
 10
245.7798708828479
 20
174.3918287529669
 30
-0.0000000000000006
 10
245.526470235771
 20
174.3918287529669
 30
-0.0000000000000006
 10
245.0720819018527
 20
174.3918287529669
 30
-0.0000000000000006
 10
244.8813299325745
 20
174.3918287529669
 30
-0.0000000000000006
 10
244.7269983236037
 20
174.3918287529669
 30
-0.0000000000000006
  0
SPLINE
  5
310
330
1F
100
AcDbEntity
  8
1
  6
CONTINUOUS
 62
     9
100
AcDbSpline
210
0.0
220
0.0
230
1.0
 70
    24
 71
     3
 72
    10
 73
     6
 74
     0
 42
0.000000001
 43
0.0000000001
 40
0.0
 40
0.0
 40
0.0
 40
0.0
 40
0.5
 40
0.5
 40
1.0
 40
1.0
 40
1.0
 40
1.0
 10
244.6811933796089
 20
175.3918287529669
 30
-0.0000000000000006
 10
244.8357947169543
 20
175.3918287529669
 30
-0.0000000000000006
 10
245.0270422903349
 20
175.3918287529669
 30
-0.0000000000000006
 10
245.482472625752
 20
175.3918287529669
 30
-0.0000000000000005
 10
245.7363082758199
 20
175.3918287529669
 30
-0.0000000000000005
 10
246.0163581735854
 20
175.3918287529669
 30
-0.0000000000000005
  0
SPLINE
  5
311
330
1F
100
AcDbEntity
  8
1
  6
CONTINUOUS
 62
     9
100
AcDbSpline
210
0.0
220
0.0
230
1.0
 70
    24
 71
     3
 72
    10
 73
     6
 74
     0
 42
0.000000001
 43
0.0000000001
 40
0.0
 40
0.0
 40
0.0
 40
0.0
 40
0.5
 40
0.5
 40
1.0
 40
1.0
 40
1.0
 40
1.0
 10
189.8180019064565
 20
174.3918287529669
 30
-0.000000000000004
 10
189.6636702614194
 20
174.3918287529669
 30
-0.000000000000004
 10
189.4728117471832
 20
174.3918287529669
 30
-0.000000000000004
 10
189.0183973873127
 20
174.3918287529669
 30
-0.0000000000000041
 10
188.7651294751928
 20
174.3918287529669
 30
-0.0000000000000041
 10
188.4857072844835
 20
174.3918287529669
 30
-0.0000000000000041
  0
SPLINE
  5
312
330
1F
100
AcDbEntity
  8
1
  6
CONTINUOUS
 62
     9
100
AcDbSpline
210
0.0
220
0.0
230
1.0
 70
    24
 71
     3
 72
    10
 73
     6
 74
     0
 42
0.000000001
 43
0.0000000001
 40
0.0
 40
0.0
 40
0.0
 40
0.0
 40
0.5
 40
0.5
 40
1.0
 40
1.0
 40
1.0
 40
1.0
 10
188.5286420564747
 20
175.3918287529669
 30
-0.000000000000004
 10
188.8086918258445
 20
175.3918287529669
 30
-0.000000000000004
 10
189.0626605465183
 20
175.3918287529669
 30
-0.000000000000004
 10
189.5180647972134
 20
175.3918287529669
 30
-0.000000000000004
 10
189.709205549306
 20
175.3918287529669
 30
-0.000000000000004
 10
189.8638068504513
 20
175.3918287529669
 30
-0.0000000000000039
  0
SPLINE
  5
313
330
1F
100
AcDbEntity
  8
1
  6
CONTINUOUS
 62
     9
100
AcDbSpline
210
0.0
220
0.0
230
1.0
 70
     8
 71
     3
 72
    10
 73
     6
 74
     0
 42
0.000000001
 43
0.0000000001
 40
0.0
 40
0.0
 40
0.0
 40
0.0
 40
0.4135580904822352
 40
0.4135580904822352
 40
1.0
 40
1.0
 40
1.0
 40
1.0
 10
149.373169251124
 20
174.3918287529669
 30
0.0000000000000006
 10
149.3668501453431
 20
174.5296805754846
 30
0.0000000000000006
 10
149.3605330169659
 20
174.6675327606347
 30
0.0000000000000006
 10
149.3452627160826
 20
175.0008657302246
 30
0.0000000000000007
 10
149.3363115368316
 20
175.1963468801342
 30
0.0000000000000007
 10
149.3273643071293
 20
175.3918287529669
 30
0.0000000000000007
  0
SPLINE
  5
314
330
1F
100
AcDbEntity
  8
1
  6
CONTINUOUS
 62
     9
100
AcDbSpline
210
0.0
220
0.0
230
1.0
 70
    24
 71
     3
 72
     8
 73
     4
 74
     0
 42
0.000000001
 43
0.0000000001
 40
0.0
 40
0.0
 40
0.0
 40
0.0
 40
1.0
 40
1.0
 40
1.0
 40
1.0
 10
149.5247362511246
 20
174.3918287529669
 30
0.0000000000000006
 10
149.4800087583726
 20
174.3918287529669
 30
0.0000000000000006
 10
149.4294860024719
 20
174.3918287529669
 30
0.0000000000000006
 10
149.3731692511241
 20
174.3918287529669
 30
0.0000000000000006
  0
SPLINE
  5
315
330
1F
100
AcDbEntity
  8
1
  6
CONTINUOUS
 62
     9
100
AcDbSpline
210
0.0
220
0.0
230
1.0
 70
    24
 71
     3
 72
     8
 73
     4
 74
     0
 42
0.000000001
 43
0.0000000001
 40
0.0
 40
0.0
 40
0.0
 40
0.0
 40
1.0
 40
1.0
 40
1.0
 40
1.0
 10
149.3273643071293
 20
175.3918287529669
 30
0.0000000000000007
 10
149.3801218184062
 20
175.3918287529669
 30
0.0000000000000007
 10
149.4278000602894
 20
175.3918287529669
 30
0.0000000000000007
 10
149.4703933071293
 20
175.3918287529669
 30
0.0000000000000007
  0
SPLINE
  5
316
330
1F
100
AcDbEntity
  8
1
  6
CONTINUOUS
 62
     9
100
AcDbSpline
210
0.0
220
0.0
230
1.0
 70
     8
 71
     3
 72
    10
 73
     6
 74
     0
 42
0.000000001
 43
0.0000000001
 40
0.0
 40
0.0
 40
0.0
 40
0.0
 40
0.5864419095176392
 40
0.5864419095176392
 40
1.0
 40
1.0
 40
1.0
 40
1.0
 10
285.2176359229309
 20
175.3918287529669
 30
0.0000000000000001
 10
285.2086886932286
 20
175.1963468801342
 30
0.0000000000000001
 10
285.1997375139776
 20
175.0008657302246
 30
0.0000000000000001
 10
285.1844672130943
 20
174.6675327606347
 30
0.0000000000000001
 10
285.1781500847171
 20
174.5296805754846
 30
0.0000000000000001
 10
285.1718309789361
 20
174.3918287529669
 30
0.0000000000000001
  0
SPLINE
  5
317
330
1F
100
AcDbEntity
  8
1
  6
CONTINUOUS
 62
     9
100
AcDbSpline
210
0.0
220
0.0
230
1.0
 70
    24
 71
     3
 72
     8
 73
     4
 74
     0
 42
0.000000001
 43
0.0000000001
 40
0.0
 40
0.0
 40
0.0
 40
0.0
 40
1.0
 40
1.0
 40
1.0
 40
1.0
 10
285.1718309789361
 20
174.3918287529669
 30
0.0000000000000001
 10
285.1153554083212
 20
174.3918287529669
 30
0.0
 10
285.0646997262762
 20
174.3918287529669
 30
0.0
 10
285.0198709789361
 20
174.3918287529669
 30
0.0
  0
SPLINE
  5
318
330
1F
100
AcDbEntity
  8
1
  6
CONTINUOUS
 62
     9
100
AcDbSpline
210
0.0
220
0.0
230
1.0
 70
    24
 71
     3
 72
     8
 73
     4
 74
     0
 42
0.000000001
 43
0.0000000001
 40
0.0
 40
0.0
 40
0.0
 40
0.0
 40
1.0
 40
1.0
 40
1.0
 40
1.0
 10
285.0741049229308
 20
175.3918287529669
 30
0.0000000000000001
 10
285.1168215566803
 20
175.3918287529669
 30
0.0000000000000001
 10
285.1646655746074
 20
175.3918287529669
 30
0.0000000000000001
 10
285.2176359229309
 20
175.3918287529669
 30
0.0000000000000001
  0
LEADER
  5
31D
330
1F
100
AcDbEntity
  8
1
  6
CONTINUOUS
 62
     4
100
AcDbLeader
  3
STANDARD
 73
     2
 76
     2
 10
264.2725
 20
401.454716
 30
0.0
 10
339.737
 20
432.48
 30
0.0
340
322
212
339.737
222
432.48
232
0.0
1001
ACAD
1000
DSTYLE
1002
{
1070
     5
1000
NONE
1070
   341
1005
31A
1070
    41
1040
2.0
1002
}
  0
INSERT
  5
322
102
{ACAD_REACTORS
330
31D
102
}
330
1F
100
AcDbEntity
  8
1
  6
CONTINUOUS
 62
     4
100
AcDbBlockReference
  2
LABLE3D_1
 10
0.0
 20
0.0
 30
0.0
  0
LEADER
  5
326
330
1F
100
AcDbEntity
  8
1
  6
CONTINUOUS
 62
     4
100
AcDbLeader
  3
STANDARD
 73
     2
 76
     2
 10
171.73723
 20
304.646404
 30
0.0
 10
143.44
 20
258.08
 30
0.0
340
329
212
143.44
222
258.0799999999999
232
0.0
1001
ACAD
1000
DSTYLE
1002
{
1070
     5
1000
NONE
1070
   341
1005
31A
1070
    41
1040
2.0
1002
}
  0
INSERT
  5
329
102
{ACAD_REACTORS
330
326
102
}
330
1F
100
AcDbEntity
  8
1
  6
CONTINUOUS
 62
     4
100
AcDbBlockReference
  2
LABLE3D_2
 10
0.0
 20
0.0
 30
0.0
  0
INSERT
  5
36D
330
1F
100
AcDbEntity
  8
1
  6
CENTER
 62
     2
100
AcDbBlockReference
  2
CENTERLINE1
 10
0.0
 20
0.0
 30
0.0
  0
INSERT
  5
384
330
1F
100
AcDbEntity
  8
1
  6
CENTER
 62
     2
100
AcDbBlockReference
  2
CENTERLINE2
 10
0.0
 20
0.0
 30
0.0
  0
INSERT
  5
395
330
1F
100
AcDbEntity
  8
1
  6
CENTER
 62
     2
100
AcDbBlockReference
  2
CENTERLINE3
 10
0.0
 20
0.0
 30
0.0
  0
INSERT
  5
3A4
330
1F
100
AcDbEntity
  8
1
  6
CENTER
 62
     2
100
AcDbBlockReference
  2
CENTERLINE4
 10
0.0
 20
0.0
 30
0.0
  0
INSERT
  5
3B3
330
1F
100
AcDbEntity
  8
1
  6
CENTER
 62
     2
100
AcDbBlockReference
  2
CENTERLINE5
 10
0.0
 20
0.0
 30
0.0
  0
INSERT
  5
3C8
330
1F
100
AcDbEntity
  8
1
  6
CENTER
 62
     2
100
AcDbBlockReference
  2
CENTERLINE6
 10
0.0
 20
0.0
 30
0.0
  0
INSERT
  5
3DD
330
1F
100
AcDbEntity
  8
1
  6
CENTER
 62
     2
100
AcDbBlockReference
  2
CENTERLINE7
 10
0.0
 20
0.0
 30
0.0
  0
INSERT
  5
41A
330
1F
100
AcDbEntity
  8
1
  6
CENTER
 62
     2
100
AcDbBlockReference
  2
CENTERLINE8
 10
0.0
 20
0.0
 30
0.0
  0
MTEXT
  5
41D
330
1F
100
AcDbEntity
  8
1
  6
CONTINUOUS
 62
     4
100
AcDbMText
 10
96.075
 20
550.0
 30
0.0
 40
15.0
 41
0.0
 71
     7
 72
     5
  1
\W00.594;DR41-C-VB/DR41-S-VB\PDR40-C-VB/DR40-S-VB 
  7
IDEAS_KANJI
1001
ACAD
1000
MTEXTBEGIN
1070
    44
1040
0.783133
1000
MTEXTEND
1000
ACAD_MTEXT_DEFINED_HEIGHT_BEGIN
1070
    46
1040
0.2
1000
ACAD_MTEXT_DEFINED_HEIGHT_END
  0
MTEXT
  5
41E
330
1F
100
AcDbEntity
  8
1
  6
CONTINUOUS
 62
     4
100
AcDbMText
 10
385.48
 20
457.367742
 30
0.0
 40
3.2
 41
0.0
 71
     7
 72
     5
  1
\W00.800; 
  7
IDEAS_KANJI
1001
ACAD
1000
MTEXTBEGIN
1070
    73
1070
     2
1070
    44
1040
0.783133
1000
MTEXTEND
1000
ACAD_MTEXT_DEFINED_HEIGHT_BEGIN
1070
    46
1040
0.2
1000
ACAD_MTEXT_DEFINED_HEIGHT_END
  0
MTEXT
  5
41F
330
1F
100
AcDbEntity
  8
1
  6
CONTINUOUS
 62
     4
100
AcDbMText
 10
748.84
 20
27.367742
 30
0.0
 40
3.2
 41
0.0
 71
     7
 72
     5
  1
\W00.691;単位:mm 
  7
IDEAS_KANJI
1001
ACAD
1000
MTEXTBEGIN
1070
    73
1070
     2
1070
    44
1040
0.783133
1000
MTEXTEND
1000
ACAD_MTEXT_DEFINED_HEIGHT_BEGIN
1070
    46
1040
0.2
1000
ACAD_MTEXT_DEFINED_HEIGHT_END
  0
MTEXT
  5
420
102
{ACAD_REACTORS
330
49E
102
}
330
1F
100
AcDbEntity
  8
1
  6
CONTINUOUS
 62
     4
100
AcDbMText
 10
74.166667
 20
337.20056
 30
0.0
 40
5.0
 41
0.0
 71
     7
 72
     5
  1
\W00.954;78.8 
  7
IDEAS_SIMPLEX
 11
1.615544574432587E-15
 21
1.0
 31
0.0
1001
ACAD
1000
MTEXTBEGIN
1070
    73
1070
     2
1070
    44
1040
0.722892
1000
MTEXTEND
1000
ACAD_MTEXT_DEFINED_HEIGHT_BEGIN
1070
    46
1040
0.2
1000
ACAD_MTEXT_DEFINED_HEIGHT_END
  0
MTEXT
  5
422
102
{ACAD_REACTORS
330
49F
102
}
330
1F
100
AcDbEntity
  8
1
  6
CONTINUOUS
 62
     4
100
AcDbMText
 10
74.166667
 20
416.008872
 30
0.0
 40
5.0
 41
0.0
 71
     7
 72
     5
  1
\W00.954;78.8 
  7
IDEAS_SIMPLEX
 11
1.615544574432587E-15
 21
1.0
 31
0.0
1001
ACAD
1000
MTEXTBEGIN
1070
    73
1070
     2
1070
    44
1040
0.722892
1000
MTEXTEND
1000
ACAD_MTEXT_DEFINED_HEIGHT_BEGIN
1070
    46
1040
0.2
1000
ACAD_MTEXT_DEFINED_HEIGHT_END
  0
DIMENSION
  5
42E
330
1F
100
AcDbEntity
  8
1
  6
CONTINUOUS
 62
     4
100
AcDbDimension
  2
DIMNDRAFT3D1
 10
48.75
 20
35.191829
 30
0.0
 11
48.75
 21
122.816829
 31
0.0
 70
   160
  1
\C4;176
  3
STANDARD
100
AcDbAlignedDimension
 13
217.2725
 23
210.441829
 33
0.0
 14
217.2725
 24
35.191829
 34
0.0
 50
90.0
100
AcDbRotatedDimension
1001
ACAD
1000
DSTYLE
1002
{
1070
   287
1070
     3
1070
     7
1000
OPEN
1070
     6
1000
OPEN
1070
    74
1070
     0
1070
   279
1070
     0
1070
   172
1070
     1
1070
   173
1070
     1
1070
   340
1005
421
1070
   271
1070
     2
1070
   272
1070
     2
1070
    77
1070
     1
1070
    73
1070
     0
1070
   177
1070
     4
1070
   176
1070
     4
1070
   178
1070
     4
1070
    48
1040
-0.005
1070
    41
1041
2.0
1070
   147
1041
1.25
1070
    42
1041
0.0
1070
    44
1041
1.5
1070
   140
1041
5.0
1002
}
  0
DIMENSION
  5
440
330
1F
100
AcDbEntity
  8
1
  6
CONTINUOUS
 62
     4
100
AcDbDimension
  2
DIMNDRAFT3D2
 10
73.75
 20
35.191829
 30
0.0
 11
73.75
 21
70.0
 31
0.0
 70
   160
  1
\C4;92
  3
STANDARD
100
AcDbAlignedDimension
 13
217.2715
 23
126.391829
 33
0.0
 14
217.2725
 24
35.191829
 34
0.0
 50
90.0
100
AcDbRotatedDimension
1001
ACAD
1000
DSTYLE
1002
{
1070
   287
1070
     3
1070
     7
1000
OPEN
1070
     6
1000
OPEN
1070
    74
1070
     0
1070
   279
1070
     0
1070
   172
1070
     1
1070
   173
1070
     1
1070
   340
1005
421
1070
   271
1070
     2
1070
   272
1070
     2
1070
    77
1070
     1
1070
    73
1070
     0
1070
   177
1070
     4
1070
   176
1070
     4
1070
   178
1070
     4
1070
    48
1040
-0.005
1070
    41
1041
2.0
1070
   147
1041
1.25
1070
    42
1041
0.0
1070
    44
1041
1.5
1070
   140
1041
5.0
1002
}
  0
DIMENSION
  5
44C
330
1F
100
AcDbEntity
  8
1
  6
CONTINUOUS
 62
     4
100
AcDbDimension
  2
DIMNDRAFT3D3
 10
563.75
 20
469.473783
 30
0.0
 11
563.75
 21
440.0
 31
0.0
 70
   160
  1
\C4;9.8
  3
STANDARD
100
AcDbAlignedDimension
 13
603.286718
 23
461.94621
 33
0.0
 14
603.286718
 24
469.473783
 34
0.0
 50
90.0
100
AcDbRotatedDimension
1001
ACAD
1000
DSTYLE
1002
{
1070
   287
1070
     3
1070
     7
1000
OPEN
1070
     6
1000
OPEN
1070
    74
1070
     0
1070
   279
1070
     0
1070
   172
1070
     1
1070
   173
1070
     1
1070
   340
1005
421
1070
   271
1070
     2
1070
   272
1070
     2
1070
    77
1070
     1
1070
    73
1070
     0
1070
   177
1070
     4
1070
   176
1070
     4
1070
   178
1070
     4
1070
    48
1040
-0.005
1070
    41
1041
2.0
1070
   147
1041
1.25
1070
    42
1041
0.0
1070
    44
1041
1.5
1070
   140
1041
5.0
1002
}
  0
DIMENSION
  5
455
330
1F
100
AcDbEntity
  8
1
  6
CONTINUOUS
 62
     4
100
AcDbDimension
  2
DIMNDRAFT3D4
 10
217.2725
 20
96.391829
 30
0.0
 11
231.452673
 21
68.795687
 31
0.0
 70
   164
  1
\C4;R 62
  3
STANDARD
100
AcDbRadialDimension
 15
243.027494
 25
40.874982
 35
0.0
 40
0.0
1001
ACAD
1000
DSTYLE
1002
{
1070
   287
1070
     3
1070
     7
1000
OPEN
1070
     6
1000
OPEN
1070
   279
1070
     0
1070
   173
1070
     1
1070
   340
1005
421
1070
    75
1070
     1
1070
    76
1070
     1
1070
   271
1070
     2
1070
   272
1070
     2
1070
    77
1070
     1
1070
    73
1070
     0
1070
   177
1070
     4
1070
   176
1070
     4
1070
   178
1070
     4
1070
    48
1040
-0.005
1070
    41
1041
2.0
1070
   147
1041
1.25
1070
    42
1041
0.0
1070
    44
1041
1.5
1070
   140
1041
5.0
1002
}
  0
DIMENSION
  5
462
330
1F
100
AcDbEntity
  8
1
  6
CONTINUOUS
 62
     4
100
AcDbDimension
  2
DIMNDRAFT3D5
 10
115.2725
 20
5.0
 30
0.0
 11
217.2725
 21
5.0
 31
0.0
 70
   160
  1
 \C4;%%c\C4;204
  3
STANDARD
100
AcDbAlignedDimension
 13
319.2725
 23
126.391829
 33
0.0
 14
115.2725
 24
126.391829
 34
0.0
100
AcDbRotatedDimension
1001
ACAD
1000
DSTYLE
1002
{
1070
   287
1070
     3
1070
     7
1000
OPEN
1070
     6
1000
OPEN
1070
   279
1070
     0
1070
   172
1070
     1
1070
   173
1070
     1
1070
   340
1005
421
1070
   271
1070
     2
1070
   272
1070
     2
1070
    77
1070
     1
1070
    73
1070
     0
1070
   177
1070
     4
1070
   176
1070
     4
1070
   178
1070
     4
1070
    48
1040
-0.005
1070
    41
1041
2.0
1070
   147
1041
1.25
1070
    42
1041
0.0
1070
    44
1041
1.5
1070
   140
1041
5.0
1002
}
  0
DIMENSION
  5
470
330
1F
100
AcDbEntity
  8
1
  6
CONTINUOUS
 62
     4
100
AcDbDimension
  2
DIMNDRAFT3D6
 10
296.110046
 20
230.0
 30
0.0
 11
217.2725
 21
230.0
 31
0.0
 70
   160
  1
 \C4;%%c\C4;162 \C4;(板金最外接円)
  3
STANDARD
100
AcDbAlignedDimension
 13
138.434954
 23
208.641829
 33
0.0
 14
296.110046
 24
208.641829
 34
0.0
100
AcDbRotatedDimension
1001
ACAD
1000
DSTYLE
1002
{
1070
   287
1070
     3
1070
     7
1000
OPEN
1070
     6
1000
OPEN
1070
   279
1070
     0
1070
   172
1070
     1
1070
   173
1070
     1
1070
   340
1005
421
1070
   271
1070
     2
1070
   272
1070
     2
1070
    77
1070
     1
1070
    73
1070
     0
1070
   177
1070
     4
1070
   176
1070
     4
1070
   178
1070
     4
1070
    48
1040
-0.005
1070
    41
1041
2.0
1070
   147
1041
1.25
1070
    42
1041
0.0
1070
    44
1041
1.5
1070
   140
1041
5.0
1002
}
  0
DIMENSION
  5
47C
330
1F
100
AcDbEntity
  8
1
  6
CONTINUOUS
 62
     4
100
AcDbDimension
  2
DIMNDRAFT3D7
 10
217.2725
 20
351.25
 30
0.0
 11
380.0
 21
351.25
 31
0.0
 70
   160
  1
\C4;91.0
  3
STANDARD
100
AcDbAlignedDimension
 13
308.2725
 23
383.454716
 33
0.0
 14
217.2725
 24
383.454716
 34
0.0
100
AcDbRotatedDimension
1001
ACAD
1000
DSTYLE
1002
{
1070
   287
1070
     3
1070
     7
1000
OPEN
1070
     6
1000
OPEN
1070
   279
1070
     0
1070
   172
1070
     1
1070
   173
1070
     1
1070
   340
1005
421
1070
   271
1070
     2
1070
   272
1070
     2
1070
    77
1070
     1
1070
    73
1070
     0
1070
   177
1070
     4
1070
   176
1070
     4
1070
   178
1070
     4
1070
    48
1040
-0.005
1070
    41
1041
2.0
1070
   147
1041
1.25
1070
    42
1041
0.0
1070
    44
1041
1.5
1070
   140
1041
5.0
1002
}
  0
DIMENSION
  5
488
330
1F
100
AcDbEntity
  8
1
  6
CONTINUOUS
 62
     4
100
AcDbDimension
  2
DIMNDRAFT3D8
 10
308.2725
 20
241.25
 30
0.0
 11
330.0
 21
241.25
 31
0.0
 70
   160
  1
\C4;136.5
  3
STANDARD
100
AcDbAlignedDimension
 13
171.7725
 23
304.646404
 33
0.0
 14
308.2725
 24
383.454716
 34
0.0
100
AcDbRotatedDimension
1001
ACAD
1000
DSTYLE
1002
{
1070
   287
1070
     3
1070
     7
1000
OPEN
1070
     6
1000
OPEN
1070
   279
1070
     0
1070
   172
1070
     1
1070
   173
1070
     1
1070
   340
1005
421
1070
   271
1070
     2
1070
   272
1070
     2
1070
    77
1070
     1
1070
    73
1070
     0
1070
   177
1070
     4
1070
   176
1070
     4
1070
   178
1070
     4
1070
    48
1040
-0.005
1070
    41
1041
2.0
1070
   147
1041
1.25
1070
    42
1041
0.0
1070
    44
1041
1.5
1070
   140
1041
5.0
1002
}
  0
DIMENSION
  5
495
330
1F
100
AcDbEntity
  8
1
  6
CONTINUOUS
 62
     4
100
AcDbDimension
  2
DIMNDRAFT3D9
 10
610.436737
 20
501.499985
 30
0.0
 11
584.174999
 21
502.5
 31
0.0
 70
   161
  1
\C4;%%c 7.2
  3
STANDARD
100
AcDbAlignedDimension
 13
603.286718
 23
469.473785
 33
0.0
 14
610.436718
 24
469.473781
 34
0.0
1001
ACAD
1000
DSTYLE
1002
{
1070
   287
1070
     3
1070
     7
1000
OPEN
1070
     6
1000
OPEN
1070
   279
1070
     0
1070
    74
1070
     0
1070
   173
1070
     1
1070
   340
1005
421
1070
   271
1070
     2
1070
   272
1070
     2
1070
    77
1070
     1
1070
    73
1070
     0
1070
   177
1070
     4
1070
   176
1070
     4
1070
   178
1070
     4
1070
    48
1040
-0.005
1070
    41
1041
2.0
1070
   147
1041
1.25
1070
    42
1041
0.0
1070
    44
1041
1.5
1070
   140
1041
5.0
1002
}
  0
ENDSEC
  0
SECTION
  2
OBJECTS
  0
DICTIONARY
  5
C
330
0
100
AcDbDictionary
  3
ACAD_GROUP
350
D
  3
ACAD_LAYOUT
350
1A
  3
ACAD_MATERIAL
350
3B
  3
ACAD_MLEADERSTYLE
350
4D2
  3
ACAD_MLINESTYLE
350
17
  3
ACAD_PLOTSETTINGS
350
19
  3
ACAD_VISUALSTYLE
350
2A
  3
ACDBHEADERROUNDTRIPXREC
350
4B0
  3
ACDBVARIABLEDICTIONARY
350
4D0
  0
DICTIONARY
  5
D
102
{ACAD_REACTORS
330
C
102
}
330
C
100
AcDbDictionary
  3
DIMENSION
350
49E
  3
DIMENSION2
350
49F
  0
DICTIONARY
  5
1A
102
{ACAD_REACTORS
330
C
102
}
330
C
100
AcDbDictionary
  0
DICTIONARY
  5
3B
102
{ACAD_REACTORS
330
C
102
}
330
C
100
AcDbDictionary
  3
BYBLOCK
350
3D
  3
BYLAYER
350
3C
  3
GLOBAL
350
3E
  0
DICTIONARY
  5
4D2
102
{ACAD_REACTORS
330
C
102
}
330
C
100
AcDbDictionary
  0
DICTIONARY
  5
17
102
{ACAD_REACTORS
330
C
102
}
330
C
100
AcDbDictionary
  3
STANDARD
350
18
  0
DICTIONARY
  5
19
102
{ACAD_REACTORS
330
C
102
}
330
C
100
AcDbDictionary
  0
DICTIONARY
  5
2A
102
{ACAD_REACTORS
330
C
102
}
330
C
100
AcDbDictionary
  3
2DWIREFRAME
350
2F
  3
3D_HIDDEN
350
31
  3
3DWIREFRAME
350
30
  3
BASIC
350
32
  3
BRIGHTEN
350
36
  3
COLORCHANGE
350
3A
  3
CONCEPTUAL
350
34
  3
DIM
350
35
  3
FACEPATTERN
350
39
  3
FLAT
350
2B
  3
FLATWITHEDGES
350
2C
  3
GOURAUD
350
2D
  3
GOURAUDWITHEDGES
350
2E
  3
LINEPATTERN
350
38
  3
REALISTIC
350
33
  3
THICKEN
350
37
  0
DICTIONARY
  5
4B0
102
{ACAD_REACTORS
330
C
102
}
330
C
100
AcDbDictionary
  3
CEPSNTYPE
350
4B9
  3
DIMSTYLEDATA
350
4CF
  3
FINGERPRINTGUID
350
4BA
  3
HYPERLINKBASE
350
4B3
  3
INSUNITS
350
4B8
  3
LAYOUTDICT
350
4B5
  3
LWETCUNION
350
4B7
  3
PLOTSETDICT
350
4B6
  3
PSVPSCALE
350
4BC
  3
PUCSBASE
350
4BF
  3
PUCSORGBACK
350
4C5
  3
PUCSORGBOTTOM
350
4C1
  3
PUCSORGFRONT
350
4C4
  3
PUCSORGLEFT
350
4C2
  3
PUCSORGRIGHT
350
4C3
  3
PUCSORGTOP
350
4C0
  3
PUCSORTHOREF
350
4BD
  3
PUCSORTHOVIEW
350
4BE
  3
STYLESHEET
350
4B4
  3
TSTACKALIGN
350
4B1
  3
TSTACKSIZE
350
4B2
  3
UCSBASE
350
4C8
  3
UCSORGBACK
350
4CE
  3
UCSORGBOTTOM
350
4CA
  3
UCSORGFRONT
350
4CD
  3
UCSORGLEFT
350
4CB
  3
UCSORGRIGHT
350
4CC
  3
UCSORGTOP
350
4C9
  3
UCSORTHOREF
350
4C6
  3
UCSORTHOVIEW
350
4C7
  3
VERSIONGUID
350
4BB
  0
DICTIONARY
  5
4D0
102
{ACAD_REACTORS
330
C
102
}
330
C
100
AcDbDictionary
  3
DIMASSOC
350
4D3
  3
HIDETEXT
350
4D4
  0
GROUP
  5
49E
102
{ACAD_REACTORS
330
D
102
}
330
D
100
AcDbGroup
300

 70
     0
 71
     1
340
143
340
420
340
144
340
145
  0
GROUP
  5
49F
102
{ACAD_REACTORS
330
D
102
}
330
D
100
AcDbGroup
300

 70
     0
 71
     1
340
148
340
422
340
149
340
14A
  0
MATERIAL
  5
3D
102
{ACAD_REACTORS
330
3B
102
}
102
{ACAD_XDICTIONARY
360
4D7
102
}
330
3B
100
AcDbMaterial
  1
ByBlock
  0
MATERIAL
  5
3C
102
{ACAD_REACTORS
330
3B
102
}
102
{ACAD_XDICTIONARY
360
4D5
102
}
330
3B
100
AcDbMaterial
  1
ByLayer
  0
MATERIAL
  5
3E
102
{ACAD_REACTORS
330
3B
102
}
102
{ACAD_XDICTIONARY
360
4D9
102
}
330
3B
100
AcDbMaterial
  1
Global
  0
MLINESTYLE
  5
18
102
{ACAD_REACTORS
330
17
102
}
330
17
100
AcDbMlineStyle
  2
Standard
 70
     0
  3

 62
   256
 51
90.0
 52
90.0
 71
     2
 49
0.5
 62
   256
  6
BYLAYER
 49
-0.5
 62
   256
  6
BYLAYER
  0
ACAD_PROXY_OBJECT
  5
2F
102
{ACAD_REACTORS
330
2A
102
}
330
2A
100
AcDbProxyObject
 90
      499
 91
      501
 93
      436
310
42CC9915DA5C99599C985B595049028333333333333E3BF0000000000000FB0107901411070040501600405405064090741402480A0340
1001
ACAD
1000
AcDbSavedByObjectVersion
1070
     0
  0
ACAD_PROXY_OBJECT
  5
31
102
{ACAD_REACTORS
330
2A
102
}
330
2A
100
AcDbProxyObject
 90
      499
 91
      501
 93
      500
310
424CD108121A5919195B90640502408333333333333E3BF0000000000000FB01079024090700405020000000000001110200405405064090740C02480A0340
1001
ACAD
1000
AcDbSavedByObjectVersion
1070
     0
  0
ACAD_PROXY_OBJECT
  5
30
102
{ACAD_REACTORS
330
2A
102
}
330
2A
100
AcDbProxyObject
 90
      499
 91
      501
 93
      436
310
42CCD915DA5C99599C985B595059028333333333333E3BF0000000000000FB0107901411070040501600405405064090741402480A0340
1001
ACAD
1000
AcDbSavedByObjectVersion
1070
     0
  0
ACAD_PROXY_OBJECT
  5
32
102
{ACAD_REACTORS
330
2A
102
}
330
2A
100
AcDbProxyObject
 90
      499
 91
      501
 93
      388
310
4150985CDA58D07406404333333333333E3BF0000000000000FB0107A41107004050150841D405064090741402480A0350
1001
ACAD
1000
AcDbSavedByObjectVersion
1070
     0
  0
ACAD_PROXY_OBJECT
  5
36
102
{ACAD_REACTORS
330
2A
102
}
330
2A
100
AcDbProxyObject
 90
      499
 91
      501
 93
      428
310
42109C9A59DA1D195B90C409028333333333333E3BF0000000000000FB010790141107004050150841D405064090741402480A029950
1001
ACAD
1000
AcDbSavedByObjectVersion
1070
     0
  0
ACAD_PROXY_OBJECT
  5
3A
102
{ACAD_REACTORS
330
2A
102
}
330
2A
100
AcDbProxyObject
 90
      499
 91
      501
 93
      452
310
42D0DBDB1BDC90DA185B99D95104090240C333333333333E3BF0000000000000FB0108901411070040501508421405064090741402480A0350
1001
ACAD
1000
AcDbSavedByObjectVersion
1070
     0
  0
ACAD_PROXY_OBJECT
  5
34
102
{ACAD_REACTORS
330
2A
102
}
330
2A
100
AcDbProxyObject
 90
      499
 91
      501
 93
      500
310
4290DBDB98D95C1D1D585B10940D028333333333333E3BF0000000000000FB0107902409070040501000000000000111010841D405064090740C02480A0340
1001
ACAD
1000
AcDbSavedByObjectVersion
1070
     0
  0
ACAD_PROXY_OBJECT
  5
35
102
{ACAD_REACTORS
330
2A
102
}
330
2A
100
AcDbProxyObject
 90
      499
 91
      501
 93
      412
310
40D11A5B50B409028333333333333E3BF0000000000000FB010790141107004050150841D405064090741402480A02677FFFFFD0
1001
ACAD
1000
AcDbSavedByObjectVersion
1070
     0
  0
ACAD_PROXY_OBJECT
  5
39
102
{ACAD_REACTORS
330
2A
102
}
330
2A
100
AcDbProxyObject
 90
      499
 91
      501
 93
      444
310
42D19858D95C185D1D195C9B90F409028333333333333E3BF0000000000000FB010790141107004050150841D405064090741402480A0350
1001
ACAD
1000
AcDbSavedByObjectVersion
1070
     0
  0
ACAD_PROXY_OBJECT
  5
2B
102
{ACAD_REACTORS
330
2A
102
}
330
2A
100
AcDbProxyObject
 90
      499
 91
      501
 93
      388
310
41119B185D240901404333333333333E3BF0000000000000F9010740A41107004050150841D405064090741402480A1B50
1001
ACAD
1000
AcDbSavedByObjectVersion
1070
     0
  0
ACAD_PROXY_OBJECT
  5
2C
102
{ACAD_REACTORS
330
2A
102
}
330
2A
100
AcDbProxyObject
 90
      499
 91
      501
 93
      476
310
43519B185D15DA5D1A115919D95CD0140901404333333333333E3BF0000000000000F9010740901411070040501600405405064090741402480A1B50
1001
ACAD
1000
AcDbSavedByObjectVersion
1070
     0
  0
ACAD_PROXY_OBJECT
  5
2D
102
{ACAD_REACTORS
330
2A
102
}
330
2A
100
AcDbProxyObject
 90
      499
 91
      501
 93
      412
310
41D1DBDD5C985D5910240902404333333333333E3BF0000000000000F9010740A411070040501641D405064090741402480A1B50
1001
ACAD
1000
AcDbSavedByObjectVersion
1070
     0
  0
ACAD_PROXY_OBJECT
  5
2E
102
{ACAD_REACTORS
330
2A
102
}
330
2A
100
AcDbProxyObject
 90
      499
 91
      501
 93
      500
310
4411DBDD5C985D5915DA5D1A115919D95CD0340902404333333333333E3BF0000000000000F9010740901411070040501600405405064090741402480A1B50
1001
ACAD
1000
AcDbSavedByObjectVersion
1070
     0
  0
ACAD_PROXY_OBJECT
  5
38
102
{ACAD_REACTORS
330
2A
102
}
330
2A
100
AcDbProxyObject
 90
      499
 91
      501
 93
      444
310
42D31A5B995C185D1D195C9B90E409028333333333333E3BF0000000000000FB010790141107004050750841D405064090741402483A0350
1001
ACAD
1000
AcDbSavedByObjectVersion
1070
     0
  0
ACAD_PROXY_OBJECT
  5
33
102
{ACAD_REACTORS
330
2A
102
}
330
2A
100
AcDbProxyObject
 90
      499
 91
      501
 93
      420
310
425499585B1A5CDD1A58D08409028333333333333E3BF0000000000000FB01079019070040501508421405064090741402480A1B40
1001
ACAD
1000
AcDbSavedByObjectVersion
1070
     0
  0
ACAD_PROXY_OBJECT
  5
37
102
{ACAD_REACTORS
330
2A
102
}
330
2A
100
AcDbProxyObject
 90
      499
 91
      501
 93
      412
310
41D51A1A58DAD95B90D409028333333333333E3BF0000000000000FB010790141107004050150C41D405064090741402480A0350
1001
ACAD
1000
AcDbSavedByObjectVersion
1070
     0
  0
XRECORD
  5
4B9
102
{ACAD_REACTORS
330
4B0
102
}
330
4B0
100
AcDbXrecord
 90
        0
  0
XRECORD
  5
4CF
102
{ACAD_REACTORS
330
4B0
102
}
330
4B0
100
AcDbXrecord
1000
DSTYLE
1002
{
1070
   171
 70
     2
1070
   143
 40
25.4
1070
   274
 70
     2
1070
    41
 40
0.18
1070
   141
 40
0.09
1070
   271
 70
     4
1070
    43
 40
0.38
1070
   278
 70
    46
1070
    44
 40
0.18
1070
    42
 40
0.0625
1070
   147
 40
0.09
1070
    77
 70
     0
1070
   272
 70
     4
1070
    73
 70
     1
1070
   172
 70
     0
1070
    74
 70
     1
1070
   283
 70
     1
1070
   340
340
11
1070
   140
 40
0.18
1070
   284
 70
     0
1070
    78
 70
     0
1002
}
  0
XRECORD
  5
4BA
102
{ACAD_REACTORS
330
4B0
102
}
330
4B0
100
AcDbXrecord
  1
{692DAB9D-DF99-4459-BC76-C48D6DFCCBDE}
  0
XRECORD
  5
4B3
102
{ACAD_REACTORS
330
4B0
102
}
330
4B0
100
AcDbXrecord
  1

  0
XRECORD
  5
4B8
102
{ACAD_REACTORS
330
4B0
102
}
330
4B0
100
AcDbXrecord
 90
        4
  0
XRECORD
  5
4B5
102
{ACAD_REACTORS
330
4B0
102
}
330
4B0
100
AcDbXrecord
340
1A
  0
XRECORD
  5
4B7
102
{ACAD_REACTORS
330
4B0
102
}
330
4B0
100
AcDbXrecord
 90
    10781
  0
XRECORD
  5
4B6
102
{ACAD_REACTORS
330
4B0
102
}
330
4B0
100
AcDbXrecord
340
19
  0
XRECORD
  5
4BC
102
{ACAD_REACTORS
330
4B0
102
}
330
4B0
100
AcDbXrecord
 40
0.0
  0
XRECORD
  5
4BF
102
{ACAD_REACTORS
330
4B0
102
}
330
4B0
100
AcDbXrecord
340
0
  0
XRECORD
  5
4C5
102
{ACAD_REACTORS
330
4B0
102
}
330
4B0
100
AcDbXrecord
 10
0.0
 20
0.0
 30
0.0
  0
XRECORD
  5
4C1
102
{ACAD_REACTORS
330
4B0
102
}
330
4B0
100
AcDbXrecord
 10
0.0
 20
0.0
 30
0.0
  0
XRECORD
  5
4C4
102
{ACAD_REACTORS
330
4B0
102
}
330
4B0
100
AcDbXrecord
 10
0.0
 20
0.0
 30
0.0
  0
XRECORD
  5
4C2
102
{ACAD_REACTORS
330
4B0
102
}
330
4B0
100
AcDbXrecord
 10
0.0
 20
0.0
 30
0.0
  0
XRECORD
  5
4C3
102
{ACAD_REACTORS
330
4B0
102
}
330
4B0
100
AcDbXrecord
 10
0.0
 20
0.0
 30
0.0
  0
XRECORD
  5
4C0
102
{ACAD_REACTORS
330
4B0
102
}
330
4B0
100
AcDbXrecord
 10
0.0
 20
0.0
 30
0.0
  0
XRECORD
  5
4BD
102
{ACAD_REACTORS
330
4B0
102
}
330
4B0
100
AcDbXrecord
340
0
  0
XRECORD
  5
4BE
102
{ACAD_REACTORS
330
4B0
102
}
330
4B0
100
AcDbXrecord
 70
     0
  0
XRECORD
  5
4B4
102
{ACAD_REACTORS
330
4B0
102
}
330
4B0
100
AcDbXrecord
  1

  0
XRECORD
  5
4B1
102
{ACAD_REACTORS
330
4B0
102
}
330
4B0
100
AcDbXrecord
 90
        1
  0
XRECORD
  5
4B2
102
{ACAD_REACTORS
330
4B0
102
}
330
4B0
100
AcDbXrecord
 90
       70
  0
XRECORD
  5
4C8
102
{ACAD_REACTORS
330
4B0
102
}
330
4B0
100
AcDbXrecord
340
0
  0
XRECORD
  5
4CE
102
{ACAD_REACTORS
330
4B0
102
}
330
4B0
100
AcDbXrecord
 10
0.0
 20
0.0
 30
0.0
  0
XRECORD
  5
4CA
102
{ACAD_REACTORS
330
4B0
102
}
330
4B0
100
AcDbXrecord
 10
0.0
 20
0.0
 30
0.0
  0
XRECORD
  5
4CD
102
{ACAD_REACTORS
330
4B0
102
}
330
4B0
100
AcDbXrecord
 10
0.0
 20
0.0
 30
0.0
  0
XRECORD
  5
4CB
102
{ACAD_REACTORS
330
4B0
102
}
330
4B0
100
AcDbXrecord
 10
0.0
 20
0.0
 30
0.0
  0
XRECORD
  5
4CC
102
{ACAD_REACTORS
330
4B0
102
}
330
4B0
100
AcDbXrecord
 10
0.0
 20
0.0
 30
0.0
  0
XRECORD
  5
4C9
102
{ACAD_REACTORS
330
4B0
102
}
330
4B0
100
AcDbXrecord
 10
0.0
 20
0.0
 30
0.0
  0
XRECORD
  5
4C6
102
{ACAD_REACTORS
330
4B0
102
}
330
4B0
100
AcDbXrecord
340
0
  0
XRECORD
  5
4C7
102
{ACAD_REACTORS
330
4B0
102
}
330
4B0
100
AcDbXrecord
 70
     0
  0
XRECORD
  5
4BB
102
{ACAD_REACTORS
330
4B0
102
}
330
4B0
100
AcDbXrecord
  1
{FAEB1C32-E019-11D5-929B-00C0DF256EC4}
  0
DICTIONARYVAR
  5
4D3
102
{ACAD_REACTORS
330
4D0
102
}
330
4D0
100
DictionaryVariables
280
     0
  1
2
  0
DICTIONARYVAR
  5
4D4
102
{ACAD_REACTORS
330
4D0
102
}
330
4D0
100
DictionaryVariables
280
     0
  1
1
  0
DICTIONARY
  5
4D7
330
3D
100
AcDbDictionary
280
     1
  3
ACAD_XREC_ROUNDTRIP
360
4D8
  0
DICTIONARY
  5
4D5
330
3C
100
AcDbDictionary
280
     1
  3
ACAD_XREC_ROUNDTRIP
360
4D6
  0
DICTIONARY
  5
4D9
330
3E
100
AcDbDictionary
280
     1
  3
ACAD_XREC_ROUNDTRIP
360
4DA
  0
XRECORD
  5
4D8
102
{ACAD_REACTORS
330
4D7
102
}
330
4D7
100
AcDbXrecord
102
MATERIAL
148
0.0
149
0.0
149
0.0
 93
        0
 94
      127
282
     0
 72
     1
 77
     1
171
     1
175
     1
179
     1
273
     0
  0
XRECORD
  5
4D6
102
{ACAD_REACTORS
330
4D5
102
}
330
4D5
100
AcDbXrecord
102
MATERIAL
148
0.0
149
0.0
149
0.0
 93
        0
 94
      127
282
     0
 72
     1
 77
     1
171
     1
175
     1
179
     1
273
     0
  0
XRECORD
  5
4DA
102
{ACAD_REACTORS
330
4D9
102
}
330
4D9
100
AcDbXrecord
102
MATERIAL
148
0.0
149
0.0
149
0.0
 93
        0
 94
      127
282
     0
 72
     1
 77
     1
171
     1
175
     1
179
     1
273
     0
  0
ENDSEC
  0
EOF
