  0
SECTION
  2
HEADER
  9
$ACADVER
  1
AC1014
  9
$ACADMAINTVER
 70
     9
  9
$DWGCODEPAGE
  3
ANSI_932
  9
$INSBASE
 10
0.0
 20
0.0
 30
0.0
  9
$EXTMIN
 10
-0.5
 20
-0.5
 30
-0.5
  9
$EXTMAX
 10
5.0
 20
5.0
 30
5.0
  9
$LIMMIN
 10
-0.5
 20
-0.5
  9
$LIMMAX
 10
5.0
 20
5.0
  9
$ORTHOMODE
 70
     0
  9
$REGENMODE
 70
     1
  9
$FILLMODE
 70
     1
  9
$QTEXTMODE
 70
     0
  9
$MIRRTEXT
 70
     1
  9
$DRAGMODE
 70
     2
  9
$LTSCALE
 40
1.0
  9
$OSMODE
 70
    37
  9
$ATTMODE
 70
     1
  9
$TEXTSIZE
 40
0.2
  9
$TRACEWID
 40
0.05
  9
$TEXTSTYLE
  7
STANDARD
  9
$CLAYER
  8
0
  9
$CELTYPE
  6
BYLAYER
  9
$CECOLOR
 62
   256
  9
$CELTSCALE
 40
1.0
  9
$DELOBJ
 70
     1
  9
$DISPSILH
 70
     0
  9
$DIMSCALE
 40
1.0
  9
$DIMASZ
 40
0.18
  9
$DIMEXO
 40
0.0625
  9
$DIMDLI
 40
0.38
  9
$DIMRND
 40
0.0
  9
$DIMDLE
 40
0.0
  9
$DIMEXE
 40
0.18
  9
$DIMTP
 40
0.0
  9
$DIMTM
 40
0.0
  9
$DIMTXT
 40
0.18
  9
$DIMCEN
 40
0.09
  9
$DIMTSZ
 40
0.0
  9
$DIMTOL
 70
     0
  9
$DIMLIM
 70
     0
  9
$DIMTIH
 70
     1
  9
$DIMTOH
 70
     1
  9
$DIMSE1
 70
     0
  9
$DIMSE2
 70
     0
  9
$DIMTAD
 70
     0
  9
$DIMZIN
 70
     0
  9
$DIMBLK
  1

  9
$DIMASO
 70
     1
  9
$DIMSHO
 70
     1
  9
$DIMPOST
  1

  9
$DIMAPOST
  1

  9
$DIMALT
 70
     0
  9
$DIMALTD
 70
     2
  9
$DIMALTF
 40
25.4
  9
$DIMLFAC
 40
1.0
  9
$DIMTOFL
 70
     0
  9
$DIMTVP
 40
0.0
  9
$DIMTIX
 70
     0
  9
$DIMSOXD
 70
     0
  9
$DIMSAH
 70
     0
  9
$DIMBLK1
  1

  9
$DIMBLK2
  1

  9
$DIMSTYLE
  2
STANDARD
  9
$DIMCLRD
 70
     0
  9
$DIMCLRE
 70
     0
  9
$DIMCLRT
 70
     0
  9
$DIMTFAC
 40
1.0
  9
$DIMGAP
 40
0.09
  9
$DIMJUST
 70
     0
  9
$DIMSD1
 70
     0
  9
$DIMSD2
 70
     0
  9
$DIMTOLJ
 70
     1
  9
$DIMTZIN
 70
     0
  9
$DIMALTZ
 70
     0
  9
$DIMALTTZ
 70
     0
  9
$DIMFIT
 70
     3
  9
$DIMUPT
 70
     0
  9
$DIMUNIT
 70
     2
  9
$DIMDEC
 70
     4
  9
$DIMTDEC
 70
     4
  9
$DIMALTU
 70
     2
  9
$DIMALTTD
 70
     2
  9
$DIMTXSTY
  7
STANDARD
  9
$DIMAUNIT
 70
     0
  9
$LUNITS
 70
     2
  9
$LUPREC
 70
     4
  9
$SKETCHINC
 40
0.1
  9
$FILLETRAD
 40
0.5
  9
$AUNITS
 70
     0
  9
$AUPREC
 70
     0
  9
$MENU
  1
.
  9
$ELEVATION
 40
0.0
  9
$PELEVATION
 40
0.0
  9
$THICKNESS
 40
0.0
  9
$LIMCHECK
 70
     0
  9
$CHAMFERA
 40
0.5
  9
$CHAMFERB
 40
0.5
  9
$CHAMFERC
 40
1.0
  9
$CHAMFERD
 40
0.0
  9
$SKPOLY
 70
     0
  9
$TDCREATE
 40
2457414.787488923
  9
$TDUPDATE
 40
2457414.787488935
  9
$TDINDWG
 40
0.0000000116
  9
$TDUSRTIMER
 40
0.0000000116
  9
$USRTIMER
 70
     1
  9
$ANGBASE
 50
0.0
  9
$ANGDIR
 70
     0
  9
$PDMODE
 70
     0
  9
$PDSIZE
 40
0.0
  9
$PLINEWID
 40
0.0
  9
$COORDS
 70
     1
  9
$SPLFRAME
 70
     0
  9
$SPLINETYPE
 70
     6
  9
$SPLINESEGS
 70
     8
  9
$ATTDIA
 70
     0
  9
$ATTREQ
 70
     1
  9
$HANDLING
 70
     1
  9
$HANDSEED
  5
4E4
  9
$SURFTAB1
 70
     6
  9
$SURFTAB2
 70
     6
  9
$SURFTYPE
 70
     6
  9
$SURFU
 70
     6
  9
$SURFV
 70
     6
  9
$UCSNAME
  2

  9
$UCSORG
 10
0.0
 20
0.0
 30
0.0
  9
$UCSXDIR
 10
1.0
 20
0.0
 30
0.0
  9
$UCSYDIR
 10
0.0
 20
1.0
 30
0.0
  9
$PUCSNAME
  2

  9
$PUCSORG
 10
0.0
 20
0.0
 30
0.0
  9
$PUCSXDIR
 10
1.0
 20
0.0
 30
0.0
  9
$PUCSYDIR
 10
0.0
 20
1.0
 30
0.0
  9
$USERI1
 70
     0
  9
$USERI2
 70
     0
  9
$USERI3
 70
     0
  9
$USERI4
 70
     0
  9
$USERI5
 70
     0
  9
$USERR1
 40
0.0
  9
$USERR2
 40
0.0
  9
$USERR3
 40
0.0
  9
$USERR4
 40
0.0
  9
$USERR5
 40
0.0
  9
$WORLDVIEW
 70
     1
  9
$SHADEDGE
 70
     3
  9
$SHADEDIF
 70
    70
  9
$TILEMODE
 70
     1
  9
$MAXACTVP
 70
    64
  9
$PINSBASE
 10
0.0
 20
0.0
 30
0.0
  9
$PLIMCHECK
 70
     0
  9
$PEXTMIN
 10
-0.5
 20
-0.5
 30
-0.5
  9
$PEXTMAX
 10
5.0
 20
5.0
 30
5.0
  9
$PLIMMIN
 10
-0.5
 20
-0.5
  9
$PLIMMAX
 10
5.0
 20
5.0
  9
$UNITMODE
 70
     0
  9
$VISRETAIN
 70
     1
  9
$PLINEGEN
 70
     0
  9
$PSLTSCALE
 70
     1
  9
$TREEDEPTH
 70
  3020
  9
$PICKSTYLE
 70
     1
  9
$CMLSTYLE
  2
STANDARD
  9
$CMLJUST
 70
     0
  9
$CMLSCALE
 40
1.0
  9
$PROXYGRAPHICS
 70
     1
  9
$MEASUREMENT
 70
     1
  0
ENDSEC
  0
SECTION
  2
CLASSES
  0
CLASS
  1
ACDBDICTIONARYWDFLT
  2
AcDbDictionaryWithDefault
  3
ObjectDBX Classes
 90
        0
280
     0
281
     0
  0
CLASS
  1
VISUALSTYLE
  2
AcDbVisualStyle
  3
ObjectDBX Classes
 90
     4095
280
     0
281
     0
  0
CLASS
  1
MATERIAL
  2
AcDbMaterial
  3
ObjectDBX Classes
 90
     1153
280
     0
281
     0
  0
CLASS
  1
DICTIONARYVAR
  2
AcDbDictionaryVar
  3
ObjectDBX Classes
 90
        0
280
     0
281
     0
  0
CLASS
  1
XRECORD
  2
AcDbXrecord
  3
AutoCAD 2000
 90
        0
280
     0
281
     0
  0
CLASS
  1
LWPOLYLINE
  2
AcDbPolyline
  3
AutoCAD 2000
 90
        0
280
     0
281
     1
  0
CLASS
  1
HATCH
  2
AcDbHatch
  3
AutoCAD 2000
 90
        0
280
     0
281
     1
  0
CLASS
  1
ACDBPLACEHOLDER
  2
AcDbPlaceHolder
  3
ObjectDBX Classes
 90
        0
280
     0
281
     0
  0
CLASS
  1
LAYOUT
  2
AcDbLayout
  3
ObjectDBX Classes
 90
        0
280
     0
281
     0
  0
ENDSEC
  0
SECTION
  2
TABLES
  0
TABLE
  2
VPORT
  5
8
330
0
100
AcDbSymbolTable
 70
    17
  0
VPORT
  5
29
330
8
100
AcDbSymbolTableRecord
100
AcDbViewportTableRecord
  2
DUMMY
 70
     0
 10
0.0
 20
0.0
 11
1.0
 21
1.0
 12
10.429907
 22
4.5
 13
0.0
 23
0.0
 14
0.5
 24
0.5
 15
0.5
 25
0.5
 16
0.0
 26
0.0
 36
1.0
 17
0.0
 27
0.0
 37
0.0
 40
9.0
 41
1.972973
 42
50.0
 43
0.0
 44
0.0
 50
0.0
 51
0.0
 71
     0
 72
   100
 73
     1
 74
     3
 75
     0
 76
     0
 77
     0
 78
     0
  0
VPORT
  5
4A9
330
8
100
AcDbSymbolTableRecord
100
AcDbViewportTableRecord
  2
*ACTIVE
 70
     0
 10
0.0
 20
0.0
 11
1.0
 21
1.0
 12
281.19137
 22
200.099997
 13
0.0
 23
0.0
 14
0.5
 24
0.5
 15
0.5
 25
0.5
 16
0.0
 26
0.0
 36
1.0
 17
0.0
 27
0.0
 37
0.0
 40
254.0
 41
0.069908
 42
50.0
 43
1032.630168
 44
-1032.630168
 50
0.0
 51
0.0
 71
     0
 72
   100
 73
     1
 74
     3
 75
     0
 76
     0
 77
     0
 78
     0
  0
VPORT
  5
4AA
330
8
100
AcDbSymbolTableRecord
100
AcDbViewportTableRecord
  2
L1
 70
     0
 10
0.0
 20
0.0
 11
1.0
 21
1.0
 12
281.19137
 22
200.099997
 13
0.0
 23
0.0
 14
0.5
 24
0.5
 15
0.5
 25
0.5
 16
0.0
 26
0.0
 36
1.0
 17
0.0
 27
0.0
 37
0.0
 40
254.0
 41
0.069908
 42
50.0
 43
1032.630168
 44
-1032.630168
 50
0.0
 51
0.0
 71
     0
 72
   100
 73
     1
 74
     3
 75
     0
 76
     0
 77
     0
 78
     0
  0
VPORT
  5
4AB
330
8
100
AcDbSymbolTableRecord
100
AcDbViewportTableRecord
  2
L2
 70
     0
 10
0.0
 20
0.0
 11
0.5
 21
1.0
 12
0.0
 22
0.0
 13
0.0
 23
0.0
 14
0.5
 24
0.5
 15
0.5
 25
0.5
 16
0.0
 26
-1.0
 36
0.0
 17
0.0
 27
0.0
 37
0.0
 40
1319.822715
 41
0.013454
 42
50.0
 43
672.020833
 44
-672.020833
 50
0.0
 51
0.0
 71
     0
 72
   100
 73
     1
 74
     3
 75
     0
 76
     0
 77
     0
 78
     0
  0
VPORT
  5
4AC
330
8
100
AcDbSymbolTableRecord
100
AcDbViewportTableRecord
  2
L2
 70
     0
 10
0.5
 20
0.0
 11
1.0
 21
1.0
 12
0.0
 22
0.0
 13
0.0
 23
0.0
 14
0.5
 24
0.5
 15
0.5
 25
0.5
 16
1.0
 26
0.0
 36
0.0
 17
0.0
 27
0.0
 37
0.0
 40
1319.822715
 41
0.013454
 42
50.0
 43
672.020833
 44
-672.020833
 50
0.0
 51
0.0
 71
     0
 72
   100
 73
     1
 74
     3
 75
     0
 76
     0
 77
     0
 78
     0
  0
VPORT
  5
4AD
330
8
100
AcDbSymbolTableRecord
100
AcDbViewportTableRecord
  2
L3
 70
     0
 10
0.0
 20
0.5
 11
1.0
 21
1.0
 12
281.19137
 22
200.099997
 13
0.0
 23
0.0
 14
0.5
 24
0.5
 15
0.5
 25
0.5
 16
0.0
 26
0.0
 36
1.0
 17
0.0
 27
0.0
 37
0.0
 40
254.0
 41
0.069908
 42
50.0
 43
1032.630168
 44
-1032.630168
 50
0.0
 51
0.0
 71
     0
 72
   100
 73
     1
 74
     3
 75
     0
 76
     0
 77
     0
 78
     0
  0
VPORT
  5
4AE
330
8
100
AcDbSymbolTableRecord
100
AcDbViewportTableRecord
  2
L3
 70
     0
 10
0.0
 20
0.0
 11
1.0
 21
0.5
 12
0.0
 22
0.0
 13
0.0
 23
0.0
 14
0.5
 24
0.5
 15
0.5
 25
0.5
 16
0.0
 26
-1.0
 36
0.0
 17
0.0
 27
0.0
 37
0.0
 40
1319.822715
 41
0.013454
 42
50.0
 43
672.020833
 44
-672.020833
 50
0.0
 51
0.0
 71
     0
 72
   100
 73
     1
 74
     3
 75
     0
 76
     0
 77
     0
 78
     0
  0
VPORT
  5
4AF
330
8
100
AcDbSymbolTableRecord
100
AcDbViewportTableRecord
  2
L4
 70
     0
 10
0.0
 20
0.5
 11
0.5
 21
1.0
 12
281.19137
 22
200.099997
 13
0.0
 23
0.0
 14
0.5
 24
0.5
 15
0.5
 25
0.5
 16
0.0
 26
0.0
 36
1.0
 17
0.0
 27
0.0
 37
0.0
 40
254.0
 41
0.069908
 42
50.0
 43
1032.630168
 44
-1032.630168
 50
0.0
 51
0.0
 71
     0
 72
   100
 73
     1
 74
     3
 75
     0
 76
     0
 77
     0
 78
     0
  0
VPORT
  5
4B0
330
8
100
AcDbSymbolTableRecord
100
AcDbViewportTableRecord
  2
L4
 70
     0
 10
0.0
 20
0.0
 11
0.5
 21
0.5
 12
0.0
 22
0.0
 13
0.0
 23
0.0
 14
0.5
 24
0.5
 15
0.5
 25
0.5
 16
0.0
 26
-1.0
 36
0.0
 17
0.0
 27
0.0
 37
0.0
 40
1319.822715
 41
0.013454
 42
50.0
 43
672.020833
 44
-672.020833
 50
0.0
 51
0.0
 71
     0
 72
   100
 73
     1
 74
     3
 75
     0
 76
     0
 77
     0
 78
     0
  0
VPORT
  5
4B1
330
8
100
AcDbSymbolTableRecord
100
AcDbViewportTableRecord
  2
L4
 70
     0
 10
0.5
 20
0.0
 11
1.0
 21
0.5
 12
0.0
 22
0.0
 13
0.0
 23
0.0
 14
0.5
 24
0.5
 15
0.5
 25
0.5
 16
1.0
 26
0.0
 36
0.0
 17
0.0
 27
0.0
 37
0.0
 40
1319.822715
 41
0.013454
 42
50.0
 43
672.020833
 44
-672.020833
 50
0.0
 51
0.0
 71
     0
 72
   100
 73
     1
 74
     3
 75
     0
 76
     0
 77
     0
 78
     0
  0
VPORT
  5
4B2
330
8
100
AcDbSymbolTableRecord
100
AcDbViewportTableRecord
  2
L4
 70
     0
 10
0.5
 20
0.5
 11
1.0
 21
1.0
 12
0.0
 22
0.0
 13
0.0
 23
0.0
 14
0.5
 24
0.5
 15
0.5
 25
0.5
 16
0.5773502691896258
 26
-0.5773502691896258
 36
0.5773502691896258
 17
0.0
 27
0.0
 37
0.0
 40
1285.020866
 41
0.013818
 42
50.0
 43
667.141407
 44
-667.141407
 50
0.0
 51
0.0
 71
     0
 72
   100
 73
     1
 74
     3
 75
     0
 76
     0
 77
     0
 78
     0
  0
VPORT
  5
4B3
330
8
100
AcDbSymbolTableRecord
100
AcDbViewportTableRecord
  2
L6
 70
     0
 10
0.0
 20
0.5
 11
0.333333
 21
1.0
 12
0.0
 22
0.0
 13
0.0
 23
0.0
 14
0.5
 24
0.5
 15
0.5
 25
0.5
 16
0.7188730927569433
 26
-0.5850486126764433
 36
0.3754192287502549
 17
0.0
 27
0.0
 37
0.0
 40
1357.434192
 41
0.013081
 42
50.0
 43
701.839477
 44
-701.839477
 50
0.0
 51
0.0
 71
     0
 72
   100
 73
     1
 74
     3
 75
     0
 76
     0
 77
     0
 78
     0
  0
VPORT
  5
4B4
330
8
100
AcDbSymbolTableRecord
100
AcDbViewportTableRecord
  2
L6
 70
     0
 10
0.0
 20
0.0
 11
0.333333
 21
0.5
 12
0.0
 22
0.0
 13
0.0
 23
0.0
 14
0.5
 24
0.5
 15
0.5
 25
0.5
 16
-1.0
 26
0.0
 36
0.0
 17
0.0
 27
0.0
 37
0.0
 40
1319.822715
 41
0.013454
 42
50.0
 43
672.020833
 44
-672.020833
 50
0.0
 51
0.0
 71
     0
 72
   100
 73
     1
 74
     3
 75
     0
 76
     0
 77
     0
 78
     0
  0
VPORT
  5
4B5
330
8
100
AcDbSymbolTableRecord
100
AcDbViewportTableRecord
  2
L6
 70
     0
 10
0.333333
 20
0.5
 11
0.666667
 21
1.0
 12
281.19137
 22
200.099997
 13
0.0
 23
0.0
 14
0.5
 24
0.5
 15
0.5
 25
0.5
 16
0.0
 26
0.0
 36
1.0
 17
0.0
 27
0.0
 37
0.0
 40
254.0
 41
0.069908
 42
50.0
 43
1032.630168
 44
-1032.630168
 50
0.0
 51
0.0
 71
     0
 72
   100
 73
     1
 74
     3
 75
     0
 76
     0
 77
     0
 78
     0
  0
VPORT
  5
4B6
330
8
100
AcDbSymbolTableRecord
100
AcDbViewportTableRecord
  2
L6
 70
     0
 10
0.333333
 20
0.0
 11
0.666667
 21
0.5
 12
0.0
 22
0.0
 13
0.0
 23
0.0
 14
0.5
 24
0.5
 15
0.5
 25
0.5
 16
0.0
 26
-1.0
 36
0.0
 17
0.0
 27
0.0
 37
0.0
 40
1319.822715
 41
0.013454
 42
50.0
 43
672.020833
 44
-672.020833
 50
0.0
 51
0.0
 71
     0
 72
   100
 73
     1
 74
     3
 75
     0
 76
     0
 77
     0
 78
     0
  0
VPORT
  5
4B7
330
8
100
AcDbSymbolTableRecord
100
AcDbViewportTableRecord
  2
L6
 70
     0
 10
0.666667
 20
0.5
 11
1.0
 21
1.0
 12
0.0
 22
0.0
 13
0.0
 23
0.0
 14
0.5
 24
0.5
 15
0.5
 25
0.5
 16
0.5773502691896258
 26
-0.5773502691896258
 36
0.5773502691896258
 17
0.0
 27
0.0
 37
0.0
 40
1285.020866
 41
0.013818
 42
50.0
 43
667.141407
 44
-667.141407
 50
0.0
 51
0.0
 71
     0
 72
   100
 73
     1
 74
     3
 75
     0
 76
     0
 77
     0
 78
     0
  0
VPORT
  5
4B8
330
8
100
AcDbSymbolTableRecord
100
AcDbViewportTableRecord
  2
L6
 70
     0
 10
0.666667
 20
0.0
 11
1.0
 21
0.5
 12
0.0
 22
0.0
 13
0.0
 23
0.0
 14
0.5
 24
0.5
 15
0.5
 25
0.5
 16
1.0
 26
0.0
 36
0.0
 17
0.0
 27
0.0
 37
0.0
 40
1319.822715
 41
0.013454
 42
50.0
 43
672.020833
 44
-672.020833
 50
0.0
 51
0.0
 71
     0
 72
   100
 73
     1
 74
     3
 75
     0
 76
     0
 77
     0
 78
     0
  0
ENDTAB
  0
TABLE
  2
LTYPE
  5
5
330
0
100
AcDbSymbolTable
 70
     7
  0
LTYPE
  5
14
330
5
100
AcDbSymbolTableRecord
100
AcDbLinetypeTableRecord
  2
BYBLOCK
 70
     0
  3

 72
    65
 73
     0
 40
0.0
  0
LTYPE
  5
15
330
5
100
AcDbSymbolTableRecord
100
AcDbLinetypeTableRecord
  2
BYLAYER
 70
     0
  3

 72
    65
 73
     0
 40
0.0
  0
LTYPE
  5
16
330
5
100
AcDbSymbolTableRecord
100
AcDbLinetypeTableRecord
  2
CONTINUOUS
 70
     0
  3
Solid line
 72
    65
 73
     0
 40
0.0
  0
LTYPE
  5
3F
330
5
100
AcDbSymbolTableRecord
100
AcDbLinetypeTableRecord
  2
DASHED
 70
     0
  3
__ __ __ __ __ __ __ __ __
 72
    65
 73
     2
 40
25.72
 49
12.86
 74
     4
 75
     0
340
0
 46
0.0
 50
0.0
 44
0.0
 45
0.0
 49
-12.86
 74
     4
 75
     0
340
0
 46
0.0
 50
0.0
 44
0.0
 45
0.0
  0
LTYPE
  5
40
330
5
100
AcDbSymbolTableRecord
100
AcDbLinetypeTableRecord
  2
HIDDEN
 70
     0
  3
_ _ _ _ _ _ _ _ _ _ _ _ _ _ _
 72
    65
 73
     2
 40
0.5
 49
0.25
 74
     4
 75
     0
340
0
 46
0.0
 50
0.0
 44
0.0
 45
0.0
 49
-0.25
 74
     4
 75
     0
340
0
 46
0.0
 50
0.0
 44
0.0
 45
0.0
  0
LTYPE
  5
41
330
5
100
AcDbSymbolTableRecord
100
AcDbLinetypeTableRecord
  2
PHANTOM
 70
     0
  3
____ _ _ ____ _ _ _____ _ _ ____
 72
    65
 73
     6
 40
50.5
 49
18.0
 74
     4
 75
     0
340
0
 46
0.0
 50
0.0
 44
0.0
 45
0.0
 49
-6.5
 74
     4
 75
     0
340
0
 46
0.0
 50
0.0
 44
0.0
 45
0.0
 49
6.5
 74
     4
 75
     0
340
0
 46
0.0
 50
0.0
 44
0.0
 45
0.0
 49
-6.5
 74
     4
 75
     0
340
0
 46
0.0
 50
0.0
 44
0.0
 45
0.0
 49
6.5
 74
     4
 75
     0
340
0
 46
0.0
 50
0.0
 44
0.0
 45
0.0
 49
-6.5
 74
     4
 75
     0
340
0
 46
0.0
 50
0.0
 44
0.0
 45
0.0
  0
LTYPE
  5
42
330
5
100
AcDbSymbolTableRecord
100
AcDbLinetypeTableRecord
  2
CENTER
 70
     0
  3
____ _ ____ _ ____ _ ____
 72
    65
 73
     4
 40
47.4
 49
22.0
 74
     4
 75
     0
340
0
 46
0.0
 50
0.0
 44
0.0
 45
0.0
 49
-8.5
 74
     4
 75
     0
340
0
 46
0.0
 50
0.0
 44
0.0
 45
0.0
 49
8.5
 74
     4
 75
     0
340
0
 46
0.0
 50
0.0
 44
0.0
 45
0.0
 49
-8.5
 74
     4
 75
     0
340
0
 46
0.0
 50
0.0
 44
0.0
 45
0.0
  0
LTYPE
  5
43
330
5
100
AcDbSymbolTableRecord
100
AcDbLinetypeTableRecord
  2
DOT
 70
     0
  3
.........................
 72
    65
 73
     2
 40
10.0
 49
0.0
 74
     4
 75
     0
340
0
 46
0.0
 50
0.0
 44
0.0
 45
0.0
 49
-10.0
 74
     4
 75
     0
340
0
 46
0.0
 50
0.0
 44
0.0
 45
0.0
  0
LTYPE
  5
44
330
5
100
AcDbSymbolTableRecord
100
AcDbLinetypeTableRecord
  2
DASHDOT
 70
     0
  3
_._._._._._._._._._._._._._._._.
 72
    65
 73
     4
 40
70.0
 49
31.0
 74
     4
 75
     0
340
0
 46
0.0
 50
0.0
 44
0.0
 45
0.0
 49
-13.0
 74
     4
 75
     0
340
0
 46
0.0
 50
0.0
 44
0.0
 45
0.0
 49
13.0
 74
     4
 75
     0
340
0
 46
0.0
 50
0.0
 44
0.0
 45
0.0
 49
-13.0
 74
     4
 75
     0
340
0
 46
0.0
 50
0.0
 44
0.0
 45
0.0
  0
ENDTAB
  0
TABLE
  2
LAYER
  5
2
330
0
100
AcDbSymbolTable
 70
     4
  0
LAYER
  5
10
330
2
100
AcDbSymbolTableRecord
100
AcDbLayerTableRecord
  2
0
 70
     0
 62
     7
  6
CONTINUOUS
  0
LAYER
  5
46
330
2
100
AcDbSymbolTableRecord
100
AcDbLayerTableRecord
  2
1
 70
     0
 62
     7
  6
CONTINUOUS
  0
LAYER
  5
441
330
2
100
AcDbSymbolTableRecord
100
AcDbLayerTableRecord
  2
256
 70
     0
 62
     7
  6
CONTINUOUS
  0
LAYER
  5
444
330
2
100
AcDbSymbolTableRecord
100
AcDbLayerTableRecord
  2
254
 70
     0
 62
     7
  6
CONTINUOUS
  0
ENDTAB
  0
TABLE
  2
STYLE
  5
3
330
0
100
AcDbSymbolTable
 70
     5
  0
STYLE
  5
11
330
3
100
AcDbSymbolTableRecord
100
AcDbTextStyleTableRecord
  2
STANDARD
 70
     0
 40
0.0
 41
1.0
 50
0.0
 71
     0
 42
0.2
  3
txt
  4

  0
STYLE
  5
43F
330
3
100
AcDbSymbolTableRecord
100
AcDbTextStyleTableRecord
  2
KANJI2
 70
     0
 40
0.0
 41
1.0
 50
0.0
 71
     0
 42
0.2
  3
simplex.shx
  4
bigfont.shx
  0
STYLE
  5
440
330
3
100
AcDbSymbolTableRecord
100
AcDbTextStyleTableRecord
  2
DWGDIRECTTEXTSTYLE
 70
     0
 40
0.0
 41
1.0
 50
0.0
 71
     0
 42
0.2
  3
simplex
  4

  0
STYLE
  5
443
330
3
100
AcDbSymbolTableRecord
100
AcDbTextStyleTableRecord
  2
IDEAS_KANJI
 70
     0
 40
0.0
 41
1.0
 50
0.0
 71
     0
 42
0.2
  3
simplex.shx
  4
bigfont.shx
  0
STYLE
  5
458
330
3
100
AcDbSymbolTableRecord
100
AcDbTextStyleTableRecord
  2
IDEAS_SIMPLEX
 70
     0
 40
0.0
 41
1.0
 50
0.0
 71
     0
 42
0.2
  3
simplex.shx
  4

  0
ENDTAB
  0
TABLE
  2
VIEW
  5
6
330
0
100
AcDbSymbolTable
 70
     8
  0
VIEW
  5
4A0
330
6
100
AcDbSymbolTableRecord
100
AcDbViewTableRecord
  2
TOP
 70
     0
 40
254.0
 10
281.19137
 20
200.099997
 41
254.0
 11
0.0
 21
0.0
 31
1.0
 12
0.0
 22
0.0
 32
0.0
 42
50.0
 43
1032.630168
 44
-1032.630168
 50
0.0
 71
     0
  0
VIEW
  5
4A1
330
6
100
AcDbSymbolTableRecord
100
AcDbViewTableRecord
  2
FRONT
 70
     0
 40
1319.822715
 10
0.0
 20
0.0
 41
254.0
 11
0.0
 21
-1.0
 31
0.0
 12
0.0
 22
0.0
 32
0.0
 42
50.0
 43
672.020833
 44
-672.020833
 50
0.0
 71
     0
  0
VIEW
  5
4A2
330
6
100
AcDbSymbolTableRecord
100
AcDbViewTableRecord
  2
RIGHT
 70
     0
 40
1319.822715
 10
0.0
 20
0.0
 41
254.0
 11
1.0
 21
0.0
 31
0.0
 12
0.0
 22
0.0
 32
0.0
 42
50.0
 43
672.020833
 44
-672.020833
 50
0.0
 71
     0
  0
VIEW
  5
4A3
330
6
100
AcDbSymbolTableRecord
100
AcDbViewTableRecord
  2
BACK
 70
     0
 40
1319.822715
 10
0.0
 20
0.0
 41
254.0
 11
0.0
 21
1.0
 31
0.0
 12
0.0
 22
0.0
 32
0.0
 42
50.0
 43
672.020833
 44
-672.020833
 50
0.0
 71
     0
  0
VIEW
  5
4A4
330
6
100
AcDbSymbolTableRecord
100
AcDbViewTableRecord
  2
BOTTOM
 70
     0
 40
254.0
 10
0.0
 20
0.0
 41
254.0
 11
0.0
 21
0.0
 31
-1.0
 12
0.0
 22
0.0
 32
0.0
 42
50.0
 43
659.911358
 44
-659.911358
 50
180.0
 71
     0
  0
VIEW
  5
4A5
330
6
100
AcDbSymbolTableRecord
100
AcDbViewTableRecord
  2
LEFT
 70
     0
 40
1319.822715
 10
0.0
 20
0.0
 41
254.0
 11
-1.0
 21
0.0
 31
0.0
 12
0.0
 22
0.0
 32
0.0
 42
50.0
 43
672.020833
 44
-672.020833
 50
0.0
 71
     0
  0
VIEW
  5
4A6
330
6
100
AcDbSymbolTableRecord
100
AcDbViewTableRecord
  2
TFR-ISO
 70
     0
 40
1285.020866
 10
0.0
 20
0.0
 41
359.210245
 11
0.5773502691896258
 21
-0.5773502691896258
 31
0.5773502691896258
 12
0.0
 22
0.0
 32
0.0
 42
50.0
 43
667.141407
 44
-667.141407
 50
0.0
 71
     0
  0
VIEW
  5
4A7
330
6
100
AcDbSymbolTableRecord
100
AcDbViewTableRecord
  2
TFR-TRI
 70
     0
 40
1357.434192
 10
0.0
 20
0.0
 41
357.33321
 11
0.7188730927569433
 21
-0.5850486126764433
 31
0.3754192287502549
 12
0.0
 22
0.0
 32
0.0
 42
50.0
 43
701.839477
 44
-701.839477
 50
0.0
 71
     0
  0
ENDTAB
  0
TABLE
  2
UCS
  5
7
330
0
100
AcDbSymbolTable
 70
     0
  0
ENDTAB
  0
TABLE
  2
APPID
  5
9
330
0
100
AcDbSymbolTable
 70
     1
  0
APPID
  5
12
330
9
100
AcDbSymbolTableRecord
100
AcDbRegAppTableRecord
  2
ACAD
 70
     0
  0
ENDTAB
  0
TABLE
  2
DIMSTYLE
  5
A
330
0
100
AcDbSymbolTable
 70
     1
  0
DIMSTYLE
105
27
102
{ACAD_REACTORS
330
44A
330
462
330
46E
330
47A
330
487
330
493
330
49F
102
}
330
A
100
AcDbSymbolTableRecord
100
AcDbDimStyleTableRecord
  2
STANDARD
 70
     0
  3

  4

  5

  6

  7

 40
1.0
 41
0.18
 42
0.0625
 43
0.38
 44
0.18
 45
0.0
 46
0.0
 47
0.0
 48
0.0
140
0.18
141
0.09
142
0.0
143
25.4
144
1.0
145
0.0
146
1.0
147
0.09
 71
     0
 72
     0
 73
     1
 74
     1
 75
     0
 76
     0
 77
     0
 78
     0
170
     0
171
     2
172
     0
173
     0
174
     0
175
     0
176
     0
177
     0
178
     0
270
     2
271
     4
272
     4
273
     2
274
     2
340
11
275
     0
280
     0
281
     0
282
     0
283
     1
284
     0
285
     0
286
     0
287
     3
288
     0
  0
ENDTAB
  0
TABLE
  2
BLOCK_RECORD
  5
1
330
0
100
AcDbSymbolTable
 70
     8
  0
BLOCK_RECORD
  5
1F
330
1
100
AcDbSymbolTableRecord
100
AcDbBlockTableRecord
  2
*MODEL_SPACE
  0
BLOCK_RECORD
  5
1B
330
1
100
AcDbSymbolTableRecord
100
AcDbBlockTableRecord
  2
*PAPER_SPACE
  0
BLOCK_RECORD
  5
44B
330
1
100
AcDbSymbolTableRecord
100
AcDbBlockTableRecord
  2
_OPEN
  0
BLOCK_RECORD
  5
456
330
1
100
AcDbSymbolTableRecord
100
AcDbBlockTableRecord
  2
DIMNDRAFT3D1
  0
BLOCK_RECORD
  5
463
330
1
100
AcDbSymbolTableRecord
100
AcDbBlockTableRecord
  2
DIMNDRAFT3D2
  0
BLOCK_RECORD
  5
46F
330
1
100
AcDbSymbolTableRecord
100
AcDbBlockTableRecord
  2
DIMNDRAFT3D3
  0
BLOCK_RECORD
  5
47B
330
1
100
AcDbSymbolTableRecord
100
AcDbBlockTableRecord
  2
DIMNDRAFT3D4
  0
BLOCK_RECORD
  5
488
330
1
100
AcDbSymbolTableRecord
100
AcDbBlockTableRecord
  2
DIMNDRAFT3D5
  0
BLOCK_RECORD
  5
494
330
1
100
AcDbSymbolTableRecord
100
AcDbBlockTableRecord
  2
DIMNDRAFT3D6
  0
ENDTAB
  0
ENDSEC
  0
SECTION
  2
BLOCKS
  0
BLOCK
  5
20
330
1F
100
AcDbEntity
  8
0
100
AcDbBlockBegin
  2
*MODEL_SPACE
 70
     0
 10
0.0
 20
0.0
 30
0.0
  3
*MODEL_SPACE
  1

  0
ENDBLK
  5
21
330
1F
100
AcDbEntity
  8
0
100
AcDbBlockEnd
  0
BLOCK
  5
1C
330
1B
100
AcDbEntity
 67
     1
  8
0
100
AcDbBlockBegin
  2
*PAPER_SPACE
 70
     0
 10
0.0
 20
0.0
 30
0.0
  3
*PAPER_SPACE
  1

  0
ENDBLK
  5
1D
330
1B
100
AcDbEntity
 67
     1
  8
0
100
AcDbBlockEnd
  0
BLOCK
  5
44C
330
44B
100
AcDbEntity
  8
0
100
AcDbBlockBegin
  2
_OPEN
 70
     0
 10
0.0
 20
0.0
 30
0.0
  3
_OPEN
  1

  0
LINE
  5
44E
330
44B
100
AcDbEntity
  8
0
  6
BYBLOCK
 62
     0
100
AcDbLine
 10
-1.0
 20
0.166667
 30
0.0
 11
0.0
 21
0.0
 31
0.0
  0
LINE
  5
44F
330
44B
100
AcDbEntity
  8
0
  6
BYBLOCK
 62
     0
100
AcDbLine
 10
-1.0
 20
-0.166667
 30
0.0
 11
0.0
 21
0.0
 31
0.0
  0
LINE
  5
450
330
44B
100
AcDbEntity
  8
0
  6
BYBLOCK
 62
     0
100
AcDbLine
 10
0.0
 20
0.0
 30
0.0
 11
-1.0
 21
0.0
 31
0.0
  0
ENDBLK
  5
44D
330
44B
100
AcDbEntity
  8
0
100
AcDbBlockEnd
  0
BLOCK
  5
460
330
456
100
AcDbEntity
  8
0
100
AcDbBlockBegin
  2
DIMNDRAFT3D1
 70
     0
 10
0.0
 20
0.0
 30
0.0
  3
DIMNDRAFT3D1
  1

  0
MTEXT
  5
457
330
456
100
AcDbEntity
  8
1
  6
CONTINUOUS
 62
     4
100
AcDbMText
 10
155.495696
 20
336.289299
 30
0.0
 40
2.5
 41
0.0
 71
     7
 72
     5
  1
\W01.000;\W00.809;60 
  7
IDEAS_SIMPLEX
1001
ACAD
1000
MTEXTBEGIN
1070
    73
1070
     2
1070
    44
1040
0.722892
1000
MTEXTEND
1000
ACAD_MTEXT_DEFINED_HEIGHT_BEGIN
1070
    46
1040
0.2
1000
ACAD_MTEXT_DEFINED_HEIGHT_END
  0
LINE
  5
459
330
456
100
AcDbEntity
  8
1
  6
CONTINUOUS
 62
     4
100
AcDbLine
 10
126.895696
 20
309.000593
 30
0.0
 11
126.895696
 21
337.997633
 31
0.0
  0
LINE
  5
45A
330
456
100
AcDbEntity
  8
1
  6
CONTINUOUS
 62
     4
100
AcDbLine
 10
186.895696
 20
309.000593
 30
0.0
 11
186.895696
 21
337.997633
 31
0.0
  0
LINE
  5
45B
330
456
100
AcDbEntity
  8
1
  6
CONTINUOUS
 62
     4
100
AcDbLine
 10
126.895696
 20
336.497633
 30
0.0
 11
186.895696
 21
336.497633
 31
0.0
  0
LINE
  5
45C
330
456
100
AcDbEntity
  8
1
  6
CONTINUOUS
 62
     4
100
AcDbLine
 10
126.895696
 20
336.497633
 30
0.0
 11
128.895694
 21
337.033531
 31
0.0
  0
LINE
  5
45D
330
456
100
AcDbEntity
  8
1
  6
CONTINUOUS
 62
     4
100
AcDbLine
 10
126.895696
 20
336.497633
 30
0.0
 11
128.895698
 21
335.961734
 31
0.0
  0
LINE
  5
45E
330
456
100
AcDbEntity
  8
1
  6
CONTINUOUS
 62
     4
100
AcDbLine
 10
186.895696
 20
336.497633
 30
0.0
 11
184.895698
 21
335.961734
 31
0.0
  0
LINE
  5
45F
330
456
100
AcDbEntity
  8
1
  6
CONTINUOUS
 62
     4
100
AcDbLine
 10
186.895696
 20
336.497633
 30
0.0
 11
184.895694
 21
337.033531
 31
0.0
  0
ENDBLK
  5
461
330
456
100
AcDbEntity
  8
0
100
AcDbBlockEnd
  0
BLOCK
  5
46C
330
463
100
AcDbEntity
  8
0
100
AcDbBlockBegin
  2
DIMNDRAFT3D2
 70
     0
 10
0.0
 20
0.0
 30
0.0
  3
DIMNDRAFT3D2
  1

  0
MTEXT
  5
464
330
463
100
AcDbEntity
  8
1
  6
CONTINUOUS
 62
     4
100
AcDbMText
 10
391.575
 20
293.916667
 30
0.0
 40
2.5
 41
0.0
 71
     7
 72
     5
  1
\W01.000;\W01.012;15.8 
  7
IDEAS_SIMPLEX
1001
ACAD
1000
MTEXTBEGIN
1070
    73
1070
     2
1070
    44
1040
0.722892
1000
MTEXTEND
1000
ACAD_MTEXT_DEFINED_HEIGHT_BEGIN
1070
    46
1040
0.2
1000
ACAD_MTEXT_DEFINED_HEIGHT_END
  0
LINE
  5
465
330
463
100
AcDbEntity
  8
1
  6
CONTINUOUS
 62
     4
100
AcDbLine
 10
417.966434
 20
305.600593
 30
0.0
 11
417.966434
 21
292.625
 31
0.0
  0
LINE
  5
466
330
463
100
AcDbEntity
  8
1
  6
CONTINUOUS
 62
     4
100
AcDbLine
 10
402.166434
 20
305.250593
 30
0.0
 11
402.166434
 21
292.625
 31
0.0
  0
LINE
  5
467
330
463
100
AcDbEntity
  8
1
  6
CONTINUOUS
 62
     4
100
AcDbLine
 10
417.966434
 20
294.125
 30
0.0
 11
391.075
 21
294.125
 31
0.0
  0
LINE
  5
468
330
463
100
AcDbEntity
  8
1
  6
CONTINUOUS
 62
     4
100
AcDbLine
 10
417.966434
 20
294.125
 30
0.0
 11
415.966435
 21
293.589102
 31
0.0
  0
LINE
  5
469
330
463
100
AcDbEntity
  8
1
  6
CONTINUOUS
 62
     4
100
AcDbLine
 10
417.966434
 20
294.125
 30
0.0
 11
415.966432
 21
294.660898
 31
0.0
  0
LINE
  5
46A
330
463
100
AcDbEntity
  8
1
  6
CONTINUOUS
 62
     4
100
AcDbLine
 10
402.166434
 20
294.125
 30
0.0
 11
404.166432
 21
294.660898
 31
0.0
  0
LINE
  5
46B
330
463
100
AcDbEntity
  8
1
  6
CONTINUOUS
 62
     4
100
AcDbLine
 10
402.166434
 20
294.125
 30
0.0
 11
404.166435
 21
293.589102
 31
0.0
  0
ENDBLK
  5
46D
330
463
100
AcDbEntity
  8
0
100
AcDbBlockEnd
  0
BLOCK
  5
478
330
46F
100
AcDbEntity
  8
0
100
AcDbBlockBegin
  2
DIMNDRAFT3D3
 70
     0
 10
0.0
 20
0.0
 30
0.0
  3
DIMNDRAFT3D3
  1

  0
MTEXT
  5
470
330
46F
100
AcDbEntity
  8
1
  6
CONTINUOUS
 62
     4
100
AcDbMText
 10
284.853934
 20
336.289299
 30
0.0
 40
2.5
 41
0.0
 71
     7
 72
     5
  1
\W01.000;\W00.888;130 
  7
IDEAS_SIMPLEX
1001
ACAD
1000
MTEXTBEGIN
1070
    73
1070
     2
1070
    44
1040
0.722892
1000
MTEXTEND
1000
ACAD_MTEXT_DEFINED_HEIGHT_BEGIN
1070
    46
1040
0.2
1000
ACAD_MTEXT_DEFINED_HEIGHT_END
  0
LINE
  5
471
330
46F
100
AcDbEntity
  8
1
  6
CONTINUOUS
 62
     4
100
AcDbLine
 10
222.266434
 20
308.500593
 30
0.0
 11
222.266434
 21
337.997633
 31
0.0
  0
LINE
  5
472
330
46F
100
AcDbEntity
  8
1
  6
CONTINUOUS
 62
     4
100
AcDbLine
 10
352.266434
 20
308.500593
 30
0.0
 11
352.266434
 21
337.997633
 31
0.0
  0
LINE
  5
473
330
46F
100
AcDbEntity
  8
1
  6
CONTINUOUS
 62
     4
100
AcDbLine
 10
222.266434
 20
336.497633
 30
0.0
 11
352.266434
 21
336.497633
 31
0.0
  0
LINE
  5
474
330
46F
100
AcDbEntity
  8
1
  6
CONTINUOUS
 62
     4
100
AcDbLine
 10
222.266434
 20
336.497633
 30
0.0
 11
224.266432
 21
337.033531
 31
0.0
  0
LINE
  5
475
330
46F
100
AcDbEntity
  8
1
  6
CONTINUOUS
 62
     4
100
AcDbLine
 10
222.266434
 20
336.497633
 30
0.0
 11
224.266435
 21
335.961734
 31
0.0
  0
LINE
  5
476
330
46F
100
AcDbEntity
  8
1
  6
CONTINUOUS
 62
     4
100
AcDbLine
 10
352.266434
 20
336.497633
 30
0.0
 11
350.266435
 21
335.961734
 31
0.0
  0
LINE
  5
477
330
46F
100
AcDbEntity
  8
1
  6
CONTINUOUS
 62
     4
100
AcDbLine
 10
352.266434
 20
336.497633
 30
0.0
 11
350.266432
 21
337.033531
 31
0.0
  0
ENDBLK
  5
479
330
46F
100
AcDbEntity
  8
0
100
AcDbBlockEnd
  0
BLOCK
  5
485
330
47B
100
AcDbEntity
  8
0
100
AcDbBlockBegin
  2
DIMNDRAFT3D4
 70
     0
 10
0.0
 20
0.0
 30
0.0
  3
DIMNDRAFT3D4
  1

  0
MTEXT
  5
47C
330
47B
100
AcDbEntity
  8
1
  6
CONTINUOUS
 62
     6
100
AcDbMText
 10
336.041284
 20
77.261837
 30
0.0
 40
2.5
 41
0.0
 71
     7
 72
     5
  1
\W01.000;\W00.836;1500±50 
  7
IDEAS_SIMPLEX
1001
ACAD
1000
MTEXTBEGIN
1070
    73
1070
     2
1070
    44
1040
0.722892
1000
MTEXTEND
1000
ACAD_MTEXT_DEFINED_HEIGHT_BEGIN
1070
    46
1040
0.2
1000
ACAD_MTEXT_DEFINED_HEIGHT_END
  0
MTEXT
  5
47D
330
47B
100
AcDbEntity
  8
1
  6
CONTINUOUS
 62
     6
100
AcDbMText
 10
328.341284
 20
77.288719
 30
0.0
 40
2.5
 41
0.0
 71
     7
 72
     5
  1
\W01.000;\W00.847;全長  
  7
IDEAS_KANJI
1001
ACAD
1000
MTEXTBEGIN
1070
    73
1070
     2
1070
    44
1040
0.722892
1000
MTEXTEND
1000
ACAD_MTEXT_DEFINED_HEIGHT_BEGIN
1070
    46
1040
0.2
1000
ACAD_MTEXT_DEFINED_HEIGHT_END
  0
LINE
  5
47E
330
47B
100
AcDbEntity
  8
1
  6
CONTINUOUS
 62
     6
100
AcDbLine
 10
245.38295
 20
106.405177
 30
0.0
 11
245.38295
 21
75.97017
 31
0.0
  0
LINE
  5
47F
330
47B
100
AcDbEntity
  8
1
  6
CONTINUOUS
 62
     6
100
AcDbLine
 10
432.049617
 20
106.829977
 30
0.0
 11
432.049617
 21
75.97017
 31
0.0
  0
LINE
  5
480
330
47B
100
AcDbEntity
  8
1
  6
CONTINUOUS
 62
     6
100
AcDbLine
 10
245.38295
 20
77.47017
 30
0.0
 11
432.049617
 21
77.47017
 31
0.0
  0
LINE
  5
481
330
47B
100
AcDbEntity
  8
1
  6
CONTINUOUS
 62
     6
100
AcDbLine
 10
245.38295
 20
77.47017
 30
0.0
 11
247.382948
 21
78.006069
 31
0.0
  0
LINE
  5
482
330
47B
100
AcDbEntity
  8
1
  6
CONTINUOUS
 62
     6
100
AcDbLine
 10
245.38295
 20
77.47017
 30
0.0
 11
247.382952
 21
76.934272
 31
0.0
  0
LINE
  5
483
330
47B
100
AcDbEntity
  8
1
  6
CONTINUOUS
 62
     6
100
AcDbLine
 10
432.049617
 20
77.47017
 30
0.0
 11
430.049619
 21
76.934272
 31
0.0
  0
LINE
  5
484
330
47B
100
AcDbEntity
  8
1
  6
CONTINUOUS
 62
     6
100
AcDbLine
 10
432.049617
 20
77.47017
 30
0.0
 11
430.049615
 21
78.006069
 31
0.0
  0
ENDBLK
  5
486
330
47B
100
AcDbEntity
  8
0
100
AcDbBlockEnd
  0
BLOCK
  5
491
330
488
100
AcDbEntity
  8
0
100
AcDbBlockBegin
  2
DIMNDRAFT3D5
 70
     0
 10
0.0
 20
0.0
 30
0.0
  3
DIMNDRAFT3D5
  1

  0
MTEXT
  5
489
330
488
100
AcDbEntity
  8
1
  6
CONTINUOUS
 62
     4
100
AcDbMText
 10
204.083333
 20
313.6
 30
0.0
 40
2.5
 41
0.0
 71
     7
 72
     5
  1
\W01.000;\W00.809;32 
  7
IDEAS_SIMPLEX
 11
6.123233995736766E-17
 21
1.0
 31
0.0
1001
ACAD
1000
MTEXTBEGIN
1070
    73
1070
     2
1070
    44
1040
0.722892
1000
MTEXTEND
1000
ACAD_MTEXT_DEFINED_HEIGHT_BEGIN
1070
    46
1040
0.2
1000
ACAD_MTEXT_DEFINED_HEIGHT_END
  0
LINE
  5
48A
330
488
100
AcDbEntity
  8
1
  6
CONTINUOUS
 62
     4
100
AcDbLine
 10
184.521325
 20
324.750593
 30
0.0
 11
205.375
 21
324.750593
 31
0.0
  0
LINE
  5
48B
330
488
100
AcDbEntity
  8
1
  6
CONTINUOUS
 62
     4
100
AcDbLine
 10
184.521325
 20
292.750593
 30
0.0
 11
205.375
 21
292.750593
 31
0.0
  0
LINE
  5
48C
330
488
100
AcDbEntity
  8
1
  6
CONTINUOUS
 62
     4
100
AcDbLine
 10
203.875
 20
324.750593
 30
0.0
 11
203.875
 21
292.750593
 31
0.0
  0
LINE
  5
48D
330
488
100
AcDbEntity
  8
1
  6
CONTINUOUS
 62
     4
100
AcDbLine
 10
203.875
 20
324.750593
 30
0.0
 11
204.410898
 21
322.750595
 31
0.0
  0
LINE
  5
48E
330
488
100
AcDbEntity
  8
1
  6
CONTINUOUS
 62
     4
100
AcDbLine
 10
203.875
 20
324.750593
 30
0.0
 11
203.339102
 21
322.750591
 31
0.0
  0
LINE
  5
48F
330
488
100
AcDbEntity
  8
1
  6
CONTINUOUS
 62
     4
100
AcDbLine
 10
203.875
 20
292.750593
 30
0.0
 11
203.339102
 21
294.750591
 31
0.0
  0
LINE
  5
490
330
488
100
AcDbEntity
  8
1
  6
CONTINUOUS
 62
     4
100
AcDbLine
 10
203.875
 20
292.750593
 30
0.0
 11
204.410898
 21
294.750595
 31
0.0
  0
ENDBLK
  5
492
330
488
100
AcDbEntity
  8
0
100
AcDbBlockEnd
  0
BLOCK
  5
49D
330
494
100
AcDbEntity
  8
0
100
AcDbBlockBegin
  2
DIMNDRAFT3D6
 70
     0
 10
0.0
 20
0.0
 30
0.0
  3
DIMNDRAFT3D6
  1

  0
MTEXT
  5
495
330
494
100
AcDbEntity
  8
1
  6
CONTINUOUS
 62
     4
100
AcDbMText
 10
427.083333
 20
317.5875
 30
0.0
 40
2.5
 41
0.0
 71
     7
 72
     5
  1
\W01.000;\W00.995;7.0 
  7
IDEAS_SIMPLEX
 11
6.123233995736766E-17
 21
1.0
 31
0.0
1001
ACAD
1000
MTEXTBEGIN
1070
    73
1070
     2
1070
    44
1040
0.722892
1000
MTEXTEND
1000
ACAD_MTEXT_DEFINED_HEIGHT_BEGIN
1070
    46
1040
0.2
1000
ACAD_MTEXT_DEFINED_HEIGHT_END
  0
LINE
  5
496
330
494
100
AcDbEntity
  8
1
  6
CONTINUOUS
 62
     4
100
AcDbLine
 10
414.966434
 20
312.250593
 30
0.0
 11
428.375
 21
312.250593
 31
0.0
  0
LINE
  5
497
330
494
100
AcDbEntity
  8
1
  6
CONTINUOUS
 62
     4
100
AcDbLine
 10
414.966434
 20
305.250593
 30
0.0
 11
428.375
 21
305.250593
 31
0.0
  0
LINE
  5
498
330
494
100
AcDbEntity
  8
1
  6
CONTINUOUS
 62
     4
100
AcDbLine
 10
426.875
 20
305.250593
 30
0.0
 11
426.875
 21
322.9125
 31
0.0
  0
LINE
  5
499
330
494
100
AcDbEntity
  8
1
  6
CONTINUOUS
 62
     4
100
AcDbLine
 10
426.875
 20
312.250593
 30
0.0
 11
427.410898
 21
310.250595
 31
0.0
  0
LINE
  5
49A
330
494
100
AcDbEntity
  8
1
  6
CONTINUOUS
 62
     4
100
AcDbLine
 10
426.875
 20
312.250593
 30
0.0
 11
426.339102
 21
310.250591
 31
0.0
  0
LINE
  5
49B
330
494
100
AcDbEntity
  8
1
  6
CONTINUOUS
 62
     4
100
AcDbLine
 10
426.875
 20
305.250593
 30
0.0
 11
426.339102
 21
307.250591
 31
0.0
  0
LINE
  5
49C
330
494
100
AcDbEntity
  8
1
  6
CONTINUOUS
 62
     4
100
AcDbLine
 10
426.875
 20
305.250593
 30
0.0
 11
427.410898
 21
307.250595
 31
0.0
  0
ENDBLK
  5
49E
330
494
100
AcDbEntity
  8
0
100
AcDbBlockEnd
  0
ENDSEC
  0
SECTION
  2
ENTITIES
  0
LINE
  5
45
330
1F
100
AcDbEntity
  8
1
  6
CONTINUOUS
 62
   251
100
AcDbLine
 10
120.545696
 20
82.812845
 30
0.0
 11
120.545696
 21
331.100593
 31
0.0
  0
LINE
  5
47
330
1F
100
AcDbEntity
  8
1
  6
CONTINUOUS
 62
   251
100
AcDbLine
 10
497.388742
 20
331.100593
 30
0.0
 11
120.545696
 21
331.100593
 31
0.0
  0
LINE
  5
48
330
1F
100
AcDbEntity
  8
1
  6
CONTINUOUS
 62
   251
100
AcDbLine
 10
497.388742
 20
331.100593
 30
0.0
 11
497.388742
 21
82.812845
 31
0.0
  0
LINE
  5
49
330
1F
100
AcDbEntity
  8
1
  6
CONTINUOUS
 62
   251
100
AcDbLine
 10
120.545696
 20
82.812845
 30
0.0
 11
497.388742
 21
82.812845
 31
0.0
  0
LINE
  5
4A
330
1F
100
AcDbEntity
  8
1
  6
CONTINUOUS
 62
   251
 60
     1
100
AcDbLine
 10
0.0
 20
0.0
 30
0.0
 11
0.0
 21
420.0
 31
0.0
  0
LINE
  5
4B
330
1F
100
AcDbEntity
  8
1
  6
CONTINUOUS
 62
   251
 60
     1
100
AcDbLine
 10
594.0
 20
420.0
 30
0.0
 11
0.0
 21
420.0
 31
0.0
  0
LINE
  5
4C
330
1F
100
AcDbEntity
  8
1
  6
CONTINUOUS
 62
   251
 60
     1
100
AcDbLine
 10
594.0
 20
420.0
 30
0.0
 11
594.0
 21
0.0
 31
0.0
  0
LINE
  5
4D
330
1F
100
AcDbEntity
  8
1
  6
CONTINUOUS
 62
   251
 60
     1
100
AcDbLine
 10
0.0
 20
0.0
 30
0.0
 11
594.0
 21
0.0
 31
0.0
  0
LINE
  5
4E
330
1F
100
AcDbEntity
  8
1
  6
CONTINUOUS
 62
     7
100
AcDbLine
 10
440.58295
 20
106.829977
 30
0.0
 11
432.049617
 21
106.829977
 31
0.0
  0
LINE
  5
4F
330
1F
100
AcDbEntity
  8
1
  6
CONTINUOUS
 62
     7
100
AcDbLine
 10
363.649617
 20
104.26331
 30
0.0
 11
363.649617
 21
108.996644
 31
0.0
  0
LINE
  5
50
330
1F
100
AcDbEntity
  8
1
  6
CONTINUOUS
 62
     7
100
AcDbLine
 10
364.049617
 20
105.329977
 30
0.0
 11
363.649617
 21
105.329977
 31
0.0
  0
LINE
  5
51
330
1F
100
AcDbEntity
  8
1
  6
CONTINUOUS
 62
     7
100
AcDbLine
 10
385.38295
 20
102.66331
 30
0.0
 11
362.049617
 21
102.66331
 31
0.0
  0
LINE
  5
52
330
1F
100
AcDbEntity
  8
1
  6
CONTINUOUS
 62
     7
100
AcDbLine
 10
315.766434
 20
246.90746
 30
0.0
 11
260.266434
 21
246.90746
 31
0.0
  0
LINE
  5
53
330
1F
100
AcDbEntity
  8
1
  6
CONTINUOUS
 62
     7
100
AcDbLine
 10
432.049617
 20
111.496644
 30
0.0
 11
432.049617
 21
106.829977
 31
0.0
  0
LINE
  5
54
330
1F
100
AcDbEntity
  8
1
  6
CONTINUOUS
 62
     7
100
AcDbLine
 10
245.38295
 20
106.405177
 30
0.0
 11
245.38295
 21
111.921443
 31
0.0
  0
LINE
  5
55
330
1F
100
AcDbEntity
  8
1
  6
CONTINUOUS
 62
     9
100
AcDbLine
 10
349.892063
 20
200.275302
 30
0.0
 11
349.892063
 21
248.539618
 31
0.0
  0
LINE
  5
56
330
1F
100
AcDbEntity
  8
1
  6
CONTINUOUS
 62
     9
100
AcDbLine
 10
224.640804
 20
248.539618
 30
0.0
 11
224.640804
 21
200.275302
 31
0.0
  0
LINE
  5
57
330
1F
100
AcDbEntity
  8
1
  6
CONTINUOUS
 62
     7
100
AcDbLine
 10
258.766434
 20
201.90746
 30
0.0
 11
315.766434
 21
201.90746
 31
0.0
  0
LINE
  5
58
330
1F
100
AcDbEntity
  8
1
  6
CONTINUOUS
 62
     7
100
AcDbLine
 10
222.266434
 20
308.500593
 30
0.0
 11
352.266434
 21
308.500593
 31
0.0
  0
LINE
  5
59
330
1F
100
AcDbEntity
  8
1
  6
CONTINUOUS
 62
     7
100
AcDbLine
 10
352.266433
 20
309.000593
 30
0.0
 11
222.266434
 21
309.000593
 31
0.0
  0
LINE
  5
5A
330
1F
100
AcDbEntity
  8
1
  6
CONTINUOUS
 62
     7
100
AcDbLine
 10
240.78295
 20
105.849365
 30
0.0
 11
240.78295
 21
108.02331
 31
0.0
  0
LINE
  5
5B
330
1F
100
AcDbEntity
  8
1
  6
CONTINUOUS
 62
     7
100
AcDbLine
 10
222.982036
 20
320.700593
 30
0.0
 11
222.572809
 21
320.700593
 31
0.0
  0
LINE
  5
5C
330
1F
100
AcDbEntity
  8
1
  6
CONTINUOUS
 62
     7
100
AcDbLine
 10
486.047862
 20
309.000061
 30
0.0
 11
486.047862
 21
312.000163
 31
0.0
  0
LINE
  5
5D
330
1F
100
AcDbEntity
  8
1
  6
CONTINUOUS
 62
     9
100
AcDbLine
 10
351.389265
 20
200.275302
 30
0.0
 11
351.389265
 21
248.539618
 31
0.0
  0
LINE
  5
5E
330
1F
100
AcDbEntity
  8
1
  6
CONTINUOUS
 62
     7
100
AcDbLine
 10
431.036717
 20
308.500045
 30
0.0
 11
455.287535
 21
308.500045
 31
0.0
  0
LINE
  5
5F
330
1F
100
AcDbEntity
  8
1
  6
CONTINUOUS
 62
     7
100
AcDbLine
 10
355.736434
 20
303.870708
 30
0.0
 11
355.736434
 21
313.630478
 31
0.0
  0
LINE
  5
60
330
1F
100
AcDbEntity
  8
1
  6
CONTINUOUS
 62
     9
100
AcDbLine
 10
346.398591
 20
294.15902
 30
0.0
 11
228.134276
 21
294.15902
 31
0.0
  0
LINE
  5
61
330
1F
100
AcDbEntity
  8
1
  6
CONTINUOUS
 62
     9
100
AcDbLine
 10
234.698172
 20
93.075205
 30
0.0
 11
235.160625
 21
92.612752
 31
0.0
  0
LINE
  5
62
330
1F
100
AcDbEntity
  8
1
  6
CONTINUOUS
 62
     7
100
AcDbLine
 10
431.036717
 20
309.000061
 30
0.0
 11
431.115277
 21
312.000163
 31
0.0
  0
LINE
  5
63
330
1F
100
AcDbEntity
  8
1
  6
CONTINUOUS
 62
     7
100
AcDbLine
 10
382.916284
 20
112.696644
 30
0.0
 11
382.916284
 21
113.296644
 31
0.0
  0
LINE
  5
64
330
1F
100
AcDbEntity
  8
1
  6
CONTINUOUS
 62
     7
100
AcDbLine
 10
366.516284
 20
112.696644
 30
0.0
 11
366.516284
 21
113.296644
 31
0.0
  0
LINE
  5
65
330
1F
100
AcDbEntity
  8
1
  6
CONTINUOUS
 62
     7
100
AcDbLine
 10
433.411167
 20
324.750593
 30
0.0
 11
488.664292
 21
324.750593
 31
0.0
  0
LINE
  5
66
330
1F
100
AcDbEntity
  8
1
  6
CONTINUOUS
 62
     7
100
AcDbLine
 10
372.049617
 20
110.829977
 30
0.0
 11
368.716284
 21
110.829977
 31
0.0
  0
LINE
  5
67
330
1F
100
AcDbEntity
  8
1
  6
CONTINUOUS
 62
     7
100
AcDbLine
 10
158.483463
 20
305.001006
 30
0.0
 11
157.76175
 21
306.251049
 31
0.0
  0
LINE
  5
68
330
1F
100
AcDbEntity
  8
1
  6
CONTINUOUS
 62
     7
100
AcDbLine
 10
311.38295
 20
99.165588
 30
0.0
 11
311.38295
 21
117.288608
 31
0.0
  0
LINE
  5
69
330
1F
100
AcDbEntity
  8
1
  6
CONTINUOUS
 62
     7
100
AcDbLine
 10
239.969617
 20
110.30331
 30
0.0
 11
239.969617
 21
112.501595
 31
0.0
  0
LINE
  5
6A
330
1F
100
AcDbEntity
  8
1
  6
CONTINUOUS
 62
     7
100
AcDbLine
 10
364.049617
 20
104.66331
 30
0.0
 11
363.649617
 21
104.66331
 31
0.0
  0
LINE
  5
6B
330
1F
100
AcDbEntity
  8
1
  6
CONTINUOUS
 62
     7
100
AcDbLine
 10
434.116284
 20
110.86331
 30
0.0
 11
434.116284
 21
109.796644
 31
0.0
  0
LINE
  5
6C
330
1F
100
AcDbEntity
  8
1
  6
CONTINUOUS
 62
     7
100
AcDbLine
 10
364.116434
 20
222.65746
 30
0.0
 11
365.316434
 21
222.65746
 31
0.0
  0
LINE
  5
6D
330
1F
100
AcDbEntity
  8
1
  6
CONTINUOUS
 62
     9
100
AcDbLine
 10
181.905022
 20
308.500593
 30
0.0
 11
181.905022
 21
305.500593
 31
0.0
  0
LINE
  5
6E
330
1F
100
AcDbEntity
  8
1
  6
CONTINUOUS
 62
     7
100
AcDbLine
 10
436.302189
 20
109.846441
 30
0.0
 11
435.099414
 21
111.049215
 31
0.0
  0
LINE
  5
6F
330
1F
100
AcDbEntity
  8
1
  6
CONTINUOUS
 62
     7
100
AcDbLine
 10
490.855248
 20
305.499943
 30
0.0
 11
490.161544
 21
294.157988
 31
0.0
  0
LINE
  5
70
330
1F
100
AcDbEntity
  8
1
  6
CONTINUOUS
 62
     7
100
AcDbLine
 10
436.904757
 20
323.342118
 30
0.0
 11
485.170702
 21
323.342118
 31
0.0
  0
LINE
  5
71
330
1F
100
AcDbEntity
  8
1
  6
CONTINUOUS
 62
     9
100
AcDbLine
 10
346.398591
 20
292.750593
 30
0.0
 11
346.398591
 21
294.15902
 31
0.0
  0
LINE
  5
72
330
1F
100
AcDbEntity
  8
1
  6
CONTINUOUS
 62
     7
100
AcDbLine
 10
158.223646
 20
312.851271
 30
0.0
 11
158.483463
 21
312.701266
 31
0.0
  0
LINE
  5
73
330
1F
100
AcDbEntity
  8
1
  6
CONTINUOUS
 62
     7
100
AcDbLine
 10
388.166434
 20
306.800593
 30
0.0
 11
388.166434
 21
310.700593
 31
0.0
  0
LINE
  5
74
330
1F
100
AcDbEntity
  8
1
  6
CONTINUOUS
 62
     9
100
AcDbLine
 10
346.398591
 20
196.78183
 30
0.0
 11
346.398591
 21
195.284628
 31
0.0
  0
LINE
  5
75
330
1F
100
AcDbEntity
  8
1
  6
CONTINUOUS
 62
     7
100
AcDbLine
 10
356.916434
 20
307.108719
 30
0.0
 11
356.916434
 21
303.643324
 31
0.0
  0
LINE
  5
76
330
1F
100
AcDbEntity
  8
1
  6
CONTINUOUS
 62
     9
100
AcDbLine
 10
222.792896
 20
209.852772
 30
0.0
 11
222.491831
 21
209.852772
 31
0.0
  0
LINE
  5
77
330
1F
100
AcDbEntity
  8
1
  6
CONTINUOUS
 62
     7
100
AcDbLine
 10
361.38295
 20
115.66331
 30
0.0
 11
361.38295
 21
110.996644
 31
0.0
  0
LINE
  5
78
330
1F
100
AcDbEntity
  8
1
  6
CONTINUOUS
 62
     7
100
AcDbLine
 10
145.340161
 20
317.556666
 30
0.0
 11
145.190823
 21
309.001141
 31
0.0
  0
LINE
  5
79
330
1F
100
AcDbEntity
  8
1
  6
CONTINUOUS
 62
     9
100
AcDbLine
 10
227.266434
 20
308.500593
 30
0.0
 11
227.266434
 21
309.000593
 31
0.0
  0
LINE
  5
7A
330
1F
100
AcDbEntity
  8
1
  6
CONTINUOUS
 62
     9
100
AcDbLine
 10
222.449921
 20
249.233298
 30
0.0
 11
223.143602
 21
248.539618
 31
0.0
  0
LINE
  5
7B
330
1F
100
AcDbEntity
  8
1
  6
CONTINUOUS
 62
     7
100
AcDbLine
 10
168.096074
 20
300.550856
 30
0.0
 11
168.396084
 21
300.550856
 31
0.0
  0
LINE
  5
7C
330
1F
100
AcDbEntity
  8
1
  6
CONTINUOUS
 62
     9
100
AcDbLine
 10
231.371056
 20
128.578532
 30
0.0
 11
231.833509
 21
129.040985
 31
0.0
  0
LINE
  5
7D
330
1F
100
AcDbEntity
  8
1
  6
CONTINUOUS
 62
     7
100
AcDbLine
 10
163.595922
 20
299.800831
 30
0.0
 11
163.595922
 21
299.850833
 31
0.0
  0
LINE
  5
7E
330
1F
100
AcDbEntity
  8
1
  6
CONTINUOUS
 62
     7
100
AcDbLine
 10
222.449921
 20
239.060029
 30
0.0
 11
222.792896
 21
238.962148
 31
0.0
  0
LINE
  5
7F
330
1F
100
AcDbEntity
  8
1
  6
CONTINUOUS
 62
     7
100
AcDbLine
 10
382.38295
 20
112.16331
 30
0.0
 11
382.38295
 21
113.829977
 31
0.0
  0
LINE
  5
80
330
1F
100
AcDbEntity
  8
1
  6
CONTINUOUS
 62
     7
100
AcDbLine
 10
367.049617
 20
106.16331
 30
0.0
 11
365.38295
 21
106.16331
 31
0.0
  0
LINE
  5
81
330
1F
100
AcDbEntity
  8
1
  6
CONTINUOUS
 62
     7
100
AcDbLine
 10
434.116284
 20
109.796644
 30
0.0
 11
433.58295
 21
109.796644
 31
0.0
  0
LINE
  5
82
330
1F
100
AcDbEntity
  8
1
  6
CONTINUOUS
 62
     7
100
AcDbLine
 10
377.38295
 20
107.496644
 30
0.0
 11
377.38295
 21
108.16331
 31
0.0
  0
LINE
  5
83
330
1F
100
AcDbEntity
  8
1
  6
CONTINUOUS
 62
     7
100
AcDbLine
 10
171.54876
 20
312.001243
 30
0.0
 11
171.450875
 21
317.609025
 31
0.0
  0
LINE
  5
84
330
1F
100
AcDbEntity
  8
1
  6
CONTINUOUS
 62
     7
100
AcDbLine
 10
360.516434
 20
229.378378
 30
0.0
 11
364.116434
 21
229.328526
 31
0.0
  0
LINE
  5
85
330
1F
100
AcDbEntity
  8
1
  6
CONTINUOUS
 62
     7
100
AcDbLine
 10
351.766434
 20
227.56805
 30
0.0
 11
351.766434
 21
221.24687
 31
0.0
  0
LINE
  5
86
330
1F
100
AcDbEntity
  8
1
  6
CONTINUOUS
 62
     7
100
AcDbLine
 10
385.38295
 20
107.996644
 30
0.0
 11
422.716284
 21
107.996644
 31
0.0
  0
LINE
  5
87
330
1F
100
AcDbEntity
  8
1
  6
CONTINUOUS
 62
     7
100
AcDbLine
 10
433.58295
 20
110.86331
 30
0.0
 11
433.58295
 21
109.796644
 31
0.0
  0
LINE
  5
88
330
1F
100
AcDbEntity
  8
1
  6
CONTINUOUS
 62
     7
100
AcDbLine
 10
415.766434
 20
307.350593
 30
0.0
 11
415.766434
 21
306.650593
 31
0.0
  0
LINE
  5
89
330
1F
100
AcDbEntity
  8
1
  6
CONTINUOUS
 62
     7
100
AcDbLine
 10
433.58295
 20
107.46331
 30
0.0
 11
433.58295
 21
108.529977
 31
0.0
  0
LINE
  5
8A
330
1F
100
AcDbEntity
  8
1
  6
CONTINUOUS
 62
     7
100
AcDbLine
 10
155.307929
 20
312.701266
 30
0.0
 11
156.029641
 21
311.451224
 31
0.0
  0
LINE
  5
8B
330
1F
100
AcDbEntity
  8
1
  6
CONTINUOUS
 62
     7
100
AcDbLine
 10
490.538725
 20
308.500045
 30
0.0
 11
490.538725
 21
309.000061
 31
0.0
  0
LINE
  5
8C
330
1F
100
AcDbEntity
  8
1
  6
CONTINUOUS
 62
     7
100
AcDbLine
 10
354.516434
 20
303.790761
 30
0.0
 11
354.516434
 21
313.710425
 31
0.0
  0
LINE
  5
8D
330
1F
100
AcDbEntity
  8
1
  6
CONTINUOUS
 62
     7
100
AcDbLine
 10
145.840845
 20
317.85144
 30
0.0
 11
145.841749
 21
317.799662
 31
0.0
  0
LINE
  5
8E
330
1F
100
AcDbEntity
  8
1
  6
CONTINUOUS
 62
     7
100
AcDbLine
 10
436.302189
 20
107.513107
 30
0.0
 11
435.099414
 21
108.715882
 31
0.0
  0
LINE
  5
8F
330
1F
100
AcDbEntity
  8
1
  6
CONTINUOUS
 62
     7
100
AcDbLine
 10
431.536734
 20
308.500045
 30
0.0
 11
431.536734
 21
309.000061
 31
0.0
  0
LINE
  5
90
330
1F
100
AcDbEntity
  8
1
  6
CONTINUOUS
 62
     7
100
AcDbLine
 10
237.596284
 20
112.610524
 30
0.0
 11
239.969617
 21
112.501595
 31
0.0
  0
LINE
  5
91
330
1F
100
AcDbEntity
  8
1
  6
CONTINUOUS
 62
     7
100
AcDbLine
 10
436.799503
 20
111.26331
 30
0.0
 11
442.58295
 21
111.26331
 31
0.0
  0
LINE
  5
92
330
1F
100
AcDbEntity
  8
1
  6
CONTINUOUS
 62
     9
100
AcDbLine
 10
346.398591
 20
252.03309
 30
0.0
 11
228.134276
 21
252.03309
 31
0.0
  0
LINE
  5
93
330
1F
100
AcDbEntity
  8
1
  6
CONTINUOUS
 62
     7
100
AcDbLine
 10
240.78295
 20
105.849365
 30
0.0
 11
243.18295
 21
105.8826
 31
0.0
  0
LINE
  5
94
330
1F
100
AcDbEntity
  8
1
  6
CONTINUOUS
 62
     7
100
AcDbLine
 10
167.956656
 20
299.800831
 30
0.0
 11
167.954847
 21
299.904432
 31
0.0
  0
LINE
  5
95
330
1F
100
AcDbEntity
  8
1
  6
CONTINUOUS
 62
     7
100
AcDbLine
 10
148.763016
 20
101.45988
 30
0.0
 11
148.616284
 21
101.362071
 31
0.0
  0
LINE
  5
96
330
1F
100
AcDbEntity
  8
1
  6
CONTINUOUS
 62
     7
100
AcDbLine
 10
222.344991
 20
209.754891
 30
0.0
 11
222.491831
 21
209.852772
 31
0.0
  0
LINE
  5
97
330
1F
100
AcDbEntity
  8
1
  6
CONTINUOUS
 62
     9
100
AcDbLine
 10
150.199197
 20
93.075205
 30
0.0
 11
149.201062
 21
93.075205
 31
0.0
  0
LINE
  5
98
330
1F
100
AcDbEntity
  8
1
  6
CONTINUOUS
 62
     7
100
AcDbLine
 10
367.416434
 20
222.65746
 30
0.0
 11
377.615672
 21
222.65746
 31
0.0
  0
LINE
  5
99
330
1F
100
AcDbEntity
  8
1
  6
CONTINUOUS
 62
     7
100
AcDbLine
 10
354.516434
 20
226.11746
 30
0.0
 11
354.516434
 21
229.653795
 31
0.0
  0
LINE
  5
9A
330
1F
100
AcDbEntity
  8
1
  6
CONTINUOUS
 62
     9
100
AcDbLine
 10
352.266434
 20
249.416786
 30
0.0
 11
352.187876
 21
249.416786
 31
0.0
  0
LINE
  5
9B
330
1F
100
AcDbEntity
  8
1
  6
CONTINUOUS
 62
     7
100
AcDbLine
 10
336.904075
 20
213.15627
 30
0.0
 11
337.01899
 21
212.909833
 31
0.0
  0
LINE
  5
9C
330
1F
100
AcDbEntity
  8
1
  6
CONTINUOUS
 62
     7
100
AcDbLine
 10
431.913915
 20
323.342118
 30
0.0
 11
431.220211
 21
312.000163
 31
0.0
  0
LINE
  5
9D
330
1F
100
AcDbEntity
  8
1
  6
CONTINUOUS
 62
     9
100
AcDbLine
 10
347.092272
 20
305.500593
 30
0.0
 11
346.398591
 21
294.15902
 31
0.0
  0
LINE
  5
9E
330
1F
100
AcDbEntity
  8
1
  6
CONTINUOUS
 62
     7
100
AcDbLine
 10
411.166434
 20
311.900593
 30
0.0
 11
411.166434
 21
312.250593
 31
0.0
  0
LINE
  5
9F
330
1F
100
AcDbEntity
  8
1
  6
CONTINUOUS
 62
     7
100
AcDbLine
 10
289.181114
 20
114.476349
 30
0.0
 11
311.38295
 21
112.53394
 31
0.0
  0
LINE
  5
A0
330
1F
100
AcDbEntity
  8
1
  6
CONTINUOUS
 62
     7
100
AcDbLine
 10
156.029641
 20
306.251049
 30
0.0
 11
155.307929
 21
305.001006
 31
0.0
  0
LINE
  5
A1
330
1F
100
AcDbEntity
  8
1
  6
CONTINUOUS
 62
     7
100
AcDbLine
 10
367.416434
 20
228.544659
 30
0.0
 11
367.416434
 21
220.270261
 31
0.0
  0
LINE
  5
A2
330
1F
100
AcDbEntity
  8
1
  6
CONTINUOUS
 62
     7
100
AcDbLine
 10
243.98295
 20
112.445745
 30
0.0
 11
244.841754
 21
112.454719
 31
0.0
  0
LINE
  5
A3
330
1F
100
AcDbEntity
  8
1
  6
CONTINUOUS
 62
     7
100
AcDbLine
 10
148.616284
 20
125.833062
 30
0.0
 11
148.616284
 21
116.96455
 31
0.0
  0
LINE
  5
A4
330
1F
100
AcDbEntity
  8
1
  6
CONTINUOUS
 62
     7
100
AcDbLine
 10
352.082946
 20
216.016618
 30
0.0
 11
352.187876
 21
216.016618
 31
0.0
  0
LINE
  5
A5
330
1F
100
AcDbEntity
  8
1
  6
CONTINUOUS
 62
     7
100
AcDbLine
 10
437.38295
 20
111.496644
 30
0.0
 11
437.38295
 21
106.829977
 31
0.0
  0
LINE
  5
A6
330
1F
100
AcDbEntity
  8
1
  6
CONTINUOUS
 62
     7
100
AcDbLine
 10
382.38295
 20
106.16331
 30
0.0
 11
384.049617
 21
106.16331
 31
0.0
  0
LINE
  5
A7
330
1F
100
AcDbEntity
  8
1
  6
CONTINUOUS
 62
     7
100
AcDbLine
 10
238.132792
 20
241.907241
 30
0.0
 11
237.861913
 21
241.930939
 31
0.0
  0
LINE
  5
A8
330
1F
100
AcDbEntity
  8
1
  6
CONTINUOUS
 62
     9
100
AcDbLine
 10
148.961143
 20
118.866436
 30
0.0
 11
148.76393
 21
118.866436
 31
0.0
  0
LINE
  5
A9
330
1F
100
AcDbEntity
  8
1
  6
CONTINUOUS
 62
     7
100
AcDbLine
 10
186.395696
 20
308.500593
 30
0.0
 11
186.395696
 21
309.000593
 31
0.0
  0
LINE
  5
AA
330
1F
100
AcDbEntity
  8
1
  6
CONTINUOUS
 62
     9
100
AcDbLine
 10
235.28295
 20
125.836169
 30
0.0
 11
235.230578
 21
125.836169
 31
0.0
  0
LINE
  5
AB
330
1F
100
AcDbEntity
  8
1
  6
CONTINUOUS
 62
     7
100
AcDbLine
 10
127.772864
 20
323.342166
 30
0.0
 11
127.079184
 21
312.000593
 31
0.0
  0
LINE
  5
AC
330
1F
100
AcDbEntity
  8
1
  6
CONTINUOUS
 62
     7
100
AcDbLine
 10
380.049617
 20
108.16331
 30
0.0
 11
380.049617
 21
110.16331
 31
0.0
  0
LINE
  5
AD
330
1F
100
AcDbEntity
  8
1
  6
CONTINUOUS
 62
     7
100
AcDbLine
 10
364.049617
 20
107.996644
 30
0.0
 11
363.649617
 21
107.996644
 31
0.0
  0
LINE
  5
AE
330
1F
100
AcDbEntity
  8
1
  6
CONTINUOUS
 62
     7
100
AcDbLine
 10
154.874902
 20
313.251285
 30
0.0
 11
154.874902
 21
312.951275
 31
0.0
  0
LINE
  5
AF
330
1F
100
AcDbEntity
  8
1
  6
CONTINUOUS
 62
     7
100
AcDbLine
 10
404.466434
 20
306.200593
 30
0.0
 11
404.466434
 21
307.800593
 31
0.0
  0
LINE
  5
B0
330
1F
100
AcDbEntity
  8
1
  6
CONTINUOUS
 62
     7
100
AcDbLine
 10
337.926092
 20
213.433549
 30
0.0
 11
337.770129
 21
213.656287
 31
0.0
  0
LINE
  5
B1
330
1F
100
AcDbEntity
  8
1
  6
CONTINUOUS
 62
     7
100
AcDbLine
 10
352.082946
 20
232.798302
 30
0.0
 11
352.187876
 21
232.798302
 31
0.0
  0
LINE
  5
B2
330
1F
100
AcDbEntity
  8
1
  6
CONTINUOUS
 62
     7
100
AcDbLine
 10
237.861913
 20
240.883508
 30
0.0
 11
238.132792
 21
240.907207
 31
0.0
  0
LINE
  5
B3
330
1F
100
AcDbEntity
  8
1
  6
CONTINUOUS
 62
     7
100
AcDbLine
 10
380.716284
 20
107.496644
 30
0.0
 11
380.716284
 21
110.829977
 31
0.0
  0
LINE
  5
B4
330
1F
100
AcDbEntity
  8
1
  6
CONTINUOUS
 62
     7
100
AcDbLine
 10
388.38295
 20
115.66331
 30
0.0
 11
388.38295
 21
110.996644
 31
0.0
  0
LINE
  5
B5
330
1F
100
AcDbEntity
  8
1
  6
CONTINUOUS
 62
     7
100
AcDbLine
 10
367.416434
 20
310.500593
 30
0.0
 11
377.217195
 21
310.500593
 31
0.0
  0
LINE
  5
B6
330
1F
100
AcDbEntity
  8
1
  6
CONTINUOUS
 62
     7
100
AcDbLine
 10
155.567745
 20
304.851001
 30
0.0
 11
155.307929
 21
305.001006
 31
0.0
  0
LINE
  5
B7
330
1F
100
AcDbEntity
  8
1
  6
CONTINUOUS
 62
     7
100
AcDbLine
 10
222.991211
 20
213.152269
 30
0.0
 11
222.991211
 21
235.662651
 31
0.0
  0
LINE
  5
B8
330
1F
100
AcDbEntity
  8
1
  6
CONTINUOUS
 62
     7
100
AcDbLine
 10
355.736434
 20
219.23664
 30
0.0
 11
355.736434
 21
222.69746
 31
0.0
  0
LINE
  5
B9
330
1F
100
AcDbEntity
  8
1
  6
CONTINUOUS
 62
     9
100
AcDbLine
 10
366.604639
 20
229.344573
 30
0.0
 11
366.604639
 21
219.470348
 31
0.0
  0
LINE
  5
BA
330
1F
100
AcDbEntity
  8
1
  6
CONTINUOUS
 62
     7
100
AcDbLine
 10
364.049617
 20
103.329977
 30
0.0
 11
362.049617
 21
103.329977
 31
0.0
  0
LINE
  5
BB
330
1F
100
AcDbEntity
  8
1
  6
CONTINUOUS
 62
     7
100
AcDbLine
 10
438.049617
 20
111.496644
 30
0.0
 11
438.049617
 21
111.26331
 31
0.0
  0
LINE
  5
BC
330
1F
100
AcDbEntity
  8
1
  6
CONTINUOUS
 62
     7
100
AcDbLine
 10
312.189968
 20
100.356531
 30
0.0
 11
312.189968
 21
117.358783
 31
0.0
  0
LINE
  5
BD
330
1F
100
AcDbEntity
  8
1
  6
CONTINUOUS
 62
     9
100
AcDbLine
 10
235.28295
 20
92.490452
 30
0.0
 11
235.230578
 21
92.490451
 31
0.0
  0
LINE
  5
BE
330
1F
100
AcDbEntity
  8
1
  6
CONTINUOUS
 62
     7
100
AcDbLine
 10
148.738609
 20
99.396676
 30
0.0
 11
148.738609
 21
92.612752
 31
0.0
  0
LINE
  5
BF
330
1F
100
AcDbEntity
  8
1
  6
CONTINUOUS
 62
     7
100
AcDbLine
 10
237.596284
 20
110.30331
 30
0.0
 11
237.596284
 21
112.610524
 31
0.0
  0
LINE
  5
C0
330
1F
100
AcDbEntity
  8
1
  6
CONTINUOUS
 62
     7
100
AcDbLine
 10
366.516284
 20
105.629977
 30
0.0
 11
365.38295
 21
105.629977
 31
0.0
  0
LINE
  5
C1
330
1F
100
AcDbEntity
  8
1
  6
CONTINUOUS
 62
     7
100
AcDbLine
 10
366.516284
 20
113.296644
 30
0.0
 11
365.38295
 21
113.296644
 31
0.0
  0
LINE
  5
C2
330
1F
100
AcDbEntity
  8
1
  6
CONTINUOUS
 62
     9
100
AcDbLine
 10
150.199197
 20
125.251416
 30
0.0
 11
149.201062
 21
125.251416
 31
0.0
  0
LINE
  5
C3
330
1F
100
AcDbEntity
  8
1
  6
CONTINUOUS
 62
     7
100
AcDbLine
 10
167.69606
 20
317.55143
 30
0.0
 11
146.095331
 21
317.55143
 31
0.0
  0
LINE
  5
C4
330
1F
100
AcDbEntity
  8
1
  6
CONTINUOUS
 62
     7
100
AcDbLine
 10
154.874902
 20
304.750998
 30
0.0
 11
152.595551
 21
304.750998
 31
0.0
  0
LINE
  5
C5
330
1F
100
AcDbEntity
  8
1
  6
CONTINUOUS
 62
     7
100
AcDbLine
 10
366.516284
 20
112.696644
 30
0.0
 11
365.38295
 21
112.696644
 31
0.0
  0
LINE
  5
C6
330
1F
100
AcDbEntity
  8
1
  6
CONTINUOUS
 62
     7
100
AcDbLine
 10
460.463386
 20
314.722704
 30
0.0
 11
461.612073
 21
314.722704
 31
0.0
  0
LINE
  5
C7
330
1F
100
AcDbEntity
  8
1
  6
CONTINUOUS
 62
     7
100
AcDbLine
 10
465.968888
 20
309.700085
 30
0.0
 11
466.025301
 21
309.700085
 31
0.0
  0
LINE
  5
C8
330
1F
100
AcDbEntity
  8
1
  6
CONTINUOUS
 62
     7
100
AcDbLine
 10
148.738609
 20
125.713869
 30
0.0
 11
148.738609
 21
118.929944
 31
0.0
  0
LINE
  5
C9
330
1F
100
AcDbEntity
  8
1
  6
CONTINUOUS
 62
     7
100
AcDbLine
 10
171.450875
 20
300.043246
 30
0.0
 11
171.546141
 21
305.501023
 31
0.0
  0
LINE
  5
CA
330
1F
100
AcDbEntity
  8
1
  6
CONTINUOUS
 62
     7
100
AcDbLine
 10
440.58295
 20
111.496644
 30
0.0
 11
441.649617
 21
111.26331
 31
0.0
  0
LINE
  5
CB
330
1F
100
AcDbEntity
  8
1
  6
CONTINUOUS
 62
     7
100
AcDbLine
 10
382.916284
 20
105.629977
 30
0.0
 11
382.916284
 21
105.029977
 31
0.0
  0
LINE
  5
CC
330
1F
100
AcDbEntity
  8
1
  6
CONTINUOUS
 62
     7
100
AcDbLine
 10
166.915747
 20
299.800831
 30
0.0
 11
166.916183
 21
299.850833
 31
0.0
  0
LINE
  5
CD
330
1F
100
AcDbEntity
  8
1
  6
CONTINUOUS
 62
     7
100
AcDbLine
 10
462.747787
 20
303.719998
 30
0.0
 11
462.747787
 21
303.640049
 31
0.0
  0
LINE
  5
CE
330
1F
100
AcDbEntity
  8
1
  6
CONTINUOUS
 62
     7
100
AcDbLine
 10
313.178394
 20
90.809071
 30
0.0
 11
314.491471
 21
91.040602
 31
0.0
  0
LINE
  5
CF
330
1F
100
AcDbEntity
  8
1
  6
CONTINUOUS
 62
     7
100
AcDbLine
 10
235.230578
 20
125.836169
 30
0.0
 11
235.230578
 21
114.757205
 31
0.0
  0
LINE
  5
D0
330
1F
100
AcDbEntity
  8
1
  6
CONTINUOUS
 62
     7
100
AcDbLine
 10
352.187876
 20
249.416786
 30
0.0
 11
352.187876
 21
232.798302
 31
0.0
  0
LINE
  5
D1
330
1F
100
AcDbEntity
  8
1
  6
CONTINUOUS
 62
     7
100
AcDbLine
 10
442.449617
 20
107.76331
 30
0.0
 11
441.116284
 21
107.76331
 31
0.0
  0
LINE
  5
D2
330
1F
100
AcDbEntity
  8
1
  6
CONTINUOUS
 62
     7
100
AcDbLine
 10
239.18295
 20
105.875982
 30
0.0
 11
239.18295
 21
112.450638
 31
0.0
  0
LINE
  5
D3
330
1F
100
AcDbEntity
  8
1
  6
CONTINUOUS
 62
     9
100
AcDbLine
 10
152.528178
 20
128.578532
 30
0.0
 11
152.065725
 21
129.040985
 31
0.0
  0
LINE
  5
D4
330
1F
100
AcDbEntity
  8
1
  6
CONTINUOUS
 62
     7
100
AcDbLine
 10
239.969617
 20
107.829977
 30
0.0
 11
240.78295
 21
107.829977
 31
0.0
  0
LINE
  5
D5
330
1F
100
AcDbEntity
  8
1
  6
CONTINUOUS
 62
     7
100
AcDbLine
 10
314.491471
 20
91.040602
 30
0.0
 11
313.796878
 21
94.979833
 31
0.0
  0
LINE
  5
D6
330
1F
100
AcDbEntity
  8
1
  6
CONTINUOUS
 62
     7
100
AcDbLine
 10
363.649617
 20
109.396644
 30
0.0
 11
362.449617
 21
109.396644
 31
0.0
  0
LINE
  5
D7
330
1F
100
AcDbEntity
  8
1
  6
CONTINUOUS
 62
     7
100
AcDbLine
 10
459.327672
 20
313.30661
 30
0.0
 11
459.327672
 21
313.267745
 31
0.0
  0
LINE
  5
D8
330
1F
100
AcDbEntity
  8
1
  6
CONTINUOUS
 62
     7
100
AcDbLine
 10
148.738609
 20
99.396676
 30
0.0
 11
148.961143
 21
99.460185
 31
0.0
  0
LINE
  5
D9
330
1F
100
AcDbEntity
  8
1
  6
CONTINUOUS
 62
     7
100
AcDbLine
 10
126.895696
 20
308.500593
 30
0.0
 11
145.193451
 21
308.500593
 31
0.0
  0
LINE
  5
DA
330
1F
100
AcDbEntity
  8
1
  6
CONTINUOUS
 62
     7
100
AcDbLine
 10
158.91649
 20
313.251285
 30
0.0
 11
158.91649
 21
312.951275
 31
0.0
  0
LINE
  5
DB
330
1F
100
AcDbEntity
  8
1
  6
CONTINUOUS
 62
     9
100
AcDbLine
 10
222.783722
 20
317.458186
 30
0.0
 11
222.487903
 21
317.458186
 31
0.0
  0
LINE
  5
DC
330
1F
100
AcDbEntity
  8
1
  6
CONTINUOUS
 62
     7
100
AcDbLine
 10
402.166434
 20
306.000593
 30
0.0
 11
396.166434
 21
306.000593
 31
0.0
  0
LINE
  5
DD
330
1F
100
AcDbEntity
  8
1
  6
CONTINUOUS
 62
     9
100
AcDbLine
 10
227.257107
 20
308.500593
 30
0.0
 11
227.257107
 21
305.500593
 31
0.0
  0
LINE
  5
DE
330
1F
100
AcDbEntity
  8
1
  6
CONTINUOUS
 62
     9
100
AcDbLine
 10
181.027854
 20
292.750593
 30
0.0
 11
181.027854
 21
294.15902
 31
0.0
  0
LINE
  5
DF
330
1F
100
AcDbEntity
  8
1
  6
CONTINUOUS
 62
     7
100
AcDbLine
 10
168.597555
 20
309.000593
 30
0.0
 11
186.895696
 21
309.000593
 31
0.0
  0
LINE
  5
E0
330
1F
100
AcDbEntity
  8
1
  6
CONTINUOUS
 62
     7
100
AcDbLine
 10
222.344991
 20
239.060029
 30
0.0
 11
222.449921
 21
239.060029
 31
0.0
  0
LINE
  5
E1
330
1F
100
AcDbEntity
  8
1
  6
CONTINUOUS
 62
     7
100
AcDbLine
 10
434.116284
 20
108.529977
 30
0.0
 11
433.58295
 21
108.529977
 31
0.0
  0
LINE
  5
E2
330
1F
100
AcDbEntity
  8
1
  6
CONTINUOUS
 62
     9
100
AcDbLine
 10
132.069858
 20
305.500593
 30
0.0
 11
132.763538
 21
294.15902
 31
0.0
  0
LINE
  5
E3
330
1F
100
AcDbEntity
  8
1
  6
CONTINUOUS
 62
     7
100
AcDbLine
 10
386.049617
 20
115.66331
 30
0.0
 11
386.049617
 21
110.996644
 31
0.0
  0
LINE
  5
E4
330
1F
100
AcDbEntity
  8
1
  6
CONTINUOUS
 62
     9
100
AcDbLine
 10
148.768195
 20
116.158676
 30
0.0
 11
148.657074
 21
116.158676
 31
0.0
  0
LINE
  5
E5
330
1F
100
AcDbEntity
  8
1
  6
CONTINUOUS
 62
     7
100
AcDbLine
 10
408.545291
 20
311.225897
 30
0.0
 11
406.741129
 21
309.421735
 31
0.0
  0
LINE
  5
E6
330
1F
100
AcDbEntity
  8
1
  6
CONTINUOUS
 62
     7
100
AcDbLine
 10
152.595551
 20
312.951275
 30
0.0
 11
154.874902
 21
312.951275
 31
0.0
  0
LINE
  5
E7
330
1F
100
AcDbEntity
  8
1
  6
CONTINUOUS
 62
     7
100
AcDbLine
 10
313.856819
 20
96.704423
 30
0.0
 11
310.798108
 21
92.336131
 31
0.0
  0
LINE
  5
E8
330
1F
100
AcDbEntity
  8
1
  6
CONTINUOUS
 62
     7
100
AcDbLine
 10
366.516284
 20
105.029977
 30
0.0
 11
365.38295
 21
105.029977
 31
0.0
  0
LINE
  5
E9
330
1F
100
AcDbEntity
  8
1
  6
CONTINUOUS
 62
     7
100
AcDbLine
 10
362.449617
 20
104.26331
 30
0.0
 11
362.449617
 21
108.996644
 31
0.0
  0
LINE
  5
EA
330
1F
100
AcDbEntity
  8
1
  6
CONTINUOUS
 62
     7
100
AcDbLine
 10
485.170702
 20
323.342118
 30
0.0
 11
485.864406
 21
312.000163
 31
0.0
  0
LINE
  5
EB
330
1F
100
AcDbEntity
  8
1
  6
CONTINUOUS
 62
     7
100
AcDbLine
 10
368.716284
 20
107.496644
 30
0.0
 11
368.716284
 21
110.829977
 31
0.0
  0
LINE
  5
EC
330
1F
100
AcDbEntity
  8
1
  6
CONTINUOUS
 62
     9
100
AcDbLine
 10
346.398591
 20
324.750593
 30
0.0
 11
346.398591
 21
323.342166
 31
0.0
  0
LINE
  5
ED
330
1F
100
AcDbEntity
  8
1
  6
CONTINUOUS
 62
     7
100
AcDbLine
 10
384.049617
 20
106.16331
 30
0.0
 11
384.049617
 21
104.496644
 31
0.0
  0
LINE
  5
EE
330
1F
100
AcDbEntity
  8
1
  6
CONTINUOUS
 62
     7
100
AcDbLine
 10
168.583113
 20
310.001175
 30
0.0
 11
168.396084
 21
310.001175
 31
0.0
  0
LINE
  5
EF
330
1F
100
AcDbEntity
  8
1
  6
CONTINUOUS
 62
     7
100
AcDbLine
 10
152.595551
 20
304.450988
 30
0.0
 11
152.595551
 21
304.750998
 31
0.0
  0
LINE
  5
F0
330
1F
100
AcDbEntity
  8
1
  6
CONTINUOUS
 62
     7
100
AcDbLine
 10
222.344991
 20
239.060029
 30
0.0
 11
222.344991
 21
249.416786
 31
0.0
  0
LINE
  5
F1
330
1F
100
AcDbEntity
  8
1
  6
CONTINUOUS
 62
     7
100
AcDbLine
 10
186.712208
 20
305.500593
 30
0.0
 11
186.018528
 21
294.15902
 31
0.0
  0
LINE
  5
F2
330
1F
100
AcDbEntity
  8
1
  6
CONTINUOUS
 62
     7
100
AcDbLine
 10
354.516434
 20
222.65746
 30
0.0
 11
355.736434
 21
222.65746
 31
0.0
  0
LINE
  5
F3
330
1F
100
AcDbEntity
  8
1
  6
CONTINUOUS
 62
     7
100
AcDbLine
 10
491.038742
 20
308.500045
 30
0.0
 11
490.960182
 21
305.499943
 31
0.0
  0
LINE
  5
F4
330
1F
100
AcDbEntity
  8
1
  6
CONTINUOUS
 62
     7
100
AcDbLine
 10
465.841841
 20
309.700085
 30
0.0
 11
465.859051
 21
309.700085
 31
0.0
  0
LINE
  5
F5
330
1F
100
AcDbEntity
  8
1
  6
CONTINUOUS
 62
     7
100
AcDbLine
 10
402.166434
 20
311.500593
 30
0.0
 11
396.166434
 21
311.500593
 31
0.0
  0
LINE
  5
F6
330
1F
100
AcDbEntity
  8
1
  6
CONTINUOUS
 62
     9
100
AcDbLine
 10
347.266434
 20
308.500593
 30
0.0
 11
347.266434
 21
309.000593
 31
0.0
  0
LINE
  5
F7
330
1F
100
AcDbEntity
  8
1
  6
CONTINUOUS
 62
     7
100
AcDbLine
 10
145.834736
 20
299.800831
 30
0.0
 11
145.836544
 21
299.904428
 31
0.0
  0
LINE
  5
F8
330
1F
100
AcDbEntity
  8
1
  6
CONTINUOUS
 62
     7
100
AcDbLine
 10
405.266434
 20
307.800593
 30
0.0
 11
404.466434
 21
307.800593
 31
0.0
  0
LINE
  5
F9
330
1F
100
AcDbEntity
  8
1
  6
CONTINUOUS
 62
     7
100
AcDbLine
 10
367.049617
 20
112.16331
 30
0.0
 11
365.38295
 21
112.16331
 31
0.0
  0
LINE
  5
FA
330
1F
100
AcDbEntity
  8
1
  6
CONTINUOUS
 62
     7
100
AcDbLine
 10
155.567745
 20
312.851271
 30
0.0
 11
156.289458
 21
311.601229
 31
0.0
  0
LINE
  5
FB
330
1F
100
AcDbEntity
  8
1
  6
CONTINUOUS
 62
     7
100
AcDbLine
 10
222.498179
 20
213.152269
 30
0.0
 11
222.49046
 21
212.852315
 31
0.0
  0
LINE
  5
FC
330
1F
100
AcDbEntity
  8
1
  6
CONTINUOUS
 62
     7
100
AcDbLine
 10
362.896434
 20
219.760721
 30
0.0
 11
362.896434
 21
229.054199
 31
0.0
  0
LINE
  5
FD
330
1F
100
AcDbEntity
  8
1
  6
CONTINUOUS
 62
     7
100
AcDbLine
 10
405.266434
 20
306.200593
 30
0.0
 11
405.266434
 21
307.800593
 31
0.0
  0
LINE
  5
FE
330
1F
100
AcDbEntity
  8
1
  6
CONTINUOUS
 62
     7
100
AcDbLine
 10
361.38295
 20
104.66331
 30
0.0
 11
361.38295
 21
103.329977
 31
0.0
  0
LINE
  5
FF
330
1F
100
AcDbEntity
  8
1
  6
CONTINUOUS
 62
     7
100
AcDbLine
 10
222.766434
 20
308.500593
 30
0.0
 11
222.766434
 21
309.000593
 31
0.0
  0
LINE
  5
100
330
1F
100
AcDbEntity
  8
1
  6
CONTINUOUS
 62
     7
100
AcDbLine
 10
146.095331
 20
299.850833
 30
0.0
 11
167.69606
 21
299.850833
 31
0.0
  0
LINE
  5
101
330
1F
100
AcDbEntity
  8
1
  6
CONTINUOUS
 62
     9
100
AcDbLine
 10
181.027854
 20
324.750593
 30
0.0
 11
181.027854
 21
323.342166
 31
0.0
  0
LINE
  5
102
330
1F
100
AcDbEntity
  8
1
  6
CONTINUOUS
 62
     9
100
AcDbLine
 10
152.528178
 20
89.748089
 30
0.0
 11
152.065725
 21
89.285636
 31
0.0
  0
LINE
  5
103
330
1F
100
AcDbEntity
  8
1
  6
CONTINUOUS
 62
     7
100
AcDbLine
 10
149.093352
 20
101.65985
 30
0.0
 11
149.093352
 21
116.666771
 31
0.0
  0
LINE
  5
104
330
1F
100
AcDbEntity
  8
1
  6
CONTINUOUS
 62
     7
100
AcDbLine
 10
236.400683
 20
240.907207
 30
0.0
 11
236.671561
 21
240.883508
 31
0.0
  0
LINE
  5
105
330
1F
100
AcDbEntity
  8
1
  6
CONTINUOUS
 62
     7
100
AcDbLine
 10
438.049617
 20
107.06331
 30
0.0
 11
438.049617
 21
106.829977
 31
0.0
  0
LINE
  5
106
330
1F
100
AcDbEntity
  8
1
  6
CONTINUOUS
 62
     9
100
AcDbLine
 10
227.440595
 20
254.223972
 30
0.0
 11
228.134276
 21
253.530292
 31
0.0
  0
LINE
  5
107
330
1F
100
AcDbEntity
  8
1
  6
CONTINUOUS
 62
     7
100
AcDbLine
 10
436.211053
 20
305.499943
 30
0.0
 11
436.904757
 21
294.157988
 31
0.0
  0
LINE
  5
108
330
1F
100
AcDbEntity
  8
1
  6
CONTINUOUS
 62
     7
100
AcDbLine
 10
466.756442
 20
309.000061
 30
0.0
 11
491.038742
 21
309.000061
 31
0.0
  0
LINE
  5
109
330
1F
100
AcDbEntity
  8
1
  6
CONTINUOUS
 62
     9
100
AcDbLine
 10
228.134276
 20
323.342166
 30
0.0
 11
227.440595
 21
312.000593
 31
0.0
  0
LINE
  5
10A
330
1F
100
AcDbEntity
  8
1
  6
CONTINUOUS
 62
     7
100
AcDbLine
 10
358.116434
 20
303.698397
 30
0.0
 11
358.116434
 21
307.108719
 31
0.0
  0
LINE
  5
10B
330
1F
100
AcDbEntity
  8
1
  6
CONTINUOUS
 62
     7
100
AcDbLine
 10
356.916434
 20
229.24362
 30
0.0
 11
356.916434
 21
219.5713
 31
0.0
  0
LINE
  5
10C
330
1F
100
AcDbEntity
  8
1
  6
CONTINUOUS
 62
     7
100
AcDbLine
 10
442.449617
 20
110.096644
 30
0.0
 11
442.449617
 21
110.56331
 31
0.0
  0
LINE
  5
10D
330
1F
100
AcDbEntity
  8
1
  6
CONTINUOUS
 62
     7
100
AcDbLine
 10
362.049617
 20
108.996644
 30
0.0
 11
362.049617
 21
111.66331
 31
0.0
  0
LINE
  5
10E
330
1F
100
AcDbEntity
  8
1
  6
CONTINUOUS
 62
     7
100
AcDbLine
 10
338.365305
 20
212.132538
 30
0.0
 11
338.636184
 21
212.156237
 31
0.0
  0
LINE
  5
10F
330
1F
100
AcDbEntity
  8
1
  6
CONTINUOUS
 62
     7
100
AcDbLine
 10
459.327672
 20
303.932351
 30
0.0
 11
459.327672
 21
303.893486
 31
0.0
  0
LINE
  5
110
330
1F
100
AcDbEntity
  8
1
  6
CONTINUOUS
 62
     9
100
AcDbLine
 10
233.700037
 20
93.075205
 30
0.0
 11
233.700037
 21
125.251416
 31
0.0
  0
LINE
  5
111
330
1F
100
AcDbEntity
  8
1
  6
CONTINUOUS
 62
     7
100
AcDbLine
 10
313.178394
 20
90.809071
 30
0.0
 11
312.715332
 21
93.435225
 31
0.0
  0
LINE
  5
112
330
1F
100
AcDbEntity
  8
1
  6
CONTINUOUS
 62
     7
100
AcDbLine
 10
372.049617
 20
110.16331
 30
0.0
 11
372.049617
 21
110.829977
 31
0.0
  0
LINE
  5
113
330
1F
100
AcDbEntity
  8
1
  6
CONTINUOUS
 62
     7
100
AcDbLine
 10
417.966434
 20
308.400593
 30
0.0
 11
417.966434
 21
305.600593
 31
0.0
  0
LINE
  5
114
330
1F
100
AcDbEntity
  8
1
  6
CONTINUOUS
 62
     7
100
AcDbLine
 10
222.449921
 20
239.060029
 30
0.0
 11
222.449921
 21
249.233298
 31
0.0
  0
LINE
  5
115
330
1F
100
AcDbEntity
  8
1
  6
CONTINUOUS
 62
     7
100
AcDbLine
 10
382.38295
 20
113.829977
 30
0.0
 11
384.049617
 21
113.829977
 31
0.0
  0
LINE
  5
116
330
1F
100
AcDbEntity
  8
1
  6
CONTINUOUS
 62
     7
100
AcDbLine
 10
222.266434
 20
212.702983
 30
0.0
 11
222.49046
 21
212.852315
 31
0.0
  0
LINE
  5
117
330
1F
100
AcDbEntity
  8
1
  6
CONTINUOUS
 62
     7
100
AcDbLine
 10
402.166434
 20
308.000593
 30
0.0
 11
396.166434
 21
308.000593
 31
0.0
  0
LINE
  5
118
330
1F
100
AcDbEntity
  8
1
  6
CONTINUOUS
 62
     7
100
AcDbLine
 10
148.616284
 20
101.362071
 30
0.0
 11
148.616284
 21
92.493556
 31
0.0
  0
LINE
  5
119
330
1F
100
AcDbEntity
  8
1
  6
CONTINUOUS
 62
     7
100
AcDbLine
 10
337.174953
 20
213.179969
 30
0.0
 11
336.904075
 21
213.15627
 31
0.0
  0
LINE
  5
11A
330
1F
100
AcDbEntity
  8
1
  6
CONTINUOUS
 62
     7
100
AcDbLine
 10
313.93276
 20
95.173892
 30
0.0
 11
311.568179
 21
91.796921
 31
0.0
  0
LINE
  5
11B
330
1F
100
AcDbEntity
  8
1
  6
CONTINUOUS
 62
     7
100
AcDbLine
 10
148.738609
 20
118.929944
 30
0.0
 11
148.668656
 21
118.929944
 31
0.0
  0
LINE
  5
11C
330
1F
100
AcDbEntity
  8
1
  6
CONTINUOUS
 62
     7
100
AcDbLine
 10
222.576737
 20
213.152269
 30
0.0
 11
222.576737
 21
235.662651
 31
0.0
  0
LINE
  5
11D
330
1F
100
AcDbEntity
  8
1
  6
CONTINUOUS
 62
     7
100
AcDbLine
 10
236.78295
 20
110.496644
 30
0.0
 11
237.596284
 21
110.496644
 31
0.0
  0
LINE
  5
11E
330
1F
100
AcDbEntity
  8
1
  6
CONTINUOUS
 62
     7
100
AcDbLine
 10
142.245251
 20
305.501023
 30
0.0
 11
142.340516
 21
300.043246
 31
0.0
  0
LINE
  5
11F
330
1F
100
AcDbEntity
  8
1
  6
CONTINUOUS
 62
     7
100
AcDbLine
 10
236.671561
 20
241.930939
 30
0.0
 11
236.400683
 21
241.907241
 31
0.0
  0
LINE
  5
120
330
1F
100
AcDbEntity
  8
1
  6
CONTINUOUS
 62
     7
100
AcDbLine
 10
367.416434
 20
304.613466
 30
0.0
 11
367.416434
 21
312.88772
 31
0.0
  0
LINE
  5
121
330
1F
100
AcDbEntity
  8
1
  6
CONTINUOUS
 62
     9
100
AcDbLine
 10
149.201062
 20
93.075205
 30
0.0
 11
148.738609
 21
92.612752
 31
0.0
  0
LINE
  5
122
330
1F
100
AcDbEntity
  8
1
  6
CONTINUOUS
 62
     7
100
AcDbLine
 10
361.696434
 20
307.108719
 30
0.0
 11
361.696434
 21
303.805538
 31
0.0
  0
LINE
  5
123
330
1F
100
AcDbEntity
  8
1
  6
CONTINUOUS
 62
     9
100
AcDbLine
 10
132.763538
 20
323.342166
 30
0.0
 11
132.069858
 21
312.000593
 31
0.0
  0
LINE
  5
124
330
1F
100
AcDbEntity
  8
1
  6
CONTINUOUS
 62
     7
100
AcDbLine
 10
388.307938
 20
110.329977
 30
0.0
 11
422.716284
 21
110.329977
 31
0.0
  0
LINE
  5
125
330
1F
100
AcDbEntity
  8
1
  6
CONTINUOUS
 62
     7
100
AcDbLine
 10
231.955809
 20
89.215682
 30
0.0
 11
151.943425
 21
89.215682
 31
0.0
  0
LINE
  5
126
330
1F
100
AcDbEntity
  8
1
  6
CONTINUOUS
 62
     7
100
AcDbLine
 10
364.116434
 20
226.10746
 30
0.0
 11
364.116434
 21
229.328526
 31
0.0
  0
LINE
  5
127
330
1F
100
AcDbEntity
  8
1
  6
CONTINUOUS
 62
     7
100
AcDbLine
 10
157.501934
 20
311.601229
 30
0.0
 11
158.223646
 21
312.851271
 31
0.0
  0
LINE
  5
128
330
1F
100
AcDbEntity
  8
1
  6
CONTINUOUS
 62
     7
100
AcDbLine
 10
364.049617
 20
111.66331
 30
0.0
 11
362.049617
 21
111.66331
 31
0.0
  0
LINE
  5
129
330
1F
100
AcDbEntity
  8
1
  6
CONTINUOUS
 62
     7
100
AcDbLine
 10
157.501934
 20
306.101044
 30
0.0
 11
157.76175
 21
306.251049
 31
0.0
  0
LINE
  5
12A
330
1F
100
AcDbEntity
  8
1
  6
CONTINUOUS
 62
     7
100
AcDbLine
 10
235.160625
 20
103.569415
 30
0.0
 11
235.230578
 21
103.569415
 31
0.0
  0
LINE
  5
12B
330
1F
100
AcDbEntity
  8
1
  6
CONTINUOUS
 62
     7
100
AcDbLine
 10
382.38295
 20
104.496644
 30
0.0
 11
384.049617
 21
104.496644
 31
0.0
  0
LINE
  5
12C
330
1F
100
AcDbEntity
  8
1
  6
CONTINUOUS
 62
     7
100
AcDbLine
 10
354.516434
 20
226.15746
 30
0.0
 11
355.736434
 21
226.15746
 31
0.0
  0
LINE
  5
12D
330
1F
100
AcDbEntity
  8
1
  6
CONTINUOUS
 62
     7
100
AcDbLine
 10
152.065725
 20
89.285636
 30
0.0
 11
231.833509
 21
89.285636
 31
0.0
  0
LINE
  5
12E
330
1F
100
AcDbEntity
  8
1
  6
CONTINUOUS
 62
     7
100
AcDbLine
 10
372.049617
 20
107.496644
 30
0.0
 11
372.049617
 21
108.16331
 31
0.0
  0
LINE
  5
12F
330
1F
100
AcDbEntity
  8
1
  6
CONTINUOUS
 62
     7
100
AcDbLine
 10
408.545291
 20
307.725897
 30
0.0
 11
406.741129
 21
305.921735
 31
0.0
  0
LINE
  5
130
330
1F
100
AcDbEntity
  8
1
  6
CONTINUOUS
 62
     7
100
AcDbLine
 10
351.766434
 20
299.75233
 30
0.0
 11
352.037352
 21
299.75233
 31
0.0
  0
LINE
  5
131
330
1F
100
AcDbEntity
  8
1
  6
CONTINUOUS
 62
     7
100
AcDbLine
 10
352.187876
 20
216.016618
 30
0.0
 11
352.187876
 21
199.398134
 31
0.0
  0
LINE
  5
132
330
1F
100
AcDbEntity
  8
1
  6
CONTINUOUS
 62
     7
100
AcDbLine
 10
362.449617
 20
109.396644
 30
0.0
 11
362.449617
 21
111.26331
 31
0.0
  0
LINE
  5
133
330
1F
100
AcDbEntity
  8
1
  6
CONTINUOUS
 62
     9
100
AcDbLine
 10
231.371056
 20
89.748089
 30
0.0
 11
231.833509
 21
89.285636
 31
0.0
  0
LINE
  5
134
330
1F
100
AcDbEntity
  8
1
  6
CONTINUOUS
 62
     7
100
AcDbLine
 10
160.595821
 20
299.800831
 30
0.0
 11
160.595821
 21
299.850833
 31
0.0
  0
LINE
  5
135
330
1F
100
AcDbEntity
  8
1
  6
CONTINUOUS
 62
     7
100
AcDbLine
 10
154.874902
 20
304.450988
 30
0.0
 11
152.595551
 21
304.450988
 31
0.0
  0
LINE
  5
136
330
1F
100
AcDbEntity
  8
1
  6
CONTINUOUS
 62
     7
100
AcDbLine
 10
161.195841
 20
304.450988
 30
0.0
 11
161.195841
 21
304.750998
 31
0.0
  0
LINE
  5
137
330
1F
100
AcDbEntity
  8
1
  6
CONTINUOUS
 62
     7
100
AcDbLine
 10
352.266434
 20
218.412671
 30
0.0
 11
352.266434
 21
199.398134
 31
0.0
  0
LINE
  5
138
330
1F
100
AcDbEntity
  8
1
  6
CONTINUOUS
 62
     7
100
AcDbLine
 10
431.036717
 20
309.000061
 30
0.0
 11
455.319017
 21
309.000061
 31
0.0
  0
LINE
  5
139
330
1F
100
AcDbEntity
  8
1
  6
CONTINUOUS
 62
     7
100
AcDbLine
 10
367.049617
 20
112.16331
 30
0.0
 11
367.049617
 21
113.829977
 31
0.0
  0
LINE
  5
13A
330
1F
100
AcDbEntity
  8
1
  6
CONTINUOUS
 62
     7
100
AcDbLine
 10
243.18295
 20
105.8826
 30
0.0
 11
243.18295
 21
108.029977
 31
0.0
  0
LINE
  5
13B
330
1F
100
AcDbEntity
  8
1
  6
CONTINUOUS
 62
     7
100
AcDbLine
 10
236.78295
 20
110.30331
 30
0.0
 11
236.78295
 21
112.660867
 31
0.0
  0
LINE
  5
13C
330
1F
100
AcDbEntity
  8
1
  6
CONTINUOUS
 62
     7
100
AcDbLine
 10
402.366434
 20
305.250593
 30
0.0
 11
402.366434
 21
312.250593
 31
0.0
  0
LINE
  5
13D
330
1F
100
AcDbEntity
  8
1
  6
CONTINUOUS
 62
     7
100
AcDbLine
 10
433.049617
 20
111.496644
 30
0.0
 11
433.049617
 21
106.829977
 31
0.0
  0
LINE
  5
13E
330
1F
100
AcDbEntity
  8
1
  6
CONTINUOUS
 62
     7
100
AcDbLine
 10
142.340516
 20
317.609025
 30
0.0
 11
142.242632
 21
312.001243
 31
0.0
  0
LINE
  5
13F
330
1F
100
AcDbEntity
  8
1
  6
CONTINUOUS
 62
     9
100
AcDbLine
 10
353.9093
 20
229.695096
 30
0.0
 11
353.9093
 21
219.119824
 31
0.0
  0
LINE
  5
140
330
1F
100
AcDbEntity
  8
1
  6
CONTINUOUS
 62
     7
100
AcDbLine
 10
364.049617
 20
108.996644
 30
0.0
 11
362.049617
 21
108.996644
 31
0.0
  0
LINE
  5
141
330
1F
100
AcDbEntity
  8
1
  6
CONTINUOUS
 62
     7
100
AcDbLine
 10
158.223646
 20
304.851001
 30
0.0
 11
158.483463
 21
305.001006
 31
0.0
  0
LINE
  5
142
330
1F
100
AcDbEntity
  8
1
  6
CONTINUOUS
 62
     7
100
AcDbLine
 10
240.78295
 20
110.30331
 30
0.0
 11
240.78295
 21
112.477256
 31
0.0
  0
LINE
  5
143
330
1F
100
AcDbEntity
  8
1
  6
CONTINUOUS
 62
     7
100
AcDbLine
 10
377.38295
 20
108.16331
 30
0.0
 11
380.049617
 21
108.16331
 31
0.0
  0
LINE
  5
144
330
1F
100
AcDbEntity
  8
1
  6
CONTINUOUS
 62
     7
100
AcDbLine
 10
243.98295
 20
105.880876
 30
0.0
 11
244.841754
 21
105.871902
 31
0.0
  0
LINE
  5
145
330
1F
100
AcDbEntity
  8
1
  6
CONTINUOUS
 62
     7
100
AcDbLine
 10
365.316434
 20
226.10746
 30
0.0
 11
365.316434
 21
229.331112
 31
0.0
  0
LINE
  5
146
330
1F
100
AcDbEntity
  8
1
  6
CONTINUOUS
 62
     7
100
AcDbLine
 10
442.449617
 20
110.56331
 30
0.0
 11
441.116284
 21
110.56331
 31
0.0
  0
LINE
  5
147
330
1F
100
AcDbEntity
  8
1
  6
CONTINUOUS
 62
     7
100
AcDbLine
 10
289.181114
 20
103.850272
 30
0.0
 11
311.38295
 21
105.792681
 31
0.0
  0
LINE
  5
148
330
1F
100
AcDbEntity
  8
1
  6
CONTINUOUS
 62
     9
100
AcDbLine
 10
227.257107
 20
194.40746
 30
0.0
 11
227.257107
 21
194.486018
 31
0.0
  0
LINE
  5
149
330
1F
100
AcDbEntity
  8
1
  6
CONTINUOUS
 62
    40
100
AcDbLine
 10
466.181254
 20
309.000061
 30
0.0
 11
466.756442
 21
309.000061
 31
0.0
  0
LINE
  5
14A
330
1F
100
AcDbEntity
  8
1
  6
CONTINUOUS
 62
     7
100
AcDbLine
 10
382.916284
 20
105.629977
 30
0.0
 11
384.049617
 21
105.629977
 31
0.0
  0
LINE
  5
14B
330
1F
100
AcDbEntity
  8
1
  6
CONTINUOUS
 62
     7
100
AcDbLine
 10
462.747787
 20
313.560047
 30
0.0
 11
462.747787
 21
313.480098
 31
0.0
  0
LINE
  5
14C
330
1F
100
AcDbEntity
  8
1
  6
CONTINUOUS
 62
     7
100
AcDbLine
 10
148.76393
 20
118.866436
 30
0.0
 11
148.668656
 21
118.929944
 31
0.0
  0
LINE
  5
14D
330
1F
100
AcDbEntity
  8
1
  6
CONTINUOUS
 62
     7
100
AcDbLine
 10
364.116434
 20
226.15746
 30
0.0
 11
365.316434
 21
226.15746
 31
0.0
  0
LINE
  5
14E
330
1F
100
AcDbEntity
  8
1
  6
CONTINUOUS
 62
     9
100
AcDbLine
 10
346.398591
 20
252.03309
 30
0.0
 11
346.398591
 21
253.530292
 31
0.0
  0
LINE
  5
14F
330
1F
100
AcDbEntity
  8
1
  6
CONTINUOUS
 62
     7
100
AcDbLine
 10
152.595551
 20
313.251285
 30
0.0
 11
154.874902
 21
313.251285
 31
0.0
  0
LINE
  5
150
330
1F
100
AcDbEntity
  8
1
  6
CONTINUOUS
 62
     7
100
AcDbLine
 10
351.389265
 20
323.342166
 30
0.0
 11
352.082946
 21
312.000593
 31
0.0
  0
LINE
  5
151
330
1F
100
AcDbEntity
  8
1
  6
CONTINUOUS
 62
     9
100
AcDbLine
 10
228.134276
 20
292.750593
 30
0.0
 11
228.134276
 21
294.15902
 31
0.0
  0
LINE
  5
152
330
1F
100
AcDbEntity
  8
1
  6
CONTINUOUS
 62
     7
100
AcDbLine
 10
352.116586
 20
223.833136
 30
0.0
 11
352.116586
 21
224.981784
 31
0.0
  0
LINE
  5
153
330
1F
100
AcDbEntity
  8
1
  6
CONTINUOUS
 62
     7
100
AcDbLine
 10
436.066487
 20
109.610739
 30
0.0
 11
434.863712
 21
110.813513
 31
0.0
  0
LINE
  5
154
330
1F
100
AcDbEntity
  8
1
  6
CONTINUOUS
 62
     7
100
AcDbLine
 10
377.38295
 20
110.16331
 30
0.0
 11
377.38295
 21
110.829977
 31
0.0
  0
LINE
  5
155
330
1F
100
AcDbEntity
  8
1
  6
CONTINUOUS
 62
     7
100
AcDbLine
 10
436.904757
 20
323.342118
 30
0.0
 11
436.211053
 21
312.000163
 31
0.0
  0
LINE
  5
156
330
1F
100
AcDbEntity
  8
1
  6
CONTINUOUS
 62
     7
100
AcDbLine
 10
347.092272
 20
194.590948
 30
0.0
 11
227.440595
 21
194.590948
 31
0.0
  0
LINE
  5
157
330
1F
100
AcDbEntity
  8
1
  6
CONTINUOUS
 62
     7
100
AcDbLine
 10
223.143602
 20
323.342166
 30
0.0
 11
222.449921
 21
312.000593
 31
0.0
  0
LINE
  5
158
330
1F
100
AcDbEntity
  8
1
  6
CONTINUOUS
 62
     7
100
AcDbLine
 10
337.01899
 20
212.402674
 30
0.0
 11
336.904075
 21
212.156237
 31
0.0
  0
LINE
  5
159
330
1F
100
AcDbEntity
  8
1
  6
CONTINUOUS
 62
     7
100
AcDbLine
 10
222.327568
 20
213.907334
 30
0.0
 11
222.494251
 21
213.907334
 31
0.0
  0
LINE
  5
15A
330
1F
100
AcDbEntity
  8
1
  6
CONTINUOUS
 62
     7
100
AcDbLine
 10
432.18295
 20
111.496644
 30
0.0
 11
432.18295
 21
106.829977
 31
0.0
  0
LINE
  5
15B
330
1F
100
AcDbEntity
  8
1
  6
CONTINUOUS
 62
     7
100
AcDbLine
 10
364.116434
 20
219.486394
 30
0.0
 11
364.116434
 21
222.70746
 31
0.0
  0
LINE
  5
15C
330
1F
100
AcDbEntity
  8
1
  6
CONTINUOUS
 62
     7
100
AcDbLine
 10
167.69606
 20
300.150843
 30
0.0
 11
167.69606
 21
299.850833
 31
0.0
  0
LINE
  5
15D
330
1F
100
AcDbEntity
  8
1
  6
CONTINUOUS
 62
     7
100
AcDbLine
 10
363.649617
 20
110.729977
 30
0.0
 11
362.449617
 21
110.729977
 31
0.0
  0
LINE
  5
15E
330
1F
100
AcDbEntity
  8
1
  6
CONTINUOUS
 62
     9
100
AcDbLine
 10
347.27576
 20
254.40746
 30
0.0
 11
347.27576
 21
254.328902
 31
0.0
  0
LINE
  5
15F
330
1F
100
AcDbEntity
  8
1
  6
CONTINUOUS
 62
     7
100
AcDbLine
 10
485.864406
 20
305.499943
 30
0.0
 11
485.170702
 21
294.157988
 31
0.0
  0
LINE
  5
160
330
1F
100
AcDbEntity
  8
1
  6
CONTINUOUS
 62
     7
100
AcDbLine
 10
148.820534
 20
101.65985
 30
0.0
 11
148.820534
 21
116.666771
 31
0.0
  0
LINE
  5
161
330
1F
100
AcDbEntity
  8
1
  6
CONTINUOUS
 62
     7
100
AcDbLine
 10
155.567745
 20
312.851271
 30
0.0
 11
155.307929
 21
312.701266
 31
0.0
  0
LINE
  5
162
330
1F
100
AcDbEntity
  8
1
  6
CONTINUOUS
 62
     7
100
AcDbLine
 10
222.449921
 20
209.754891
 30
0.0
 11
222.792896
 21
209.852772
 31
0.0
  0
LINE
  5
163
330
1F
100
AcDbEntity
  8
1
  6
CONTINUOUS
 62
     7
100
AcDbLine
 10
168.151267
 20
320.851541
 30
0.0
 11
145.640125
 21
320.851541
 31
0.0
  0
LINE
  5
164
330
1F
100
AcDbEntity
  8
1
  6
CONTINUOUS
 62
     7
100
AcDbLine
 10
382.916284
 20
113.296644
 30
0.0
 11
384.049617
 21
113.296644
 31
0.0
  0
LINE
  5
165
330
1F
100
AcDbEntity
  8
1
  6
CONTINUOUS
 62
     9
100
AcDbLine
 10
222.494301
 20
234.900509
 30
0.0
 11
222.327618
 21
234.900509
 31
0.0
  0
LINE
  5
166
330
1F
100
AcDbEntity
  8
1
  6
CONTINUOUS
 62
     7
100
AcDbLine
 10
243.18295
 20
110.496644
 30
0.0
 11
243.98295
 21
110.496644
 31
0.0
  0
LINE
  5
167
330
1F
100
AcDbEntity
  8
1
  6
CONTINUOUS
 62
     7
100
AcDbLine
 10
243.18295
 20
107.829977
 30
0.0
 11
243.98295
 21
107.829977
 31
0.0
  0
LINE
  5
168
330
1F
100
AcDbEntity
  8
1
  6
CONTINUOUS
 62
     7
100
AcDbLine
 10
158.91649
 20
304.450988
 30
0.0
 11
158.91649
 21
304.750998
 31
0.0
  0
LINE
  5
169
330
1F
100
AcDbEntity
  8
1
  6
CONTINUOUS
 62
     7
100
AcDbLine
 10
157.76175
 20
311.451224
 30
0.0
 11
158.483463
 21
312.701266
 31
0.0
  0
LINE
  5
16A
330
1F
100
AcDbEntity
  8
1
  6
CONTINUOUS
 62
     7
100
AcDbLine
 10
312.716284
 20
110.329977
 30
0.0
 11
340.587115
 21
110.329977
 31
0.0
  0
LINE
  5
16B
330
1F
100
AcDbEntity
  8
1
  6
CONTINUOUS
 62
     7
100
AcDbLine
 10
466.091756
 20
309.100066
 30
0.0
 11
465.968888
 21
309.700085
 31
0.0
  0
LINE
  5
16C
330
1F
100
AcDbEntity
  8
1
  6
CONTINUOUS
 62
     7
100
AcDbLine
 10
410.166434
 20
308.400593
 30
0.0
 11
417.966434
 21
308.400593
 31
0.0
  0
LINE
  5
16D
330
1F
100
AcDbEntity
  8
1
  6
CONTINUOUS
 62
     9
100
AcDbLine
 10
181.027854
 20
294.15902
 30
0.0
 11
132.763538
 21
294.15902
 31
0.0
  0
LINE
  5
16E
330
1F
100
AcDbEntity
  8
1
  6
CONTINUOUS
 62
     7
100
AcDbLine
 10
186.895696
 20
309.000593
 30
0.0
 11
186.817138
 21
312.000593
 31
0.0
  0
LINE
  5
16F
330
1F
100
AcDbEntity
  8
1
  6
CONTINUOUS
 62
     7
100
AcDbLine
 10
360.516434
 20
304.083054
 30
0.0
 11
360.516434
 21
313.418132
 31
0.0
  0
LINE
  5
170
330
1F
100
AcDbEntity
  8
1
  6
CONTINUOUS
 62
     7
100
AcDbLine
 10
237.266737
 20
240.40719
 30
0.0
 11
237.4227
 21
240.629929
 31
0.0
  0
LINE
  5
171
330
1F
100
AcDbEntity
  8
1
  6
CONTINUOUS
 62
     7
100
AcDbLine
 10
148.616284
 20
116.96455
 30
0.0
 11
148.763016
 21
116.86674
 31
0.0
  0
LINE
  5
172
330
1F
100
AcDbEntity
  8
1
  6
CONTINUOUS
 62
     7
100
AcDbLine
 10
145.395308
 20
317.151417
 30
0.0
 11
145.395308
 21
300.550856
 31
0.0
  0
LINE
  5
173
330
1F
100
AcDbEntity
  8
1
  6
CONTINUOUS
 62
     7
100
AcDbLine
 10
361.696434
 20
229.071988
 30
0.0
 11
361.696434
 21
219.742932
 31
0.0
  0
LINE
  5
174
330
1F
100
AcDbEntity
  8
1
  6
CONTINUOUS
 62
     7
100
AcDbLine
 10
465.815854
 20
306.958118
 30
0.0
 11
466.007849
 21
307.554233
 31
0.0
  0
LINE
  5
175
330
1F
100
AcDbEntity
  8
1
  6
CONTINUOUS
 62
     9
100
AcDbLine
 10
132.763538
 20
292.750593
 30
0.0
 11
132.763538
 21
294.15902
 31
0.0
  0
LINE
  5
176
330
1F
100
AcDbEntity
  8
1
  6
CONTINUOUS
 62
     9
100
AcDbLine
 10
227.440595
 20
305.500593
 30
0.0
 11
228.134276
 21
294.15902
 31
0.0
  0
LINE
  5
177
330
1F
100
AcDbEntity
  8
1
  6
CONTINUOUS
 62
     7
100
AcDbLine
 10
161.123218
 20
299.850833
 30
0.0
 11
161.113909
 21
299.800831
 31
0.0
  0
LINE
  5
178
330
1F
100
AcDbEntity
  8
1
  6
CONTINUOUS
 62
     7
100
AcDbLine
 10
314.085773
 20
96.310633
 30
0.0
 11
311.136759
 21
92.099004
 31
0.0
  0
LINE
  5
179
330
1F
100
AcDbEntity
  8
1
  6
CONTINUOUS
 62
     9
100
AcDbLine
 10
222.991211
 20
213.152269
 30
0.0
 11
222.576737
 21
213.152269
 31
0.0
  0
LINE
  5
17A
330
1F
100
AcDbEntity
  8
1
  6
CONTINUOUS
 62
     7
100
AcDbLine
 10
436.027559
 20
308.500045
 30
0.0
 11
436.027559
 21
305.499943
 31
0.0
  0
LINE
  5
17B
330
1F
100
AcDbEntity
  8
1
  6
CONTINUOUS
 62
     7
100
AcDbLine
 10
337.770129
 20
211.65622
 30
0.0
 11
337.926092
 21
211.878958
 31
0.0
  0
LINE
  5
17C
330
1F
100
AcDbEntity
  8
1
  6
CONTINUOUS
 62
     7
100
AcDbLine
 10
422.716284
 20
110.46331
 30
0.0
 11
422.716284
 21
107.86331
 31
0.0
  0
LINE
  5
17D
330
1F
100
AcDbEntity
  8
1
  6
CONTINUOUS
 62
     7
100
AcDbLine
 10
349.892063
 20
292.750593
 30
0.0
 11
224.640804
 21
292.750593
 31
0.0
  0
LINE
  5
17E
330
1F
100
AcDbEntity
  8
1
  6
CONTINUOUS
 62
     7
100
AcDbLine
 10
362.049617
 20
104.66331
 30
0.0
 11
362.049617
 21
103.329977
 31
0.0
  0
LINE
  5
17F
330
1F
100
AcDbEntity
  8
1
  6
CONTINUOUS
 62
     9
100
AcDbLine
 10
228.134276
 20
195.284628
 30
0.0
 11
346.398591
 21
195.284628
 31
0.0
  0
LINE
  5
180
330
1F
100
AcDbEntity
  8
1
  6
CONTINUOUS
 62
     7
100
AcDbLine
 10
459.327672
 20
303.719998
 30
0.0
 11
459.327672
 21
303.640049
 31
0.0
  0
LINE
  5
181
330
1F
100
AcDbEntity
  8
1
  6
CONTINUOUS
 62
     9
100
AcDbLine
 10
149.093352
 20
116.666771
 30
0.0
 11
148.820534
 21
116.666771
 31
0.0
  0
LINE
  5
182
330
1F
100
AcDbEntity
  8
1
  6
CONTINUOUS
 62
     7
100
AcDbLine
 10
126.895696
 20
309.000593
 30
0.0
 11
145.193837
 21
309.000593
 31
0.0
  0
LINE
  5
183
330
1F
100
AcDbEntity
  8
1
  6
CONTINUOUS
 62
     7
100
AcDbLine
 10
363.649617
 20
104.26331
 30
0.0
 11
362.449617
 21
104.26331
 31
0.0
  0
LINE
  5
184
330
1F
100
AcDbEntity
  8
1
  6
CONTINUOUS
 62
     7
100
AcDbLine
 10
148.668656
 20
99.396676
 30
0.0
 11
148.76393
 21
99.460185
 31
0.0
  0
LINE
  5
185
330
1F
100
AcDbEntity
  8
1
  6
CONTINUOUS
 62
     9
100
AcDbLine
 10
149.201062
 20
125.251416
 30
0.0
 11
149.201062
 21
93.075205
 31
0.0
  0
LINE
  5
186
330
1F
100
AcDbEntity
  8
1
  6
CONTINUOUS
 62
     7
100
AcDbLine
 10
352.082946
 20
216.016618
 30
0.0
 11
352.082946
 21
199.581622
 31
0.0
  0
LINE
  5
187
330
1F
100
AcDbEntity
  8
1
  6
CONTINUOUS
 62
     7
100
AcDbLine
 10
313.572562
 20
97.216678
 30
0.0
 11
310.366687
 21
92.638214
 31
0.0
  0
LINE
  5
188
330
1F
100
AcDbEntity
  8
1
  6
CONTINUOUS
 62
     7
100
AcDbLine
 10
146.875645
 20
299.800831
 30
0.0
 11
146.875209
 21
299.850833
 31
0.0
  0
LINE
  5
189
330
1F
100
AcDbEntity
  8
1
  6
CONTINUOUS
 62
     9
100
AcDbLine
 10
233.700037
 20
93.075205
 30
0.0
 11
234.698172
 21
93.075205
 31
0.0
  0
LINE
  5
18A
330
1F
100
AcDbEntity
  8
1
  6
CONTINUOUS
 62
     7
100
AcDbLine
 10
409.291262
 20
305.600593
 30
0.0
 11
417.966434
 21
305.600593
 31
0.0
  0
LINE
  5
18B
330
1F
100
AcDbEntity
  8
1
  6
CONTINUOUS
 62
     7
100
AcDbLine
 10
312.716284
 20
101.108188
 30
0.0
 11
311.498856
 21
99.369521
 31
0.0
  0
LINE
  5
18C
330
1F
100
AcDbEntity
  8
1
  6
CONTINUOUS
 62
     7
100
AcDbLine
 10
442.58295
 20
108.929977
 30
0.0
 11
442.58295
 21
107.06331
 31
0.0
  0
LINE
  5
18D
330
1F
100
AcDbEntity
  8
1
  6
CONTINUOUS
 62
     7
100
AcDbLine
 10
359.049617
 20
115.66331
 30
0.0
 11
359.049617
 21
110.996644
 31
0.0
  0
LINE
  5
18E
330
1F
100
AcDbEntity
  8
1
  6
CONTINUOUS
 62
     7
100
AcDbLine
 10
222.266434
 20
236.111937
 30
0.0
 11
222.266434
 21
249.416786
 31
0.0
  0
LINE
  5
18F
330
1F
100
AcDbEntity
  8
1
  6
CONTINUOUS
 62
     7
100
AcDbLine
 10
382.38295
 20
112.16331
 30
0.0
 11
384.049617
 21
112.16331
 31
0.0
  0
LINE
  5
190
330
1F
100
AcDbEntity
  8
1
  6
CONTINUOUS
 62
     7
100
AcDbLine
 10
351.916434
 20
308.500593
 30
0.0
 11
351.916434
 21
309.000593
 31
0.0
  0
LINE
  5
191
330
1F
100
AcDbEntity
  8
1
  6
CONTINUOUS
 62
     7
100
AcDbLine
 10
153.195571
 20
299.800831
 30
0.0
 11
153.195571
 21
299.850833
 31
0.0
  0
LINE
  5
192
330
1F
100
AcDbEntity
  8
1
  6
CONTINUOUS
 62
     7
100
AcDbLine
 10
365.38295
 20
106.16331
 30
0.0
 11
365.38295
 21
104.496644
 31
0.0
  0
LINE
  5
193
330
1F
100
AcDbEntity
  8
1
  6
CONTINUOUS
 62
     7
100
AcDbLine
 10
436.066487
 20
107.277405
 30
0.0
 11
434.863712
 21
108.48018
 31
0.0
  0
LINE
  5
194
330
1F
100
AcDbEntity
  8
1
  6
CONTINUOUS
 62
     7
100
AcDbLine
 10
436.027597
 20
309.000061
 30
0.0
 11
436.027597
 21
312.000163
 31
0.0
  0
LINE
  5
195
330
1F
100
AcDbEntity
  8
1
  6
CONTINUOUS
 62
     7
100
AcDbLine
 10
442.58295
 20
109.396644
 30
0.0
 11
442.58295
 21
111.26331
 31
0.0
  0
LINE
  5
196
330
1F
100
AcDbEntity
  8
1
  6
CONTINUOUS
 62
     7
100
AcDbLine
 10
239.969617
 20
110.496644
 30
0.0
 11
240.78295
 21
110.496644
 31
0.0
  0
LINE
  5
197
330
1F
100
AcDbEntity
  8
1
  6
CONTINUOUS
 62
     7
100
AcDbLine
 10
156.289458
 20
306.101044
 30
0.0
 11
155.567745
 21
304.851001
 31
0.0
  0
LINE
  5
198
330
1F
100
AcDbEntity
  8
1
  6
CONTINUOUS
 62
     7
100
AcDbLine
 10
151.943425
 20
129.110938
 30
0.0
 11
231.955809
 21
129.110938
 31
0.0
  0
LINE
  5
199
330
1F
100
AcDbEntity
  8
1
  6
CONTINUOUS
 62
     7
100
AcDbLine
 10
152.595551
 20
313.251285
 30
0.0
 11
152.595551
 21
312.951275
 31
0.0
  0
LINE
  5
19A
330
1F
100
AcDbEntity
  8
1
  6
CONTINUOUS
 62
     7
100
AcDbLine
 10
168.396084
 20
300.550856
 30
0.0
 11
168.396084
 21
317.151417
 31
0.0
  0
LINE
  5
19B
330
1F
100
AcDbEntity
  8
1
  6
CONTINUOUS
 62
     7
100
AcDbLine
 10
396.166434
 20
305.800593
 30
0.0
 11
396.166434
 21
311.700593
 31
0.0
  0
LINE
  5
19C
330
1F
100
AcDbEntity
  8
1
  6
CONTINUOUS
 62
     7
100
AcDbLine
 10
222.327568
 20
213.907334
 30
0.0
 11
222.327618
 21
234.900509
 31
0.0
  0
LINE
  5
19D
330
1F
100
AcDbEntity
  8
1
  6
CONTINUOUS
 62
     7
100
AcDbLine
 10
145.695318
 20
317.151417
 30
0.0
 11
145.695318
 21
300.550856
 31
0.0
  0
LINE
  5
19E
330
1F
100
AcDbEntity
  8
1
  6
CONTINUOUS
 62
     7
100
AcDbLine
 10
236.515598
 20
241.153644
 30
0.0
 11
236.400683
 21
240.907207
 31
0.0
  0
LINE
  5
19F
330
1F
100
AcDbEntity
  8
1
  6
CONTINUOUS
 62
     7
100
AcDbLine
 10
235.230578
 20
103.569415
 30
0.0
 11
235.230578
 21
92.490451
 31
0.0
  0
LINE
  5
1A0
330
1F
100
AcDbEntity
  8
1
  6
CONTINUOUS
 62
     7
100
AcDbLine
 10
235.28295
 20
113.159837
 30
0.0
 11
235.28295
 21
125.833066
 31
0.0
  0
LINE
  5
1A1
330
1F
100
AcDbEntity
  8
1
  6
CONTINUOUS
 62
     7
100
AcDbLine
 10
312.716284
 20
107.996644
 30
0.0
 11
340.587115
 21
107.996644
 31
0.0
  0
LINE
  5
1A2
330
1F
100
AcDbEntity
  8
1
  6
CONTINUOUS
 62
     7
100
AcDbLine
 10
334.91812
 20
103.850272
 30
0.0
 11
312.716284
 21
105.792681
 31
0.0
  0
LINE
  5
1A3
330
1F
100
AcDbEntity
  8
1
  6
CONTINUOUS
 62
     7
100
AcDbLine
 10
168.606678
 20
309.001141
 30
0.0
 11
168.451231
 21
300.095605
 31
0.0
  0
LINE
  5
1A4
330
1F
100
AcDbEntity
  8
1
  6
CONTINUOUS
 62
     7
100
AcDbLine
 10
410.166434
 20
305.250593
 30
0.0
 11
410.166434
 21
312.250593
 31
0.0
  0
LINE
  5
1A5
330
1F
100
AcDbEntity
  8
1
  6
CONTINUOUS
 62
     7
100
AcDbLine
 10
353.9093
 20
229.695096
 30
0.0
 11
354.516434
 21
229.653795
 31
0.0
  0
LINE
  5
1A6
330
1F
100
AcDbEntity
  8
1
  6
CONTINUOUS
 62
     7
100
AcDbLine
 10
359.296434
 20
219.400033
 30
0.0
 11
359.296434
 21
222.69746
 31
0.0
  0
LINE
  5
1A7
330
1F
100
AcDbEntity
  8
1
  6
CONTINUOUS
 62
     7
100
AcDbLine
 10
465.689862
 20
306.958118
 30
0.0
 11
465.702415
 21
306.958118
 31
0.0
  0
LINE
  5
1A8
330
1F
100
AcDbEntity
  8
1
  6
CONTINUOUS
 62
     7
100
AcDbLine
 10
338.521268
 20
212.909833
 30
0.0
 11
338.636184
 21
213.15627
 31
0.0
  0
LINE
  5
1A9
330
1F
100
AcDbEntity
  8
1
  6
CONTINUOUS
 62
     7
100
AcDbLine
 10
365.316434
 20
229.331112
 30
0.0
 11
366.604639
 21
229.344573
 31
0.0
  0
LINE
  5
1AA
330
1F
100
AcDbEntity
  8
1
  6
CONTINUOUS
 62
     7
100
AcDbLine
 10
384.049617
 20
112.16331
 30
0.0
 11
384.049617
 21
113.829977
 31
0.0
  0
LINE
  5
1AB
330
1F
100
AcDbEntity
  8
1
  6
CONTINUOUS
 62
     9
100
AcDbLine
 10
148.616284
 20
125.836169
 30
0.0
 11
148.668656
 21
125.836169
 31
0.0
  0
LINE
  5
1AC
330
1F
100
AcDbEntity
  8
1
  6
CONTINUOUS
 62
     7
100
AcDbLine
 10
404.466434
 20
311.300593
 30
0.0
 11
404.466434
 21
309.700593
 31
0.0
  0
LINE
  5
1AD
330
1F
100
AcDbEntity
  8
1
  6
CONTINUOUS
 62
     7
100
AcDbLine
 10
437.38295
 20
108.929977
 30
0.0
 11
442.58295
 21
108.929977
 31
0.0
  0
LINE
  5
1AE
330
1F
100
AcDbEntity
  8
1
  6
CONTINUOUS
 62
     7
100
AcDbLine
 10
414.966434
 20
312.250593
 30
0.0
 11
416.566434
 21
311.900593
 31
0.0
  0
LINE
  5
1AF
330
1F
100
AcDbEntity
  8
1
  6
CONTINUOUS
 62
     7
100
AcDbLine
 10
243.18295
 20
110.296644
 30
0.0
 11
243.18295
 21
112.444021
 31
0.0
  0
LINE
  5
1B0
330
1F
100
AcDbEntity
  8
1
  6
CONTINUOUS
 62
     9
100
AcDbLine
 10
132.763538
 20
323.342166
 30
0.0
 11
181.027854
 21
323.342166
 31
0.0
  0
LINE
  5
1B1
330
1F
100
AcDbEntity
  8
1
  6
CONTINUOUS
 62
     7
100
AcDbLine
 10
402.166434
 20
305.250593
 30
0.0
 11
402.166434
 21
312.250593
 31
0.0
  0
LINE
  5
1B2
330
1F
100
AcDbEntity
  8
1
  6
CONTINUOUS
 62
     9
100
AcDbLine
 10
181.721534
 20
305.500593
 30
0.0
 11
181.027854
 21
294.15902
 31
0.0
  0
LINE
  5
1B3
330
1F
100
AcDbEntity
  8
1
  6
CONTINUOUS
 62
     9
100
AcDbLine
 10
131.88637
 20
308.500593
 30
0.0
 11
131.88637
 21
305.500593
 31
0.0
  0
LINE
  5
1B4
330
1F
100
AcDbEntity
  8
1
  6
CONTINUOUS
 62
     9
100
AcDbLine
 10
222.792896
 20
238.962148
 30
0.0
 11
222.491831
 21
238.962148
 31
0.0
  0
LINE
  5
1B5
330
1F
100
AcDbEntity
  8
1
  6
CONTINUOUS
 62
     9
100
AcDbLine
 10
347.27576
 20
194.40746
 30
0.0
 11
347.27576
 21
194.486018
 31
0.0
  0
LINE
  5
1B6
330
1F
100
AcDbEntity
  8
1
  6
CONTINUOUS
 62
     9
100
AcDbLine
 10
148.961143
 20
99.460185
 30
0.0
 11
148.76393
 21
99.460185
 31
0.0
  0
LINE
  5
1B7
330
1F
100
AcDbEntity
  8
1
  6
CONTINUOUS
 62
     7
100
AcDbLine
 10
289.587841
 20
119.125257
 30
0.0
 11
311.38295
 21
117.218432
 31
0.0
  0
LINE
  5
1B8
330
1F
100
AcDbEntity
  8
1
  6
CONTINUOUS
 62
     7
100
AcDbLine
 10
243.98295
 20
105.880876
 30
0.0
 11
243.98295
 21
108.029977
 31
0.0
  0
LINE
  5
1B9
330
1F
100
AcDbEntity
  8
1
  6
CONTINUOUS
 62
     7
100
AcDbLine
 10
238.017876
 20
241.660803
 30
0.0
 11
238.132792
 21
241.907241
 31
0.0
  0
LINE
  5
1BA
330
1F
100
AcDbEntity
  8
1
  6
CONTINUOUS
 62
     7
100
AcDbLine
 10
372.049617
 20
110.16331
 30
0.0
 11
369.38295
 21
110.16331
 31
0.0
  0
LINE
  5
1BB
330
1F
100
AcDbEntity
  8
1
  6
CONTINUOUS
 62
     9
100
AcDbLine
 10
234.698172
 20
93.075205
 30
0.0
 11
234.698172
 21
125.251416
 31
0.0
  0
LINE
  5
1BC
330
1F
100
AcDbEntity
  8
1
  6
CONTINUOUS
 62
     7
100
AcDbLine
 10
148.668656
 20
92.490451
 30
0.0
 11
148.668656
 21
99.396676
 31
0.0
  0
LINE
  5
1BD
330
1F
100
AcDbEntity
  8
1
  6
CONTINUOUS
 62
     7
100
AcDbLine
 10
222.449921
 20
305.500593
 30
0.0
 11
223.143602
 21
294.15902
 31
0.0
  0
LINE
  5
1BE
330
1F
100
AcDbEntity
  8
1
  6
CONTINUOUS
 62
     7
100
AcDbLine
 10
289.587841
 20
99.201363
 30
0.0
 11
311.38295
 21
101.108188
 31
0.0
  0
LINE
  5
1BF
330
1F
100
AcDbEntity
  8
1
  6
CONTINUOUS
 62
     7
100
AcDbLine
 10
237.266737
 20
242.407258
 30
0.0
 11
237.110774
 21
242.184519
 31
0.0
  0
LINE
  5
1C0
330
1F
100
AcDbEntity
  8
1
  6
CONTINUOUS
 62
     7
100
AcDbLine
 10
148.738609
 20
99.396676
 30
0.0
 11
148.668656
 21
99.396676
 31
0.0
  0
LINE
  5
1C1
330
1F
100
AcDbEntity
  8
1
  6
CONTINUOUS
 62
     7
100
AcDbLine
 10
158.91649
 20
312.951275
 30
0.0
 11
161.195841
 21
312.951275
 31
0.0
  0
LINE
  5
1C2
330
1F
100
AcDbEntity
  8
1
  6
CONTINUOUS
 62
     7
100
AcDbLine
 10
145.695318
 20
317.151417
 30
0.0
 11
145.395308
 21
317.151417
 31
0.0
  0
LINE
  5
1C3
330
1F
100
AcDbEntity
  8
1
  6
CONTINUOUS
 62
     7
100
AcDbLine
 10
462.747787
 20
313.30661
 30
0.0
 11
462.747787
 21
313.267745
 31
0.0
  0
LINE
  5
1C4
330
1F
100
AcDbEntity
  8
1
  6
CONTINUOUS
 62
     7
100
AcDbLine
 10
377.38295
 20
110.829977
 30
0.0
 11
380.716284
 21
110.829977
 31
0.0
  0
LINE
  5
1C5
330
1F
100
AcDbEntity
  8
1
  6
CONTINUOUS
 62
     7
100
AcDbLine
 10
222.449921
 20
199.581622
 30
0.0
 11
222.449921
 21
209.754891
 31
0.0
  0
LINE
  5
1C6
330
1F
100
AcDbEntity
  8
1
  6
CONTINUOUS
 62
     7
100
AcDbLine
 10
367.049617
 20
104.496644
 30
0.0
 11
365.38295
 21
104.496644
 31
0.0
  0
LINE
  5
1C7
330
1F
100
AcDbEntity
  8
1
  6
CONTINUOUS
 62
     9
100
AcDbLine
 10
228.134276
 20
252.03309
 30
0.0
 11
228.134276
 21
253.530292
 31
0.0
  0
LINE
  5
1C8
330
1F
100
AcDbEntity
  8
1
  6
CONTINUOUS
 62
     9
100
AcDbLine
 10
349.892063
 20
248.539618
 30
0.0
 11
351.389265
 21
248.539618
 31
0.0
  0
LINE
  5
1C9
330
1F
100
AcDbEntity
  8
1
  6
CONTINUOUS
 62
     7
100
AcDbLine
 10
157.501934
 20
311.601229
 30
0.0
 11
157.76175
 21
311.451224
 31
0.0
  0
LINE
  5
1CA
330
1F
100
AcDbEntity
  8
1
  6
CONTINUOUS
 62
     9
100
AcDbLine
 10
149.093352
 20
101.65985
 30
0.0
 11
148.820534
 21
101.65985
 31
0.0
  0
LINE
  5
1CB
330
1F
100
AcDbEntity
  8
1
  6
CONTINUOUS
 62
     9
100
AcDbLine
 10
228.134276
 20
196.78183
 30
0.0
 11
346.398591
 21
196.78183
 31
0.0
  0
LINE
  5
1CC
330
1F
100
AcDbEntity
  8
1
  6
CONTINUOUS
 62
     7
100
AcDbLine
 10
150.722867
 20
299.850833
 30
0.0
 11
150.713558
 21
299.800831
 31
0.0
  0
LINE
  5
1CD
330
1F
100
AcDbEntity
  8
1
  6
CONTINUOUS
 62
     7
100
AcDbLine
 10
227.440595
 20
254.223972
 30
0.0
 11
347.092272
 21
254.223972
 31
0.0
  0
LINE
  5
1CE
330
1F
100
AcDbEntity
  8
1
  6
CONTINUOUS
 62
     7
100
AcDbLine
 10
235.160625
 20
114.757205
 30
0.0
 11
235.230578
 21
114.757205
 31
0.0
  0
LINE
  5
1CF
330
1F
100
AcDbEntity
  8
1
  6
CONTINUOUS
 62
     7
100
AcDbLine
 10
441.116284
 20
110.096644
 30
0.0
 11
441.116284
 21
110.56331
 31
0.0
  0
LINE
  5
1D0
330
1F
100
AcDbEntity
  8
1
  6
CONTINUOUS
 62
     9
100
AcDbLine
 10
231.955809
 20
89.16331
 30
0.0
 11
231.955809
 21
89.215682
 31
0.0
  0
LINE
  5
1D1
330
1F
100
AcDbEntity
  8
1
  6
CONTINUOUS
 62
     7
100
AcDbLine
 10
486.0479
 20
308.500045
 30
0.0
 11
486.0479
 21
305.499943
 31
0.0
  0
LINE
  5
1D2
330
1F
100
AcDbEntity
  8
1
  6
CONTINUOUS
 62
     7
100
AcDbLine
 10
442.449617
 20
108.229977
 30
0.0
 11
441.116284
 21
108.229977
 31
0.0
  0
LINE
  5
1D3
330
1F
100
AcDbEntity
  8
1
  6
CONTINUOUS
 62
     7
100
AcDbLine
 10
367.416434
 20
307.000593
 30
0.0
 11
377.615672
 21
307.000593
 31
0.0
  0
LINE
  5
1D4
330
1F
100
AcDbEntity
  8
1
  6
CONTINUOUS
 62
     9
100
AcDbLine
 10
181.895696
 20
308.500593
 30
0.0
 11
181.895696
 21
309.000593
 31
0.0
  0
LINE
  5
1D5
330
1F
100
AcDbEntity
  8
1
  6
CONTINUOUS
 62
     7
100
AcDbLine
 10
355.736434
 20
229.57828
 30
0.0
 11
359.296434
 21
229.414887
 31
0.0
  0
LINE
  5
1D6
330
1F
100
AcDbEntity
  8
1
  6
CONTINUOUS
 62
     7
100
AcDbLine
 10
417.766434
 20
310.150593
 30
0.0
 11
415.766434
 21
310.150593
 31
0.0
  0
LINE
  5
1D7
330
1F
100
AcDbEntity
  8
1
  6
CONTINUOUS
 62
     7
100
AcDbLine
 10
145.395308
 20
310.001175
 30
0.0
 11
145.208279
 21
310.001175
 31
0.0
  0
LINE
  5
1D8
330
1F
100
AcDbEntity
  8
1
  6
CONTINUOUS
 62
     9
100
AcDbLine
 10
152.528178
 20
89.748089
 30
0.0
 11
231.371056
 21
89.748089
 31
0.0
  0
LINE
  5
1D9
330
1F
100
AcDbEntity
  8
1
  6
CONTINUOUS
 62
     7
100
AcDbLine
 10
466.787924
 20
308.500045
 30
0.0
 11
491.038742
 21
308.500045
 31
0.0
  0
LINE
  5
1DA
330
1F
100
AcDbEntity
  8
1
  6
CONTINUOUS
 62
     7
100
AcDbLine
 10
148.768162
 20
101.65985
 30
0.0
 11
148.763016
 21
101.45988
 31
0.0
  0
LINE
  5
1DB
330
1F
100
AcDbEntity
  8
1
  6
CONTINUOUS
 62
     9
100
AcDbLine
 10
181.904984
 20
309.000593
 30
0.0
 11
181.904984
 21
312.000593
 31
0.0
  0
LINE
  5
1DC
330
1F
100
AcDbEntity
  8
1
  6
CONTINUOUS
 62
     7
100
AcDbLine
 10
428.049617
 20
111.129977
 30
0.0
 11
428.049617
 21
107.196644
 31
0.0
  0
LINE
  5
1DD
330
1F
100
AcDbEntity
  8
1
  6
CONTINUOUS
 62
     7
100
AcDbLine
 10
186.018528
 20
323.342166
 30
0.0
 11
186.712208
 21
312.000593
 31
0.0
  0
LINE
  5
1DE
330
1F
100
AcDbEntity
  8
1
  6
CONTINUOUS
 62
     7
100
AcDbLine
 10
126.895696
 20
308.500593
 30
0.0
 11
126.974254
 21
305.500593
 31
0.0
  0
LINE
  5
1DF
330
1F
100
AcDbEntity
  8
1
  6
CONTINUOUS
 62
     7
100
AcDbLine
 10
168.597941
 20
308.500593
 30
0.0
 11
186.895696
 21
308.500593
 31
0.0
  0
LINE
  5
1E0
330
1F
100
AcDbEntity
  8
1
  6
CONTINUOUS
 62
     7
100
AcDbLine
 10
313.49662
 20
98.747208
 30
0.0
 11
311.706041
 21
96.189995
 31
0.0
  0
LINE
  5
1E1
330
1F
100
AcDbEntity
  8
1
  6
CONTINUOUS
 62
     7
100
AcDbLine
 10
360.516434
 20
219.436542
 30
0.0
 11
364.116434
 21
219.486394
 31
0.0
  0
LINE
  5
1E2
330
1F
100
AcDbEntity
  8
1
  6
CONTINUOUS
 62
     7
100
AcDbLine
 10
145.640125
 20
296.80073
 30
0.0
 11
168.151267
 21
296.80073
 31
0.0
  0
LINE
  5
1E3
330
1F
100
AcDbEntity
  8
1
  6
CONTINUOUS
 62
     7
100
AcDbLine
 10
146.095331
 20
317.55143
 30
0.0
 11
146.095331
 21
317.85144
 31
0.0
  0
LINE
  5
1E4
330
1F
100
AcDbEntity
  8
1
  6
CONTINUOUS
 62
     7
100
AcDbLine
 10
260.266434
 20
246.90746
 30
0.0
 11
257.266434
 21
243.90746
 31
0.0
  0
LINE
  5
1E5
330
1F
100
AcDbEntity
  8
1
  6
CONTINUOUS
 62
     7
100
AcDbLine
 10
385.38295
 20
118.66331
 30
0.0
 11
362.049617
 21
118.66331
 31
0.0
  0
LINE
  5
1E6
330
1F
100
AcDbEntity
  8
1
  6
CONTINUOUS
 62
     7
100
AcDbLine
 10
432.049617
 20
108.66331
 30
0.0
 11
428.049617
 21
108.66331
 31
0.0
  0
LINE
  5
1E7
330
1F
100
AcDbEntity
  8
1
  6
CONTINUOUS
 62
     7
100
AcDbLine
 10
486.038573
 20
308.500045
 30
0.0
 11
486.038573
 21
309.000061
 31
0.0
  0
LINE
  5
1E8
330
1F
100
AcDbEntity
  8
1
  6
CONTINUOUS
 62
     7
100
AcDbLine
 10
405.266434
 20
309.700593
 30
0.0
 11
404.466434
 21
309.700593
 31
0.0
  0
LINE
  5
1E9
330
1F
100
AcDbEntity
  8
1
  6
CONTINUOUS
 62
     9
100
AcDbLine
 10
231.371056
 20
127.580397
 30
0.0
 11
152.528178
 21
127.580397
 31
0.0
  0
LINE
  5
1EA
330
1F
100
AcDbEntity
  8
1
  6
CONTINUOUS
 62
     7
100
AcDbLine
 10
354.516434
 20
219.161125
 30
0.0
 11
354.516434
 21
222.69746
 31
0.0
  0
LINE
  5
1EB
330
1F
100
AcDbEntity
  8
1
  6
CONTINUOUS
 62
     7
100
AcDbLine
 10
222.494251
 20
235.662651
 30
0.0
 11
222.486532
 21
235.962605
 31
0.0
  0
LINE
  5
1EC
330
1F
100
AcDbEntity
  8
1
  6
CONTINUOUS
 62
     7
100
AcDbLine
 10
241.569617
 20
112.377416
 30
0.0
 11
241.569617
 21
105.949205
 31
0.0
  0
LINE
  5
1ED
330
1F
100
AcDbEntity
  8
1
  6
CONTINUOUS
 62
     7
100
AcDbLine
 10
417.766434
 20
306.650593
 30
0.0
 11
415.766434
 21
306.650593
 31
0.0
  0
LINE
  5
1EE
330
1F
100
AcDbEntity
  8
1
  6
CONTINUOUS
 62
     7
100
AcDbLine
 10
236.378195
 20
105.63822
 30
0.0
 11
236.78295
 21
105.665754
 31
0.0
  0
LINE
  5
1EF
330
1F
100
AcDbEntity
  8
1
  6
CONTINUOUS
 62
     7
100
AcDbLine
 10
156.289458
 20
311.601229
 30
0.0
 11
156.029641
 21
311.451224
 31
0.0
  0
LINE
  5
1F0
330
1F
100
AcDbEntity
  8
1
  6
CONTINUOUS
 62
     7
100
AcDbLine
 10
148.65704
 20
102.163226
 30
0.0
 11
148.657074
 21
116.158676
 31
0.0
  0
LINE
  5
1F1
330
1F
100
AcDbEntity
  8
1
  6
CONTINUOUS
 62
     7
100
AcDbLine
 10
356.916434
 20
310.500593
 30
0.0
 11
358.116434
 21
310.500593
 31
0.0
  0
LINE
  5
1F2
330
1F
100
AcDbEntity
  8
1
  6
CONTINUOUS
 62
     7
100
AcDbLine
 10
151.946532
 20
89.16331
 30
0.0
 11
231.952706
 21
89.16331
 31
0.0
  0
LINE
  5
1F3
330
1F
100
AcDbEntity
  8
1
  6
CONTINUOUS
 62
     9
100
AcDbLine
 10
352.082946
 20
199.581622
 30
0.0
 11
351.389265
 21
200.275302
 31
0.0
  0
LINE
  5
1F4
330
1F
100
AcDbEntity
  8
1
  6
CONTINUOUS
 62
     9
100
AcDbLine
 10
347.275721
 20
309.000593
 30
0.0
 11
347.275722
 21
312.000593
 31
0.0
  0
LINE
  5
1F5
330
1F
100
AcDbEntity
  8
1
  6
CONTINUOUS
 62
     9
100
AcDbLine
 10
347.092272
 20
254.223972
 30
0.0
 11
346.398591
 21
253.530292
 31
0.0
  0
LINE
  5
1F6
330
1F
100
AcDbEntity
  8
1
  6
CONTINUOUS
 62
     7
100
AcDbLine
 10
431.036717
 20
308.500045
 30
0.0
 11
431.115277
 21
305.499943
 31
0.0
  0
LINE
  5
1F7
330
1F
100
AcDbEntity
  8
1
  6
CONTINUOUS
 62
     7
100
AcDbLine
 10
222.498179
 20
235.662651
 30
0.0
 11
222.498179
 21
213.152269
 31
0.0
  0
LINE
  5
1F8
330
1F
100
AcDbEntity
  8
1
  6
CONTINUOUS
 62
     7
100
AcDbLine
 10
377.38295
 20
107.496644
 30
0.0
 11
380.716284
 21
107.496644
 31
0.0
  0
LINE
  5
1F9
330
1F
100
AcDbEntity
  8
1
  6
CONTINUOUS
 62
     7
100
AcDbLine
 10
257.266434
 20
243.90746
 30
0.0
 11
257.266434
 21
203.40746
 31
0.0
  0
LINE
  5
1FA
330
1F
100
AcDbEntity
  8
1
  6
CONTINUOUS
 62
     7
100
AcDbLine
 10
311.38295
 20
107.996644
 30
0.0
 11
283.512119
 21
107.996644
 31
0.0
  0
LINE
  5
1FB
330
1F
100
AcDbEntity
  8
1
  6
CONTINUOUS
 62
     7
100
AcDbLine
 10
351.916434
 20
317.748856
 30
0.0
 11
352.038744
 21
317.748856
 31
0.0
  0
LINE
  5
1FC
330
1F
100
AcDbEntity
  8
1
  6
CONTINUOUS
 62
     7
100
AcDbLine
 10
351.766434
 20
300.325665
 30
0.0
 11
351.766434
 21
299.75233
 31
0.0
  0
LINE
  5
1FD
330
1F
100
AcDbEntity
  8
1
  6
CONTINUOUS
 62
     7
100
AcDbLine
 10
372.049617
 20
107.496644
 30
0.0
 11
368.716284
 21
107.496644
 31
0.0
  0
LINE
  5
1FE
330
1F
100
AcDbEntity
  8
1
  6
CONTINUOUS
 62
     7
100
AcDbLine
 10
361.696434
 20
313.695575
 30
0.0
 11
361.696434
 21
309.850593
 31
0.0
  0
LINE
  5
1FF
330
1F
100
AcDbEntity
  8
1
  6
CONTINUOUS
 62
     7
100
AcDbLine
 10
360.516434
 20
219.436542
 30
0.0
 11
360.516434
 21
222.69746
 31
0.0
  0
LINE
  5
200
330
1F
100
AcDbEntity
  8
1
  6
CONTINUOUS
 62
     9
100
AcDbLine
 10
352.266434
 20
199.398134
 30
0.0
 11
352.187876
 21
199.398134
 31
0.0
  0
LINE
  5
201
330
1F
100
AcDbEntity
  8
1
  6
CONTINUOUS
 62
     7
100
AcDbLine
 10
334.714756
 20
101.525818
 30
0.0
 11
312.716284
 21
103.450435
 31
0.0
  0
LINE
  5
202
330
1F
100
AcDbEntity
  8
1
  6
CONTINUOUS
 62
     7
100
AcDbLine
 10
364.049617
 20
115.66331
 30
0.0
 11
364.049617
 21
102.66331
 31
0.0
  0
LINE
  5
203
330
1F
100
AcDbEntity
  8
1
  6
CONTINUOUS
 62
     7
100
AcDbLine
 10
442.449617
 20
108.229977
 30
0.0
 11
442.449617
 21
107.76331
 31
0.0
  0
LINE
  5
204
330
1F
100
AcDbEntity
  8
1
  6
CONTINUOUS
 62
     7
100
AcDbLine
 10
237.596284
 20
105.716097
 30
0.0
 11
237.596284
 21
108.02331
 31
0.0
  0
LINE
  5
205
330
1F
100
AcDbEntity
  8
1
  6
CONTINUOUS
 62
     7
100
AcDbLine
 10
359.296434
 20
226.11746
 30
0.0
 11
359.296434
 21
229.414887
 31
0.0
  0
LINE
  5
206
330
1F
100
AcDbEntity
  8
1
  6
CONTINUOUS
 62
     7
100
AcDbLine
 10
414.966434
 20
312.250593
 30
0.0
 11
402.166434
 21
312.250593
 31
0.0
  0
LINE
  5
207
330
1F
100
AcDbEntity
  8
1
  6
CONTINUOUS
 62
     7
100
AcDbLine
 10
237.4227
 20
242.184519
 30
0.0
 11
237.266737
 21
242.407258
 31
0.0
  0
LINE
  5
208
330
1F
100
AcDbEntity
  8
1
  6
CONTINUOUS
 62
     7
100
AcDbLine
 10
417.966434
 20
309.100593
 30
0.0
 11
417.966434
 21
311.900593
 31
0.0
  0
LINE
  5
209
330
1F
100
AcDbEntity
  8
1
  6
CONTINUOUS
 62
     7
100
AcDbLine
 10
434.116284
 20
107.46331
 30
0.0
 11
433.58295
 21
107.46331
 31
0.0
  0
LINE
  5
20A
330
1F
100
AcDbEntity
  8
1
  6
CONTINUOUS
 62
     7
100
AcDbLine
 10
405.266434
 20
311.300593
 30
0.0
 11
404.466434
 21
311.300593
 31
0.0
  0
LINE
  5
20B
330
1F
100
AcDbEntity
  8
1
  6
CONTINUOUS
 62
     7
100
AcDbLine
 10
491.038742
 20
309.000061
 30
0.0
 11
490.960182
 21
312.000163
 31
0.0
  0
LINE
  5
20C
330
1F
100
AcDbEntity
  8
1
  6
CONTINUOUS
 62
     7
100
AcDbLine
 10
456.373044
 20
306.958118
 30
0.0
 11
456.385597
 21
306.958118
 31
0.0
  0
LINE
  5
20D
330
1F
100
AcDbEntity
  8
1
  6
CONTINUOUS
 62
     7
100
AcDbLine
 10
168.096074
 20
300.550856
 30
0.0
 11
168.096074
 21
317.151417
 31
0.0
  0
LINE
  5
20E
330
1F
100
AcDbEntity
  8
1
  6
CONTINUOUS
 62
     7
100
AcDbLine
 10
289.384478
 20
101.525818
 30
0.0
 11
311.38295
 21
103.450435
 31
0.0
  0
LINE
  5
20F
330
1F
100
AcDbEntity
  8
1
  6
CONTINUOUS
 62
     7
100
AcDbLine
 10
432.049617
 20
109.66331
 30
0.0
 11
428.049617
 21
109.66331
 31
0.0
  0
LINE
  5
210
330
1F
100
AcDbEntity
  8
1
  6
CONTINUOUS
 62
     7
100
AcDbLine
 10
411.166434
 20
305.250593
 30
0.0
 11
411.166434
 21
305.600593
 31
0.0
  0
LINE
  5
211
330
1F
100
AcDbEntity
  8
1
  6
CONTINUOUS
 62
     7
100
AcDbLine
 10
361.696434
 20
307.000593
 30
0.0
 11
362.896434
 21
307.000593
 31
0.0
  0
LINE
  5
212
330
1F
100
AcDbEntity
  8
1
  6
CONTINUOUS
 62
     7
100
AcDbLine
 10
236.78295
 20
107.829977
 30
0.0
 11
237.596284
 21
107.829977
 31
0.0
  0
LINE
  5
213
330
1F
100
AcDbEntity
  8
1
  6
CONTINUOUS
 62
     7
100
AcDbLine
 10
347.27576
 20
194.486018
 30
0.0
 11
227.257107
 21
194.486018
 31
0.0
  0
LINE
  5
214
330
1F
100
AcDbEntity
  8
1
  6
CONTINUOUS
 62
     7
100
AcDbLine
 10
311.909266
 20
99.955648
 30
0.0
 11
311.909266
 21
117.358783
 31
0.0
  0
LINE
  5
215
330
1F
100
AcDbEntity
  8
1
  6
CONTINUOUS
 62
     7
100
AcDbLine
 10
313.365377
 20
100.396203
 30
0.0
 11
311.574797
 21
97.83899
 31
0.0
  0
LINE
  5
216
330
1F
100
AcDbEntity
  8
1
  6
CONTINUOUS
 62
     9
100
AcDbLine
 10
236.378195
 20
105.63822
 30
0.0
 11
236.378195
 21
112.688401
 31
0.0
  0
LINE
  5
217
330
1F
100
AcDbEntity
  8
1
  6
CONTINUOUS
 62
     7
100
AcDbLine
 10
432.049617
 20
110.996644
 30
0.0
 11
428.049617
 21
110.996644
 31
0.0
  0
LINE
  5
218
330
1F
100
AcDbEntity
  8
1
  6
CONTINUOUS
 62
     7
100
AcDbLine
 10
222.344991
 20
305.500593
 30
0.0
 11
352.187876
 21
305.500593
 31
0.0
  0
LINE
  5
219
330
1F
100
AcDbEntity
  8
1
  6
CONTINUOUS
 62
     7
100
AcDbLine
 10
469.428855
 20
305.499943
 30
0.0
 11
490.960182
 21
305.499943
 31
0.0
  0
LINE
  5
21A
330
1F
100
AcDbEntity
  8
1
  6
CONTINUOUS
 62
     7
100
AcDbLine
 10
334.511393
 20
119.125257
 30
0.0
 11
312.716284
 21
117.218432
 31
0.0
  0
LINE
  5
21B
330
1F
100
AcDbEntity
  8
1
  6
CONTINUOUS
 62
     7
100
AcDbLine
 10
148.763016
 20
116.86674
 30
0.0
 11
148.768162
 21
116.666771
 31
0.0
  0
LINE
  5
21C
330
1F
100
AcDbEntity
  8
1
  6
CONTINUOUS
 62
     7
100
AcDbLine
 10
311.568179
 20
91.796921
 30
0.0
 11
310.366687
 21
92.638214
 31
0.0
  0
LINE
  5
21D
330
1F
100
AcDbEntity
  8
1
  6
CONTINUOUS
 62
     7
100
AcDbLine
 10
126.895696
 20
309.000593
 30
0.0
 11
126.974254
 21
312.000593
 31
0.0
  0
LINE
  5
21E
330
1F
100
AcDbEntity
  8
1
  6
CONTINUOUS
 62
     7
100
AcDbLine
 10
161.195841
 20
313.251285
 30
0.0
 11
161.195841
 21
312.951275
 31
0.0
  0
LINE
  5
21F
330
1F
100
AcDbEntity
  8
1
  6
CONTINUOUS
 62
     7
100
AcDbLine
 10
238.38295
 20
112.488246
 30
0.0
 11
238.38295
 21
105.838375
 31
0.0
  0
LINE
  5
220
330
1F
100
AcDbEntity
  8
1
  6
CONTINUOUS
 62
     7
100
AcDbLine
 10
441.116284
 20
108.229977
 30
0.0
 11
441.116284
 21
107.76331
 31
0.0
  0
LINE
  5
221
330
1F
100
AcDbEntity
  8
1
  6
CONTINUOUS
 62
     9
100
AcDbLine
 10
347.27576
 20
308.500593
 30
0.0
 11
347.27576
 21
305.500593
 31
0.0
  0
LINE
  5
222
330
1F
100
AcDbEntity
  8
1
  6
CONTINUOUS
 62
     7
100
AcDbLine
 10
366.516284
 20
105.629977
 30
0.0
 11
366.516284
 21
105.029977
 31
0.0
  0
LINE
  5
223
330
1F
100
AcDbEntity
  8
1
  6
CONTINUOUS
 62
     7
100
AcDbLine
 10
356.916434
 20
307.000593
 30
0.0
 11
358.116434
 21
307.000593
 31
0.0
  0
LINE
  5
224
330
1F
100
AcDbEntity
  8
1
  6
CONTINUOUS
 62
     7
100
AcDbLine
 10
362.449617
 20
104.66331
 30
0.0
 11
362.049617
 21
104.66331
 31
0.0
  0
LINE
  5
225
330
1F
100
AcDbEntity
  8
1
  6
CONTINUOUS
 62
     7
100
AcDbLine
 10
363.649617
 20
111.26331
 30
0.0
 11
362.449617
 21
111.26331
 31
0.0
  0
LINE
  5
226
330
1F
100
AcDbEntity
  8
1
  6
CONTINUOUS
 62
     7
100
AcDbLine
 10
227.257107
 20
254.328902
 30
0.0
 11
347.27576
 21
254.328902
 31
0.0
  0
LINE
  5
227
330
1F
100
AcDbEntity
  8
1
  6
CONTINUOUS
 62
     7
100
AcDbLine
 10
359.124629
 20
110.329977
 30
0.0
 11
345.314662
 21
110.329977
 31
0.0
  0
LINE
  5
228
330
1F
100
AcDbEntity
  8
1
  6
CONTINUOUS
 62
     7
100
AcDbLine
 10
338.636184
 20
212.156237
 30
0.0
 11
338.521268
 21
212.402674
 31
0.0
  0
LINE
  5
229
330
1F
100
AcDbEntity
  8
1
  6
CONTINUOUS
 62
     7
100
AcDbLine
 10
363.649617
 20
111.26331
 30
0.0
 11
363.649617
 21
109.396644
 31
0.0
  0
LINE
  5
22A
330
1F
100
AcDbEntity
  8
1
  6
CONTINUOUS
 62
     7
100
AcDbLine
 10
414.966434
 20
305.250593
 30
0.0
 11
402.166434
 21
305.250593
 31
0.0
  0
LINE
  5
22B
330
1F
100
AcDbEntity
  8
1
  6
CONTINUOUS
 62
     7
100
AcDbLine
 10
158.223646
 20
304.851001
 30
0.0
 11
157.501934
 21
306.101044
 31
0.0
  0
LINE
  5
22C
330
1F
100
AcDbEntity
  8
1
  6
CONTINUOUS
 62
     9
100
AcDbLine
 10
231.371056
 20
128.578532
 30
0.0
 11
152.528178
 21
128.578532
 31
0.0
  0
LINE
  5
22D
330
1F
100
AcDbEntity
  8
1
  6
CONTINUOUS
 62
     7
100
AcDbLine
 10
365.316434
 20
219.483808
 30
0.0
 11
366.604639
 21
219.470348
 31
0.0
  0
LINE
  5
22E
330
1F
100
AcDbEntity
  8
1
  6
CONTINUOUS
 62
     9
100
AcDbLine
 10
234.698172
 20
125.251416
 30
0.0
 11
235.160625
 21
125.713869
 31
0.0
  0
LINE
  5
22F
330
1F
100
AcDbEntity
  8
1
  6
CONTINUOUS
 62
     9
100
AcDbLine
 10
231.955809
 20
129.16331
 30
0.0
 11
231.955809
 21
129.110938
 31
0.0
  0
LINE
  5
230
330
1F
100
AcDbEntity
  8
1
  6
CONTINUOUS
 62
     7
100
AcDbLine
 10
362.449617
 20
105.329977
 30
0.0
 11
362.049617
 21
105.329977
 31
0.0
  0
LINE
  5
231
330
1F
100
AcDbEntity
  8
1
  6
CONTINUOUS
 62
     7
100
AcDbLine
 10
235.183052
 20
108.780428
 30
0.0
 11
235.183052
 21
109.546193
 31
0.0
  0
LINE
  5
232
330
1F
100
AcDbEntity
  8
1
  6
CONTINUOUS
 62
     9
100
AcDbLine
 10
152.528178
 20
127.580397
 30
0.0
 11
152.528178
 21
128.578532
 31
0.0
  0
LINE
  5
233
330
1F
100
AcDbEntity
  8
1
  6
CONTINUOUS
 62
     7
100
AcDbLine
 10
146.095331
 20
300.150843
 30
0.0
 11
146.095331
 21
299.850833
 31
0.0
  0
LINE
  5
234
330
1F
100
AcDbEntity
  8
1
  6
CONTINUOUS
 62
     9
100
AcDbLine
 10
131.895696
 20
308.500593
 30
0.0
 11
131.895696
 21
309.000593
 31
0.0
  0
LINE
  5
235
330
1F
100
AcDbEntity
  8
1
  6
CONTINUOUS
 62
     7
100
AcDbLine
 10
222.344991
 20
209.754891
 30
0.0
 11
222.449921
 21
209.754891
 31
0.0
  0
LINE
  5
236
330
1F
100
AcDbEntity
  8
1
  6
CONTINUOUS
 62
     9
100
AcDbLine
 10
222.991211
 20
235.662651
 30
0.0
 11
222.576737
 21
235.662651
 31
0.0
  0
LINE
  5
237
330
1F
100
AcDbEntity
  8
1
  6
CONTINUOUS
 62
     7
100
AcDbLine
 10
434.116284
 20
107.46331
 30
0.0
 11
434.116284
 21
108.529977
 31
0.0
  0
LINE
  5
238
330
1F
100
AcDbEntity
  8
1
  6
CONTINUOUS
 62
     7
100
AcDbLine
 10
436.036886
 20
308.500045
 30
0.0
 11
436.036886
 21
309.000061
 31
0.0
  0
LINE
  5
239
330
1F
100
AcDbEntity
  8
1
  6
CONTINUOUS
 62
     7
100
AcDbLine
 10
334.511393
 20
99.201363
 30
0.0
 11
312.716284
 21
101.108188
 31
0.0
  0
LINE
  5
23A
330
1F
100
AcDbEntity
  8
1
  6
CONTINUOUS
 62
     7
100
AcDbLine
 10
351.916434
 20
317.748145
 30
0.0
 11
351.916434
 21
314.723042
 31
0.0
  0
LINE
  5
23B
330
1F
100
AcDbEntity
  8
1
  6
CONTINUOUS
 62
     9
100
AcDbLine
 10
353.9093
 20
303.462957
 30
0.0
 11
353.9093
 21
314.038229
 31
0.0
  0
LINE
  5
23C
330
1F
100
AcDbEntity
  8
1
  6
CONTINUOUS
 62
     9
100
AcDbLine
 10
349.892063
 20
200.275302
 30
0.0
 11
351.389265
 21
200.275302
 31
0.0
  0
LINE
  5
23D
330
1F
100
AcDbEntity
  8
1
  6
CONTINUOUS
 62
     7
100
AcDbLine
 10
361.696434
 20
310.500593
 30
0.0
 11
362.896434
 21
310.500593
 31
0.0
  0
LINE
  5
23E
330
1F
100
AcDbEntity
  8
1
  6
CONTINUOUS
 62
     7
100
AcDbLine
 10
334.714756
 20
116.800803
 30
0.0
 11
312.716284
 21
114.876186
 31
0.0
  0
LINE
  5
23F
330
1F
100
AcDbEntity
  8
1
  6
CONTINUOUS
 62
     7
100
AcDbLine
 10
359.296434
 20
222.65746
 30
0.0
 11
360.516434
 21
222.65746
 31
0.0
  0
LINE
  5
240
330
1F
100
AcDbEntity
  8
1
  6
CONTINUOUS
 62
     7
100
AcDbLine
 10
456.06761
 20
307.554233
 30
0.0
 11
456.259605
 21
306.958118
 31
0.0
  0
LINE
  5
241
330
1F
100
AcDbEntity
  8
1
  6
CONTINUOUS
 62
     9
100
AcDbLine
 10
347.092272
 20
194.590948
 30
0.0
 11
346.398591
 21
195.284628
 31
0.0
  0
LINE
  5
242
330
1F
100
AcDbEntity
  8
1
  6
CONTINUOUS
 62
     7
100
AcDbLine
 10
410.166434
 20
309.100593
 30
0.0
 11
417.966434
 21
309.100593
 31
0.0
  0
LINE
  5
243
330
1F
100
AcDbEntity
  8
1
  6
CONTINUOUS
 62
     9
100
AcDbLine
 10
231.371056
 20
127.580397
 30
0.0
 11
231.371056
 21
128.578532
 31
0.0
  0
LINE
  5
244
330
1F
100
AcDbEntity
  8
1
  6
CONTINUOUS
 62
     7
100
AcDbLine
 10
431.220211
 20
305.499943
 30
0.0
 11
431.913915
 21
294.157988
 31
0.0
  0
LINE
  5
245
330
1F
100
AcDbEntity
  8
1
  6
CONTINUOUS
 62
     7
100
AcDbLine
 10
242.369617
 20
105.960677
 30
0.0
 11
242.369617
 21
112.365943
 31
0.0
  0
LINE
  5
246
330
1F
100
AcDbEntity
  8
1
  6
CONTINUOUS
 62
     7
100
AcDbLine
 10
278.784572
 20
107.996644
 30
0.0
 11
245.38295
 21
107.996644
 31
0.0
  0
LINE
  5
247
330
1F
100
AcDbEntity
  8
1
  6
CONTINUOUS
 62
     7
100
AcDbLine
 10
227.257107
 20
254.40746
 30
0.0
 11
347.275759
 21
254.40746
 31
0.0
  0
LINE
  5
248
330
1F
100
AcDbEntity
  8
1
  6
CONTINUOUS
 62
     7
100
AcDbLine
 10
313.725575
 20
98.353418
 30
0.0
 11
311.934995
 21
95.796205
 31
0.0
  0
LINE
  5
249
330
1F
100
AcDbEntity
  8
1
  6
CONTINUOUS
 62
     7
100
AcDbLine
 10
356.916434
 20
313.857785
 30
0.0
 11
356.916434
 21
309.850593
 31
0.0
  0
LINE
  5
24A
330
1F
100
AcDbEntity
  8
1
  6
CONTINUOUS
 62
     7
100
AcDbLine
 10
313.147704
 20
100.806105
 30
0.0
 11
311.345843
 21
98.23278
 31
0.0
  0
LINE
  5
24B
330
1F
100
AcDbEntity
  8
1
  6
CONTINUOUS
 62
     7
100
AcDbLine
 10
222.266434
 20
199.398134
 30
0.0
 11
222.266434
 21
212.702983
 31
0.0
  0
LINE
  5
24C
330
1F
100
AcDbEntity
  8
1
  6
CONTINUOUS
 62
     7
100
AcDbLine
 10
231.833509
 20
129.040985
 30
0.0
 11
152.065725
 21
129.040985
 31
0.0
  0
LINE
  5
24D
330
1F
100
AcDbEntity
  8
1
  6
CONTINUOUS
 62
     7
100
AcDbLine
 10
360.516434
 20
226.11746
 30
0.0
 11
360.516434
 21
229.378378
 31
0.0
  0
LINE
  5
24E
330
1F
100
AcDbEntity
  8
1
  6
CONTINUOUS
 62
     7
100
AcDbLine
 10
352.187876
 20
312.000593
 30
0.0
 11
222.344991
 21
312.000593
 31
0.0
  0
LINE
  5
24F
330
1F
100
AcDbEntity
  8
1
  6
CONTINUOUS
 62
     7
100
AcDbLine
 10
442.449617
 20
110.096644
 30
0.0
 11
441.116284
 21
110.096644
 31
0.0
  0
LINE
  5
250
330
1F
100
AcDbEntity
  8
1
  6
CONTINUOUS
 62
     9
100
AcDbLine
 10
132.763538
 20
324.750593
 30
0.0
 11
132.763538
 21
323.342166
 31
0.0
  0
LINE
  5
251
330
1F
100
AcDbEntity
  8
1
  6
CONTINUOUS
 62
     9
100
AcDbLine
 10
152.528178
 20
90.746224
 30
0.0
 11
231.371056
 21
90.746224
 31
0.0
  0
LINE
  5
252
330
1F
100
AcDbEntity
  8
1
  6
CONTINUOUS
 62
     7
100
AcDbLine
 10
465.815854
 20
306.958118
 30
0.0
 11
465.874053
 21
306.958118
 31
0.0
  0
LINE
  5
253
330
1F
100
AcDbEntity
  8
1
  6
CONTINUOUS
 62
     7
100
AcDbLine
 10
127.395696
 20
308.500593
 30
0.0
 11
127.395696
 21
309.000593
 31
0.0
  0
LINE
  5
254
330
1F
100
AcDbEntity
  8
1
  6
CONTINUOUS
 62
     7
100
AcDbLine
 10
405.266434
 20
306.200593
 30
0.0
 11
404.466434
 21
306.200593
 31
0.0
  0
LINE
  5
255
330
1F
100
AcDbEntity
  8
1
  6
CONTINUOUS
 62
     7
100
AcDbLine
 10
362.896434
 20
303.822314
 30
0.0
 11
362.896434
 21
307.108719
 31
0.0
  0
LINE
  5
256
330
1F
100
AcDbEntity
  8
1
  6
CONTINUOUS
 62
     7
100
AcDbLine
 10
337.770129
 20
213.656287
 30
0.0
 11
337.614166
 21
213.433549
 31
0.0
  0
LINE
  5
257
330
1F
100
AcDbEntity
  8
1
  6
CONTINUOUS
 62
     7
100
AcDbLine
 10
237.110774
 20
240.629929
 30
0.0
 11
237.266737
 21
240.40719
 31
0.0
  0
LINE
  5
258
330
1F
100
AcDbEntity
  8
1
  6
CONTINUOUS
 62
     7
100
AcDbLine
 10
311.38295
 20
117.288608
 30
0.0
 11
311.909266
 21
117.288608
 31
0.0
  0
LINE
  5
259
330
1F
100
AcDbEntity
  8
1
  6
CONTINUOUS
 62
    40
100
AcDbLine
 10
455.319017
 20
309.000061
 30
0.0
 11
455.894205
 21
309.000061
 31
0.0
  0
LINE
  5
25A
330
1F
100
AcDbEntity
  8
1
  6
CONTINUOUS
 62
     7
100
AcDbLine
 10
436.904757
 20
292.749513
 30
0.0
 11
436.904757
 21
294.157988
 31
0.0
  0
LINE
  5
25B
330
1F
100
AcDbEntity
  8
1
  6
CONTINUOUS
 62
     7
100
AcDbLine
 10
367.049617
 20
113.829977
 30
0.0
 11
365.38295
 21
113.829977
 31
0.0
  0
LINE
  5
25C
330
1F
100
AcDbEntity
  8
1
  6
CONTINUOUS
 62
     7
100
AcDbLine
 10
359.296434
 20
304.04419
 30
0.0
 11
359.296434
 21
313.456996
 31
0.0
  0
LINE
  5
25D
330
1F
100
AcDbEntity
  8
1
  6
CONTINUOUS
 62
     7
100
AcDbLine
 10
362.896434
 20
313.678872
 30
0.0
 11
366.604639
 21
313.687706
 31
0.0
  0
LINE
  5
25E
330
1F
100
AcDbEntity
  8
1
  6
CONTINUOUS
 62
     7
100
AcDbLine
 10
222.49046
 20
235.962605
 30
0.0
 11
222.498179
 21
235.662651
 31
0.0
  0
LINE
  5
25F
330
1F
100
AcDbEntity
  8
1
  6
CONTINUOUS
 62
     7
100
AcDbLine
 10
148.65704
 20
102.163226
 30
0.0
 11
148.768162
 21
102.163226
 31
0.0
  0
LINE
  5
260
330
1F
100
AcDbEntity
  8
1
  6
CONTINUOUS
 62
     7
100
AcDbLine
 10
415.766434
 20
310.150593
 30
0.0
 11
415.766434
 21
310.850593
 31
0.0
  0
LINE
  5
261
330
1F
100
AcDbEntity
  8
1
  6
CONTINUOUS
 62
     7
100
AcDbLine
 10
235.160625
 20
92.612752
 30
0.0
 11
235.160625
 21
103.569415
 31
0.0
  0
LINE
  5
262
330
1F
100
AcDbEntity
  8
1
  6
CONTINUOUS
 62
     7
100
AcDbLine
 10
417.766434
 20
307.350593
 30
0.0
 11
415.766434
 21
307.350593
 31
0.0
  0
LINE
  5
263
330
1F
100
AcDbEntity
  8
1
  6
CONTINUOUS
 62
     7
100
AcDbLine
 10
235.160625
 20
114.757205
 30
0.0
 11
235.160625
 21
125.713869
 31
0.0
  0
LINE
  5
264
330
1F
100
AcDbEntity
  8
1
  6
CONTINUOUS
 62
     7
100
AcDbLine
 10
377.38295
 20
110.16331
 30
0.0
 11
380.049617
 21
110.16331
 31
0.0
  0
LINE
  5
265
330
1F
100
AcDbEntity
  8
1
  6
CONTINUOUS
 62
     7
100
AcDbLine
 10
353.9093
 20
314.038229
 30
0.0
 11
356.916434
 21
313.857862
 31
0.0
  0
LINE
  5
266
330
1F
100
AcDbEntity
  8
1
  6
CONTINUOUS
 62
     7
100
AcDbLine
 10
184.521325
 20
292.750593
 30
0.0
 11
129.270066
 21
292.750593
 31
0.0
  0
LINE
  5
267
330
1F
100
AcDbEntity
  8
1
  6
CONTINUOUS
 62
     7
100
AcDbLine
 10
148.668656
 20
118.929944
 30
0.0
 11
148.668656
 21
125.836169
 31
0.0
  0
LINE
  5
268
330
1F
100
AcDbEntity
  8
1
  6
CONTINUOUS
 62
     7
100
AcDbLine
 10
231.952702
 20
129.16331
 30
0.0
 11
151.946528
 21
129.16331
 31
0.0
  0
LINE
  5
269
330
1F
100
AcDbEntity
  8
1
  6
CONTINUOUS
 62
     7
100
AcDbLine
 10
186.895696
 20
308.500593
 30
0.0
 11
186.817138
 21
305.500593
 31
0.0
  0
LINE
  5
26A
330
1F
100
AcDbEntity
  8
1
  6
CONTINUOUS
 62
     7
100
AcDbLine
 10
312.189968
 20
117.288608
 30
0.0
 11
312.716284
 21
117.288608
 31
0.0
  0
LINE
  5
26B
330
1F
100
AcDbEntity
  8
1
  6
CONTINUOUS
 62
     7
100
AcDbLine
 10
145.695318
 20
300.550856
 30
0.0
 11
145.395308
 21
300.550856
 31
0.0
  0
LINE
  5
26C
330
1F
100
AcDbEntity
  8
1
  6
CONTINUOUS
 62
     7
100
AcDbLine
 10
402.166434
 20
309.500593
 30
0.0
 11
396.166434
 21
309.500593
 31
0.0
  0
LINE
  5
26D
330
1F
100
AcDbEntity
  8
1
  6
CONTINUOUS
 62
     7
100
AcDbLine
 10
235.049617
 20
113.650259
 30
0.0
 11
235.049617
 21
104.676362
 31
0.0
  0
LINE
  5
26E
330
1F
100
AcDbEntity
  8
1
  6
CONTINUOUS
 62
     7
100
AcDbLine
 10
365.316434
 20
304.129733
 30
0.0
 11
365.316434
 21
313.371453
 31
0.0
  0
LINE
  5
26F
330
1F
100
AcDbEntity
  8
1
  6
CONTINUOUS
 62
     7
100
AcDbLine
 10
239.969617
 20
105.825026
 30
0.0
 11
239.969617
 21
108.02331
 31
0.0
  0
LINE
  5
270
330
1F
100
AcDbEntity
  8
1
  6
CONTINUOUS
 62
     7
100
AcDbLine
 10
358.116434
 20
219.629497
 30
0.0
 11
358.116434
 21
229.185423
 31
0.0
  0
LINE
  5
271
330
1F
100
AcDbEntity
  8
1
  6
CONTINUOUS
 62
     9
100
AcDbLine
 10
224.640804
 20
248.539618
 30
0.0
 11
223.143602
 21
248.539618
 31
0.0
  0
LINE
  5
272
330
1F
100
AcDbEntity
  8
1
  6
CONTINUOUS
 62
     7
100
AcDbLine
 10
436.904757
 20
324.750593
 30
0.0
 11
436.904757
 21
323.342118
 31
0.0
  0
LINE
  5
273
330
1F
100
AcDbEntity
  8
1
  6
CONTINUOUS
 62
     7
100
AcDbLine
 10
362.896434
 20
309.850593
 30
0.0
 11
362.896434
 21
313.6788
 31
0.0
  0
LINE
  5
274
330
1F
100
AcDbEntity
  8
1
  6
CONTINUOUS
 62
     9
100
AcDbLine
 10
227.257107
 20
254.40746
 30
0.0
 11
227.257107
 21
254.328902
 31
0.0
  0
LINE
  5
275
330
1F
100
AcDbEntity
  8
1
  6
CONTINUOUS
 62
     9
100
AcDbLine
 10
227.440595
 20
194.590948
 30
0.0
 11
228.134276
 21
195.284628
 31
0.0
  0
LINE
  5
276
330
1F
100
AcDbEntity
  8
1
  6
CONTINUOUS
 62
     7
100
AcDbLine
 10
243.98295
 20
110.296644
 30
0.0
 11
243.98295
 21
112.445745
 31
0.0
  0
LINE
  5
277
330
1F
100
AcDbEntity
  8
1
  6
CONTINUOUS
 62
     9
100
AcDbLine
 10
222.449921
 20
199.581622
 30
0.0
 11
223.143602
 21
200.275302
 31
0.0
  0
LINE
  5
278
330
1F
100
AcDbEntity
  8
1
  6
CONTINUOUS
 62
     7
100
AcDbLine
 10
145.640125
 20
317.85144
 30
0.0
 11
168.151267
 21
317.85144
 31
0.0
  0
LINE
  5
279
330
1F
100
AcDbEntity
  8
1
  6
CONTINUOUS
 62
     7
100
AcDbLine
 10
236.78295
 20
105.665754
 30
0.0
 11
236.78295
 21
108.02331
 31
0.0
  0
LINE
  5
27A
330
1F
100
AcDbEntity
  8
1
  6
CONTINUOUS
 62
     9
100
AcDbLine
 10
352.082946
 20
249.233298
 30
0.0
 11
351.389265
 21
248.539618
 31
0.0
  0
LINE
  5
27B
330
1F
100
AcDbEntity
  8
1
  6
CONTINUOUS
 62
     7
100
AcDbLine
 10
488.664292
 20
292.749513
 30
0.0
 11
433.411167
 21
292.749513
 31
0.0
  0
LINE
  5
27C
330
1F
100
AcDbEntity
  8
1
  6
CONTINUOUS
 62
     7
100
AcDbLine
 10
385.38295
 20
115.66331
 30
0.0
 11
364.049617
 21
115.66331
 31
0.0
  0
LINE
  5
27D
330
1F
100
AcDbEntity
  8
1
  6
CONTINUOUS
 62
     7
100
AcDbLine
 10
417.766434
 20
310.150593
 30
0.0
 11
417.766434
 21
310.850593
 31
0.0
  0
LINE
  5
27E
330
1F
100
AcDbEntity
  8
1
  6
CONTINUOUS
 62
     7
100
AcDbLine
 10
161.195841
 20
304.750998
 30
0.0
 11
158.91649
 21
304.750998
 31
0.0
  0
LINE
  5
27F
330
1F
100
AcDbEntity
  8
1
  6
CONTINUOUS
 62
     7
100
AcDbLine
 10
222.493222
 20
213.003802
 30
0.0
 11
222.494251
 21
213.152269
 31
0.0
  0
LINE
  5
280
330
1F
100
AcDbEntity
  8
1
  6
CONTINUOUS
 62
     9
100
AcDbLine
 10
222.792896
 20
299.893
 30
0.0
 11
222.491831
 21
299.893
 31
0.0
  0
LINE
  5
281
330
1F
100
AcDbEntity
  8
1
  6
CONTINUOUS
 62
     7
100
AcDbLine
 10
313.212364
 20
99.259463
 30
0.0
 11
311.859054
 21
97.326736
 31
0.0
  0
LINE
  5
282
330
1F
100
AcDbEntity
  8
1
  6
CONTINUOUS
 62
    40
100
AcDbLine
 10
466.201857
 20
308.500045
 30
0.0
 11
466.787924
 21
308.500045
 31
0.0
  0
LINE
  5
283
330
1F
100
AcDbEntity
  8
1
  6
CONTINUOUS
 62
     9
100
AcDbLine
 10
150.199197
 20
125.251416
 30
0.0
 11
150.199197
 21
93.075205
 31
0.0
  0
LINE
  5
284
330
1F
100
AcDbEntity
  8
1
  6
CONTINUOUS
 62
     9
100
AcDbLine
 10
231.371056
 20
90.746224
 30
0.0
 11
231.371056
 21
89.748089
 31
0.0
  0
LINE
  5
285
330
1F
100
AcDbEntity
  8
1
  6
CONTINUOUS
 62
     7
100
AcDbLine
 10
353.9093
 20
303.462957
 30
0.0
 11
356.916434
 21
303.643324
 31
0.0
  0
LINE
  5
286
330
1F
100
AcDbEntity
  8
1
  6
CONTINUOUS
 62
     7
100
AcDbLine
 10
385.38295
 20
115.66331
 30
0.0
 11
385.38295
 21
102.66331
 31
0.0
  0
LINE
  5
287
330
1F
100
AcDbEntity
  8
1
  6
CONTINUOUS
 62
     9
100
AcDbLine
 10
244.841754
 20
105.871902
 30
0.0
 11
244.841754
 21
112.454719
 31
0.0
  0
LINE
  5
288
330
1F
100
AcDbEntity
  8
1
  6
CONTINUOUS
 62
     7
100
AcDbLine
 10
236.378195
 20
112.688401
 30
0.0
 11
236.78295
 21
112.660867
 31
0.0
  0
LINE
  5
289
330
1F
100
AcDbEntity
  8
1
  6
CONTINUOUS
 62
     7
100
AcDbLine
 10
146.095331
 20
300.150843
 30
0.0
 11
167.69606
 21
300.150843
 31
0.0
  0
LINE
  5
28A
330
1F
100
AcDbEntity
  8
1
  6
CONTINUOUS
 62
     7
100
AcDbLine
 10
167.69606
 20
317.55143
 30
0.0
 11
167.69606
 21
317.85144
 31
0.0
  0
LINE
  5
28B
330
1F
100
AcDbEntity
  8
1
  6
CONTINUOUS
 62
     7
100
AcDbLine
 10
362.896434
 20
303.822314
 30
0.0
 11
366.604639
 21
303.813481
 31
0.0
  0
LINE
  5
28C
330
1F
100
AcDbEntity
  8
1
  6
CONTINUOUS
 62
     9
100
AcDbLine
 10
181.027854
 20
323.342166
 30
0.0
 11
181.721534
 21
312.000593
 31
0.0
  0
LINE
  5
28D
330
1F
100
AcDbEntity
  8
1
  6
CONTINUOUS
 62
     7
100
AcDbLine
 10
311.38295
 20
110.329977
 30
0.0
 11
283.512119
 21
110.329977
 31
0.0
  0
LINE
  5
28E
330
1F
100
AcDbEntity
  8
1
  6
CONTINUOUS
 62
     7
100
AcDbLine
 10
485.170702
 20
294.157988
 30
0.0
 11
436.904757
 21
294.157988
 31
0.0
  0
LINE
  5
28F
330
1F
100
AcDbEntity
  8
1
  6
CONTINUOUS
 62
     7
100
AcDbLine
 10
485.170702
 20
292.749513
 30
0.0
 11
485.170702
 21
294.157988
 31
0.0
  0
LINE
  5
290
330
1F
100
AcDbEntity
  8
1
  6
CONTINUOUS
 62
     7
100
AcDbLine
 10
278.784572
 20
110.329977
 30
0.0
 11
245.38295
 21
110.329977
 31
0.0
  0
LINE
  5
291
330
1F
100
AcDbEntity
  8
1
  6
CONTINUOUS
 62
     7
100
AcDbLine
 10
456.106571
 20
309.700085
 30
0.0
 11
455.983702
 21
309.100066
 31
0.0
  0
LINE
  5
292
330
1F
100
AcDbEntity
  8
1
  6
CONTINUOUS
 62
     7
100
AcDbLine
 10
440.58295
 20
106.829977
 30
0.0
 11
441.649617
 21
107.06331
 31
0.0
  0
LINE
  5
293
330
1F
100
AcDbEntity
  8
1
  6
CONTINUOUS
 62
     7
100
AcDbLine
 10
152.677483
 20
299.800831
 30
0.0
 11
152.668174
 21
299.850833
 31
0.0
  0
LINE
  5
294
330
1F
100
AcDbEntity
  8
1
  6
CONTINUOUS
 62
     7
100
AcDbLine
 10
334.91812
 20
114.476349
 30
0.0
 11
312.716284
 21
112.53394
 31
0.0
  0
LINE
  5
295
330
1F
100
AcDbEntity
  8
1
  6
CONTINUOUS
 62
     7
100
AcDbLine
 10
365.38295
 20
112.16331
 30
0.0
 11
365.38295
 21
113.829977
 31
0.0
  0
LINE
  5
296
330
1F
100
AcDbEntity
  8
1
  6
CONTINUOUS
 62
     7
100
AcDbLine
 10
408.191738
 20
308.079451
 30
0.0
 11
406.387576
 21
306.275289
 31
0.0
  0
LINE
  5
297
330
1F
100
AcDbEntity
  8
1
  6
CONTINUOUS
 62
     7
100
AcDbLine
 10
224.640804
 20
324.750593
 30
0.0
 11
349.892063
 21
324.750593
 31
0.0
  0
LINE
  5
298
330
1F
100
AcDbEntity
  8
1
  6
CONTINUOUS
 62
     7
100
AcDbLine
 10
352.266434
 20
249.416786
 30
0.0
 11
352.266434
 21
230.402249
 31
0.0
  0
LINE
  5
299
330
1F
100
AcDbEntity
  8
1
  6
CONTINUOUS
 62
     7
100
AcDbLine
 10
168.096074
 20
317.151417
 30
0.0
 11
168.396084
 21
317.151417
 31
0.0
  0
LINE
  5
29A
330
1F
100
AcDbEntity
  8
1
  6
CONTINUOUS
 62
     7
100
AcDbLine
 10
336.904075
 20
212.156237
 30
0.0
 11
337.174953
 21
212.132538
 31
0.0
  0
LINE
  5
29B
330
1F
100
AcDbEntity
  8
1
  6
CONTINUOUS
 62
     7
100
AcDbLine
 10
168.151267
 20
299.800831
 30
0.0
 11
145.640125
 21
299.800831
 31
0.0
  0
LINE
  5
29C
330
1F
100
AcDbEntity
  8
1
  6
CONTINUOUS
 62
     7
100
AcDbLine
 10
456.201406
 20
306.958118
 30
0.0
 11
456.259605
 21
306.958118
 31
0.0
  0
LINE
  5
29D
330
1F
100
AcDbEntity
  8
1
  6
CONTINUOUS
 62
     7
100
AcDbLine
 10
485.170702
 20
324.750593
 30
0.0
 11
485.170702
 21
323.342118
 31
0.0
  0
LINE
  5
29E
330
1F
100
AcDbEntity
  8
1
  6
CONTINUOUS
 62
     7
100
AcDbLine
 10
377.967195
 20
310.500593
 30
0.0
 11
388.166434
 21
310.500593
 31
0.0
  0
LINE
  5
29F
330
1F
100
AcDbEntity
  8
1
  6
CONTINUOUS
 62
     7
100
AcDbLine
 10
459.327672
 20
313.560047
 30
0.0
 11
459.327672
 21
313.480098
 31
0.0
  0
LINE
  5
2A0
330
1F
100
AcDbEntity
  8
1
  6
CONTINUOUS
 62
     7
100
AcDbLine
 10
355.736434
 20
219.23664
 30
0.0
 11
359.296434
 21
219.400033
 31
0.0
  0
LINE
  5
2A1
330
1F
100
AcDbEntity
  8
1
  6
CONTINUOUS
 62
     7
100
AcDbLine
 10
148.768162
 20
116.666771
 30
0.0
 11
148.768162
 21
101.65985
 31
0.0
  0
LINE
  5
2A2
330
1F
100
AcDbEntity
  8
1
  6
CONTINUOUS
 62
     9
100
AcDbLine
 10
151.943425
 20
129.16331
 30
0.0
 11
151.943425
 21
129.110938
 31
0.0
  0
LINE
  5
2A3
330
1F
100
AcDbEntity
  8
1
  6
CONTINUOUS
 62
     7
100
AcDbLine
 10
312.716284
 20
101.108188
 30
0.0
 11
312.716284
 21
117.288608
 31
0.0
  0
LINE
  5
2A4
330
1F
100
AcDbEntity
  8
1
  6
CONTINUOUS
 62
     7
100
AcDbLine
 10
353.9093
 20
219.119824
 30
0.0
 11
354.516434
 21
219.161125
 31
0.0
  0
LINE
  5
2A5
330
1F
100
AcDbEntity
  8
1
  6
CONTINUOUS
 62
     7
100
AcDbLine
 10
414.966434
 20
305.250593
 30
0.0
 11
416.566434
 21
305.600593
 31
0.0
  0
LINE
  5
2A6
330
1F
100
AcDbEntity
  8
1
  6
CONTINUOUS
 62
     7
100
AcDbLine
 10
417.766434
 20
310.850593
 30
0.0
 11
415.766434
 21
310.850593
 31
0.0
  0
LINE
  5
2A7
330
1F
100
AcDbEntity
  8
1
  6
CONTINUOUS
 62
     9
100
AcDbLine
 10
346.398591
 20
253.530292
 30
0.0
 11
228.134276
 21
253.530292
 31
0.0
  0
LINE
  5
2A8
330
1F
100
AcDbEntity
  8
1
  6
CONTINUOUS
 62
     7
100
AcDbLine
 10
456.050158
 20
309.700085
 30
0.0
 11
456.106571
 21
309.700085
 31
0.0
  0
LINE
  5
2A9
330
1F
100
AcDbEntity
  8
1
  6
CONTINUOUS
 62
     7
100
AcDbLine
 10
347.27576
 20
194.40746
 30
0.0
 11
227.257108
 21
194.40746
 31
0.0
  0
LINE
  5
2AA
330
1F
100
AcDbEntity
  8
1
  6
CONTINUOUS
 62
     7
100
AcDbLine
 10
222.494251
 20
213.152269
 30
0.0
 11
222.494251
 21
235.662651
 31
0.0
  0
LINE
  5
2AB
330
1F
100
AcDbEntity
  8
1
  6
CONTINUOUS
 62
     7
100
AcDbLine
 10
240.78295
 20
112.477256
 30
0.0
 11
243.18295
 21
112.444021
 31
0.0
  0
LINE
  5
2AC
330
1F
100
AcDbEntity
  8
1
  6
CONTINUOUS
 62
     7
100
AcDbLine
 10
168.600568
 20
309.001141
 30
0.0
 11
168.451231
 21
317.556666
 31
0.0
  0
LINE
  5
2AD
330
1F
100
AcDbEntity
  8
1
  6
CONTINUOUS
 62
     9
100
AcDbLine
 10
152.528178
 20
90.746224
 30
0.0
 11
152.528178
 21
89.748089
 31
0.0
  0
LINE
  5
2AE
330
1F
100
AcDbEntity
  8
1
  6
CONTINUOUS
 62
     7
100
AcDbLine
 10
462.747787
 20
303.932351
 30
0.0
 11
462.747787
 21
303.893486
 31
0.0
  0
LINE
  5
2AF
330
1F
100
AcDbEntity
  8
1
  6
CONTINUOUS
 62
     9
100
AcDbLine
 10
228.134276
 20
323.342166
 30
0.0
 11
346.398591
 21
323.342166
 31
0.0
  0
LINE
  5
2B0
330
1F
100
AcDbEntity
  8
1
  6
CONTINUOUS
 62
     7
100
AcDbLine
 10
365.316434
 20
219.483808
 30
0.0
 11
365.316434
 21
222.70746
 31
0.0
  0
LINE
  5
2B1
330
1F
100
AcDbEntity
  8
1
  6
CONTINUOUS
 62
     7
100
AcDbLine
 10
382.38295
 20
106.16331
 30
0.0
 11
382.38295
 21
104.496644
 31
0.0
  0
LINE
  5
2B2
330
1F
100
AcDbEntity
  8
1
  6
CONTINUOUS
 62
     9
100
AcDbLine
 10
233.700037
 20
125.251416
 30
0.0
 11
234.698172
 21
125.251416
 31
0.0
  0
LINE
  5
2B3
330
1F
100
AcDbEntity
  8
1
  6
CONTINUOUS
 62
     7
100
AcDbLine
 10
222.991211
 20
296.650593
 30
0.0
 11
222.576737
 21
296.650593
 31
0.0
  0
LINE
  5
2B4
330
1F
100
AcDbEntity
  8
1
  6
CONTINUOUS
 62
     7
100
AcDbLine
 10
317.266434
 20
203.40746
 30
0.0
 11
317.266434
 21
245.40746
 31
0.0
  0
LINE
  5
2B5
330
1F
100
AcDbEntity
  8
1
  6
CONTINUOUS
 62
     7
100
AcDbLine
 10
161.195841
 20
304.450988
 30
0.0
 11
158.91649
 21
304.450988
 31
0.0
  0
LINE
  5
2B6
330
1F
100
AcDbEntity
  8
1
  6
CONTINUOUS
 62
     7
100
AcDbLine
 10
222.49046
 20
235.962605
 30
0.0
 11
222.266434
 21
236.111937
 31
0.0
  0
LINE
  5
2B7
330
1F
100
AcDbEntity
  8
1
  6
CONTINUOUS
 62
     7
100
AcDbLine
 10
461.612073
 20
302.777402
 30
0.0
 11
460.463386
 21
302.777402
 31
0.0
  0
LINE
  5
2B8
330
1F
100
AcDbEntity
  8
1
  6
CONTINUOUS
 62
     7
100
AcDbLine
 10
372.049617
 20
108.16331
 30
0.0
 11
369.38295
 21
108.16331
 31
0.0
  0
LINE
  5
2B9
330
1F
100
AcDbEntity
  8
1
  6
CONTINUOUS
 62
     7
100
AcDbLine
 10
236.400683
 20
241.907241
 30
0.0
 11
236.515598
 21
241.660803
 31
0.0
  0
LINE
  5
2BA
330
1F
100
AcDbEntity
  8
1
  6
CONTINUOUS
 62
     9
100
AcDbLine
 10
131.886408
 20
309.000593
 30
0.0
 11
131.886407
 21
312.000593
 31
0.0
  0
LINE
  5
2BB
330
1F
100
AcDbEntity
  8
1
  6
CONTINUOUS
 62
     9
100
AcDbLine
 10
227.257146
 20
309.000593
 30
0.0
 11
227.257145
 21
312.000593
 31
0.0
  0
LINE
  5
2BC
330
1F
100
AcDbEntity
  8
1
  6
CONTINUOUS
 62
     9
100
AcDbLine
 10
149.201062
 20
125.251416
 30
0.0
 11
148.738609
 21
125.713869
 31
0.0
  0
LINE
  5
2BD
330
1F
100
AcDbEntity
  8
1
  6
CONTINUOUS
 62
     7
100
AcDbLine
 10
351.766434
 20
308.500593
 30
0.0
 11
351.766434
 21
309.000593
 31
0.0
  0
LINE
  5
2BE
330
1F
100
AcDbEntity
  8
1
  6
CONTINUOUS
 62
     9
100
AcDbLine
 10
222.266434
 20
199.398134
 30
0.0
 11
222.344991
 21
199.398134
 31
0.0
  0
LINE
  5
2BF
330
1F
100
AcDbEntity
  8
1
  6
CONTINUOUS
 62
     7
100
AcDbLine
 10
382.916284
 20
112.696644
 30
0.0
 11
384.049617
 21
112.696644
 31
0.0
  0
LINE
  5
2C0
330
1F
100
AcDbEntity
  8
1
  6
CONTINUOUS
 62
     7
100
AcDbLine
 10
490.960182
 20
312.000163
 30
0.0
 11
469.428855
 21
312.000163
 31
0.0
  0
LINE
  5
2C1
330
1F
100
AcDbEntity
  8
1
  6
CONTINUOUS
 62
     7
100
AcDbLine
 10
337.614166
 20
211.878958
 30
0.0
 11
337.770129
 21
211.65622
 31
0.0
  0
LINE
  5
2C2
330
1F
100
AcDbEntity
  8
1
  6
CONTINUOUS
 62
     7
100
AcDbLine
 10
145.184714
 20
309.001141
 30
0.0
 11
145.340161
 21
300.095605
 31
0.0
  0
LINE
  5
2C3
330
1F
100
AcDbEntity
  8
1
  6
CONTINUOUS
 62
     7
100
AcDbLine
 10
378.365672
 20
307.000593
 30
0.0
 11
388.166434
 21
307.000593
 31
0.0
  0
LINE
  5
2C4
330
1F
100
AcDbEntity
  8
1
  6
CONTINUOUS
 62
     9
100
AcDbLine
 10
346.398591
 20
323.342166
 30
0.0
 11
347.092272
 21
312.000593
 31
0.0
  0
LINE
  5
2C5
330
1F
100
AcDbEntity
  8
1
  6
CONTINUOUS
 62
     7
100
AcDbLine
 10
362.449617
 20
107.996644
 30
0.0
 11
345.314662
 21
107.996644
 31
0.0
  0
LINE
  5
2C6
330
1F
100
AcDbEntity
  8
1
  6
CONTINUOUS
 62
     7
100
AcDbLine
 10
352.082946
 20
249.233298
 30
0.0
 11
352.082946
 21
232.798302
 31
0.0
  0
LINE
  5
2C7
330
1F
100
AcDbEntity
  8
1
  6
CONTINUOUS
 62
     7
100
AcDbLine
 10
367.416434
 20
226.15746
 30
0.0
 11
377.217195
 21
226.15746
 31
0.0
  0
LINE
  5
2C8
330
1F
100
AcDbEntity
  8
1
  6
CONTINUOUS
 62
     7
100
AcDbLine
 10
436.799503
 20
107.06331
 30
0.0
 11
442.58295
 21
107.06331
 31
0.0
  0
LINE
  5
2C9
330
1F
100
AcDbEntity
  8
1
  6
CONTINUOUS
 62
     7
100
AcDbLine
 10
148.738609
 20
118.929944
 30
0.0
 11
148.961143
 21
118.866436
 31
0.0
  0
LINE
  5
2CA
330
1F
100
AcDbEntity
  8
1
  6
CONTINUOUS
 62
     7
100
AcDbLine
 10
154.874902
 20
304.450988
 30
0.0
 11
154.874902
 21
304.750998
 31
0.0
  0
LINE
  5
2CB
330
1F
100
AcDbEntity
  8
1
  6
CONTINUOUS
 62
     7
100
AcDbLine
 10
237.596284
 20
105.716097
 30
0.0
 11
239.969617
 21
105.825026
 31
0.0
  0
LINE
  5
2CC
330
1F
100
AcDbEntity
  8
1
  6
CONTINUOUS
 62
     7
100
AcDbLine
 10
355.736434
 20
226.11746
 30
0.0
 11
355.736434
 21
229.57828
 31
0.0
  0
LINE
  5
2CD
330
1F
100
AcDbEntity
  8
1
  6
CONTINUOUS
 62
     7
100
AcDbLine
 10
432.049617
 20
107.329977
 30
0.0
 11
428.049617
 21
107.329977
 31
0.0
  0
LINE
  5
2CE
330
1F
100
AcDbEntity
  8
1
  6
CONTINUOUS
 62
     7
100
AcDbLine
 10
431.115277
 20
305.499943
 30
0.0
 11
452.646604
 21
305.499943
 31
0.0
  0
LINE
  5
2CF
330
1F
100
AcDbEntity
  8
1
  6
CONTINUOUS
 62
     7
100
AcDbLine
 10
352.082946
 20
305.500593
 30
0.0
 11
351.389265
 21
294.15902
 31
0.0
  0
LINE
  5
2D0
330
1F
100
AcDbEntity
  8
1
  6
CONTINUOUS
 62
     9
100
AcDbLine
 10
366.604639
 20
303.813481
 30
0.0
 11
366.604639
 21
313.687706
 31
0.0
  0
LINE
  5
2D1
330
1F
100
AcDbEntity
  8
1
  6
CONTINUOUS
 62
     9
100
AcDbLine
 10
148.616284
 20
92.490452
 30
0.0
 11
148.668656
 21
92.490451
 31
0.0
  0
LINE
  5
2D2
330
1F
100
AcDbEntity
  8
1
  6
CONTINUOUS
 62
     9
100
AcDbLine
 10
222.266434
 20
249.416786
 30
0.0
 11
222.344991
 21
249.416786
 31
0.0
  0
LINE
  5
2D3
330
1F
100
AcDbEntity
  8
1
  6
CONTINUOUS
 62
     7
100
AcDbLine
 10
222.491831
 20
238.962148
 30
0.0
 11
222.344991
 21
239.060029
 31
0.0
  0
LINE
  5
2D4
330
1F
100
AcDbEntity
  8
1
  6
CONTINUOUS
 62
     7
100
AcDbLine
 10
440.58295
 20
111.496644
 30
0.0
 11
432.049617
 21
111.496644
 31
0.0
  0
LINE
  5
2D5
330
1F
100
AcDbEntity
  8
1
  6
CONTINUOUS
 62
     7
100
AcDbLine
 10
409.291262
 20
311.900593
 30
0.0
 11
417.966434
 21
311.900593
 31
0.0
  0
LINE
  5
2D6
330
1F
100
AcDbEntity
  8
1
  6
CONTINUOUS
 62
     7
100
AcDbLine
 10
452.646604
 20
312.000163
 30
0.0
 11
431.115277
 21
312.000163
 31
0.0
  0
LINE
  5
2D7
330
1F
100
AcDbEntity
  8
1
  6
CONTINUOUS
 62
     7
100
AcDbLine
 10
358.116434
 20
309.850593
 30
0.0
 11
358.116434
 21
313.802713
 31
0.0
  0
LINE
  5
2D8
330
1F
100
AcDbEntity
  8
1
  6
CONTINUOUS
 62
     7
100
AcDbLine
 10
235.28295
 20
92.493558
 30
0.0
 11
235.28295
 21
105.166784
 31
0.0
  0
LINE
  5
2D9
330
1F
100
AcDbEntity
  8
1
  6
CONTINUOUS
 62
     7
100
AcDbLine
 10
150.19547
 20
299.800831
 30
0.0
 11
150.19547
 21
299.850833
 31
0.0
  0
LINE
  5
2DA
330
1F
100
AcDbEntity
  8
1
  6
CONTINUOUS
 62
     7
100
AcDbLine
 10
158.91649
 20
313.251285
 30
0.0
 11
161.195841
 21
313.251285
 31
0.0
  0
LINE
  5
2DB
330
1F
100
AcDbEntity
  8
1
  6
CONTINUOUS
 62
     7
100
AcDbLine
 10
338.636184
 20
213.15627
 30
0.0
 11
338.365305
 21
213.179969
 31
0.0
  0
LINE
  5
2DC
330
1F
100
AcDbEntity
  8
1
  6
CONTINUOUS
 62
     7
100
AcDbLine
 10
417.766434
 20
307.350593
 30
0.0
 11
417.766434
 21
306.650593
 31
0.0
  0
LINE
  5
2DD
330
1F
100
AcDbEntity
  8
1
  6
CONTINUOUS
 62
     7
100
AcDbLine
 10
369.38295
 20
108.16331
 30
0.0
 11
369.38295
 21
110.16331
 31
0.0
  0
LINE
  5
2DE
330
1F
100
AcDbEntity
  8
1
  6
CONTINUOUS
 62
     7
100
AcDbLine
 10
490.161544
 20
323.342118
 30
0.0
 11
490.855248
 21
312.000163
 31
0.0
  0
LINE
  5
2DF
330
1F
100
AcDbEntity
  8
1
  6
CONTINUOUS
 62
     7
100
AcDbLine
 10
167.950546
 20
317.85144
 30
0.0
 11
167.949643
 21
317.799665
 31
0.0
  0
LINE
  5
2E0
330
1F
100
AcDbEntity
  8
1
  6
CONTINUOUS
 62
     7
100
AcDbLine
 10
129.270066
 20
324.750593
 30
0.0
 11
184.521325
 21
324.750593
 31
0.0
  0
LINE
  5
2E1
330
1F
100
AcDbEntity
  8
1
  6
CONTINUOUS
 62
     7
100
AcDbLine
 10
289.384478
 20
116.800803
 30
0.0
 11
311.38295
 21
114.876186
 31
0.0
  0
LINE
  5
2E2
330
1F
100
AcDbEntity
  8
1
  6
CONTINUOUS
 62
     7
100
AcDbLine
 10
403.666434
 20
305.250593
 30
0.0
 11
403.666434
 21
312.250593
 31
0.0
  0
LINE
  5
2E3
330
1F
100
AcDbEntity
  8
1
  6
CONTINUOUS
 62
     7
100
AcDbLine
 10
385.38295
 20
116.329977
 30
0.0
 11
362.049617
 21
116.329977
 31
0.0
  0
LINE
  5
2E4
330
1F
100
AcDbEntity
  8
1
  6
CONTINUOUS
 62
     7
100
AcDbLine
 10
163.077834
 20
299.800831
 30
0.0
 11
163.068525
 21
299.850833
 31
0.0
  0
LINE
  5
2E5
330
1F
100
AcDbEntity
  8
1
  6
CONTINUOUS
 62
     7
100
AcDbLine
 10
222.344991
 20
199.398134
 30
0.0
 11
222.344991
 21
209.754891
 31
0.0
  0
LINE
  5
2E6
330
1F
100
AcDbEntity
  8
1
  6
CONTINUOUS
 62
     7
100
AcDbLine
 10
408.191738
 20
311.579451
 30
0.0
 11
406.387576
 21
309.775289
 31
0.0
  0
LINE
  5
2E7
330
1F
100
AcDbEntity
  8
1
  6
CONTINUOUS
 62
     9
100
AcDbLine
 10
223.143602
 20
248.539618
 30
0.0
 11
223.143602
 21
200.275302
 31
0.0
  0
LINE
  5
2E8
330
1F
100
AcDbEntity
  8
1
  6
CONTINUOUS
 62
     9
100
AcDbLine
 10
228.134276
 20
324.750593
 30
0.0
 11
228.134276
 21
323.342166
 31
0.0
  0
LINE
  5
2E9
330
1F
100
AcDbEntity
  8
1
  6
CONTINUOUS
 62
     7
100
AcDbLine
 10
238.132792
 20
240.907207
 30
0.0
 11
238.017876
 21
241.153644
 31
0.0
  0
LINE
  5
2EA
330
1F
100
AcDbEntity
  8
1
  6
CONTINUOUS
 62
     7
100
AcDbLine
 10
434.116284
 20
110.86331
 30
0.0
 11
433.58295
 21
110.86331
 31
0.0
  0
LINE
  5
2EB
330
1F
100
AcDbEntity
  8
1
  6
CONTINUOUS
 62
     7
100
AcDbLine
 10
437.38295
 20
109.396644
 30
0.0
 11
442.58295
 21
109.396644
 31
0.0
  0
LINE
  5
2EC
330
1F
100
AcDbEntity
  8
1
  6
CONTINUOUS
 62
     7
100
AcDbLine
 10
127.079184
 20
305.500593
 30
0.0
 11
127.772864
 21
294.15902
 31
0.0
  0
LINE
  5
2ED
330
1F
100
AcDbEntity
  8
1
  6
CONTINUOUS
 62
     7
100
AcDbLine
 10
364.116434
 20
304.132488
 30
0.0
 11
364.116434
 21
313.368698
 31
0.0
  0
LINE
  5
2EE
330
1F
100
AcDbEntity
  8
1
  6
CONTINUOUS
 62
     9
100
AcDbLine
 10
224.640804
 20
200.275302
 30
0.0
 11
223.143602
 21
200.275302
 31
0.0
  0
LINE
  5
2EF
330
1F
100
AcDbEntity
  8
1
  6
CONTINUOUS
 62
     7
100
AcDbLine
 10
382.916284
 20
105.029977
 30
0.0
 11
384.049617
 21
105.029977
 31
0.0
  0
LINE
  5
2F0
330
1F
100
AcDbEntity
  8
1
  6
CONTINUOUS
 62
     7
100
AcDbLine
 10
367.049617
 20
106.16331
 30
0.0
 11
367.049617
 21
104.496644
 31
0.0
  0
LINE
  5
2F1
330
1F
100
AcDbEntity
  8
1
  6
CONTINUOUS
 62
     7
100
AcDbLine
 10
405.266434
 20
311.300593
 30
0.0
 11
405.266434
 21
309.700593
 31
0.0
  0
LINE
  5
2F2
330
1F
100
AcDbEntity
  8
1
  6
CONTINUOUS
 62
     7
100
AcDbLine
 10
156.289458
 20
306.101044
 30
0.0
 11
156.029641
 21
306.251049
 31
0.0
  0
LINE
  5
2F3
330
1F
100
AcDbEntity
  8
1
  6
CONTINUOUS
 62
     7
100
AcDbLine
 10
359.296434
 20
226.15746
 30
0.0
 11
360.516434
 21
226.15746
 31
0.0
  0
LINE
  5
2F4
330
1F
100
AcDbEntity
  8
1
  6
CONTINUOUS
 62
     9
100
AcDbLine
 10
228.134276
 20
196.78183
 30
0.0
 11
228.134276
 21
195.284628
 31
0.0
  0
LINE
  5
2F5
330
1F
100
AcDbEntity
  8
1
  6
CONTINUOUS
 62
     9
100
AcDbLine
 10
151.943425
 20
89.16331
 30
0.0
 11
151.943425
 21
89.215682
 31
0.0
  0
LINE
  5
2F6
330
1F
100
AcDbEntity
  8
1
  6
CONTINUOUS
 62
     7
100
AcDbLine
 10
352.266434
 20
308.500593
 30
0.0
 11
352.037352
 21
299.75233
 31
0.0
  0
LINE
  5
2F7
330
1F
100
AcDbEntity
  8
1
  6
CONTINUOUS
 62
     7
100
AcDbLine
 10
352.266433
 20
309.000593
 30
0.0
 11
352.037345
 21
317.749115
 31
0.0
  0
LINE
  5
2F8
330
1F
100
AcDbEntity
  8
1
  6
CONTINUOUS
 62
     7
100
AcDbLine
 10
126.974254
 20
312.000593
 30
0.0
 11
142.245745
 21
312.000593
 31
0.0
  0
LINE
  5
2F9
330
1F
100
AcDbEntity
  8
1
  6
CONTINUOUS
 62
     7
100
AcDbLine
 10
171.545647
 20
312.000593
 30
0.0
 11
186.817138
 21
312.000593
 31
0.0
  0
LINE
  5
2FA
330
1F
100
AcDbEntity
  8
1
  6
CONTINUOUS
 62
     7
100
AcDbLine
 10
222.576737
 20
296.650593
 30
0.0
 11
222.266434
 21
308.500593
 31
0.0
  0
LINE
  5
2FB
330
1F
100
AcDbEntity
  8
1
  6
CONTINUOUS
 62
     7
100
AcDbLine
 10
222.266434
 20
309.000593
 30
0.0
 11
222.572809
 21
320.700593
 31
0.0
  0
LINE
  5
2FC
330
1F
100
AcDbEntity
  8
1
  6
CONTINUOUS
 62
     7
100
AcDbLine
 10
171.548265
 20
305.500593
 30
0.0
 11
186.817138
 21
305.500593
 31
0.0
  0
LINE
  5
2FD
330
1F
100
AcDbEntity
  8
1
  6
CONTINUOUS
 62
     7
100
AcDbLine
 10
126.974254
 20
305.500593
 30
0.0
 11
142.243127
 21
305.500593
 31
0.0
  0
ARC
  5
2FE
330
1F
100
AcDbEntity
  8
1
  6
CONTINUOUS
 62
     7
100
AcDbCircle
 10
227.257535
 20
249.397947
 30
0.0
 40
5.009512221240001
100
AcDbArc
 50
89.951149
 51
101.774089
  0
ARC
  5
2FF
330
1F
100
AcDbEntity
  8
1
  6
CONTINUOUS
 62
     7
100
AcDbCircle
 10
236.619266
 20
240.285771
 30
0.0
 40
0.6000202495886251
100
AcDbArc
 50
35.0
 51
85.0
  0
ARC
  5
300
330
1F
100
AcDbEntity
  8
1
  6
CONTINUOUS
 62
     7
100
AcDbCircle
 10
258.766434
 20
203.40746
 30
0.0
 40
1.50000000227999
100
AcDbArc
 50
180.0
 51
270.0
  0
ARC
  5
301
330
1F
100
AcDbEntity
  8
1
  6
CONTINUOUS
 62
     7
100
AcDbCircle
 10
312.521959
 20
98.653136
 30
0.0
 40
1.248979133417766
100
AcDbArc
 50
145.0
 51
245.041386
  0
ARC
  5
302
330
1F
100
AcDbEntity
  8
1
  6
CONTINUOUS
 62
     7
100
AcDbCircle
 10
235.971795
 20
241.407224
 30
0.0
 40
0.6000202495886262
100
AcDbArc
 50
335.0
 51
25.0
  0
ARC
  5
303
330
1F
100
AcDbEntity
  8
1
  6
CONTINUOUS
 62
     7
100
AcDbCircle
 10
311.017581
 20
111.413946
 30
0.0
 40
75.86747529378668
100
AcDbArc
 50
178.314026
 51
178.562874
  0
CIRCLE
  5
304
330
1F
100
AcDbEntity
  8
1
  6
CONTINUOUS
 62
     7
100
AcDbCircle
 10
461.037729
 20
308.600048
 30
0.0
 40
4.937366073552344
  0
ARC
  5
305
330
1F
100
AcDbEntity
  8
1
  6
CONTINUOUS
 62
     7
100
AcDbCircle
 10
461.037729
 20
308.600048
 30
0.0
 40
5.170994568243845
100
AcDbArc
 50
109.311383
 51
250.688617
  0
ARC
  5
306
330
1F
100
AcDbEntity
  8
1
  6
CONTINUOUS
 62
     7
100
AcDbCircle
 10
167.69606
 20
317.151417
 30
0.0
 40
0.7000236279068446
100
AcDbArc
 50
0.0
 51
90.0
  0
ARC
  5
307
330
1F
100
AcDbEntity
  8
1
  6
CONTINUOUS
 62
     7
100
AcDbCircle
 10
227.436957
 20
249.236937
 30
0.0
 40
4.986915705599984
100
AcDbArc
 50
89.958196
 51
180.041804
  0
ARC
  5
308
330
1F
100
AcDbEntity
  8
1
  6
CONTINUOUS
 62
     7
100
AcDbCircle
 10
485.03854
 20
293.374534
 30
0.0
 40
1.625054846869331
100
AcDbArc
 50
202.619865
 51
337.380135
  0
ARC
  5
309
330
1F
100
AcDbEntity
  8
1
  6
CONTINUOUS
 62
     7
100
AcDbCircle
 10
461.037729
 20
308.750053
 30
0.0
 40
6.000202506046567
100
AcDbArc
 50
95.492799
 51
177.611985
  0
ARC
  5
30A
330
1F
100
AcDbEntity
  8
1
  6
PHANTOM
 62
     6
100
AcDbCircle
 10
380.921434
 20
309.950593
 30
0.0
 40
3.004999999995262
100
AcDbArc
 50
156.463422
 51
203.536578
  0
ARC
  5
30B
330
1F
100
AcDbEntity
  8
1
  6
CONTINUOUS
 62
     7
100
AcDbCircle
 10
224.640853
 20
323.250593
 30
0.0
 40
1.500000002280005
100
AcDbArc
 50
90.001883
 51
176.500115
  0
ARC
  5
30C
330
1F
100
AcDbEntity
  8
1
  6
CONTINUOUS
 62
     7
100
AcDbCircle
 10
407.466434
 20
310.500593
 30
0.0
 40
2.299999999999976
100
AcDbArc
 50
310.459083
 51
37.49525
  0
ARC
  5
30D
330
1F
100
AcDbEntity
  8
1
  6
CONTINUOUS
 62
     7
100
AcDbCircle
 10
461.037729
 20
308.600048
 30
0.0
 40
5.10744107975095
100
AcDbArc
 50
198.752331
 51
341.247669
  0
ARC
  5
30E
330
1F
100
AcDbEntity
  8
1
  6
CONTINUOUS
 62
     7
100
AcDbCircle
 10
146.095331
 20
300.550856
 30
0.0
 40
0.4000127512471536
100
AcDbArc
 50
180.0
 51
270.0
  0
ARC
  5
30F
330
1F
100
AcDbEntity
  8
1
  6
CONTINUOUS
 62
     9
100
AcDbCircle
 10
228.138387
 20
248.535507
 30
0.0
 40
4.994737615280006
100
AcDbArc
 50
90.04716
 51
179.95284
  0
ARC
  5
310
330
1F
100
AcDbEntity
  8
1
  6
CONTINUOUS
 62
     7
100
AcDbCircle
 10
407.466434
 20
307.000593
 30
0.0
 40
2.299999999999973
100
AcDbArc
 50
322.50475
 51
49.540917
  0
CIRCLE
  5
311
330
1F
100
AcDbEntity
  8
1
  6
CONTINUOUS
 62
     7
100
AcDbCircle
 10
237.266737
 20
241.407224
 30
0.0
 40
2.500084376672712
  0
ARC
  5
312
330
1F
100
AcDbEntity
  8
1
  6
CONTINUOUS
 62
     7
100
AcDbCircle
 10
349.89203
 20
294.250593
 30
0.0
 40
1.500000002280005
100
AcDbArc
 50
270.00126
 51
356.500077
  0
ARC
  5
313
330
1F
100
AcDbEntity
  8
1
  6
CONTINUOUS
 62
     7
100
AcDbCircle
 10
152.595551
 20
308.851136
 30
0.0
 40
4.400147889056058
100
AcDbArc
 50
90.0
 51
270.0
  0
ARC
  5
314
330
1F
100
AcDbEntity
  8
1
  6
CONTINUOUS
 62
     7
100
AcDbCircle
 10
151.940981
 20
125.838613
 30
0.0
 40
3.324618964159998
100
AcDbArc
 50
89.90439
 51
180.095666
  0
ARC
  5
315
330
1F
100
AcDbEntity
  8
1
  6
CONTINUOUS
 62
     7
100
AcDbCircle
 10
461.037729
 20
308.750053
 30
0.0
 40
8.998566670643038
100
AcDbArc
 50
21.172732
 51
158.827268
  0
ARC
  5
316
330
1F
100
AcDbEntity
  8
1
  6
CONTINUOUS
 62
     7
100
AcDbCircle
 10
315.766434
 20
203.40746
 30
0.0
 40
1.50000000227999
100
AcDbArc
 50
270.0
 51
0.0
  0
CIRCLE
  5
317
330
1F
100
AcDbEntity
  8
1
  6
CONTINUOUS
 62
     7
100
AcDbCircle
 10
152.595551
 20
308.851136
 30
0.0
 40
3.000101253023289
  0
ARC
  5
318
330
1F
100
AcDbEntity
  8
1
  6
CONTINUOUS
 62
     7
100
AcDbCircle
 10
338.4176
 20
211.534801
 30
0.0
 40
0.6000202495886259
100
AcDbArc
 50
95.0
 51
145.0
  0
ARC
  5
319
330
1F
100
AcDbEntity
  8
1
  6
CONTINUOUS
 62
     7
100
AcDbCircle
 10
145.640125
 20
300.100841
 30
0.0
 40
3.300111377817602
100
AcDbArc
 50
181.0
 51
270.0
  0
ARC
  5
31A
330
1F
100
AcDbEntity
  8
1
  6
CONTINUOUS
 62
     7
100
AcDbCircle
 10
227.253469
 20
199.394496
 30
0.0
 40
4.986915832600006
100
AcDbArc
 50
179.958198
 51
270.041804
  0
ARC
  5
31B
330
1F
100
AcDbEntity
  8
1
  6
CONTINUOUS
 62
     7
100
AcDbCircle
 10
231.835935
 20
92.610326
 30
0.0
 40
3.324610473786666
100
AcDbArc
 50
269.958196
 51
0.041804
  0
ARC
  5
31C
330
1F
100
AcDbEntity
  8
1
  6
CONTINUOUS
 62
     7
100
AcDbCircle
 10
315.766434
 20
245.40746
 30
0.0
 40
1.50000000227999
100
AcDbArc
 50
0.0
 51
90.0
  0
CIRCLE
  5
31D
330
1F
100
AcDbEntity
  8
1
  6
CONTINUOUS
 62
     7
100
AcDbCircle
 10
161.195841
 20
308.851136
 30
0.0
 40
3.000101253023289
  0
ARC
  5
31E
330
1F
100
AcDbEntity
  8
1
  6
CONTINUOUS
 62
     7
100
AcDbCircle
 10
152.595551
 20
308.851136
 30
0.0
 40
4.100138378962498
100
AcDbArc
 50
90.0
 51
270.0
  0
ARC
  5
31F
330
1F
100
AcDbEntity
  8
1
  6
CONTINUOUS
 62
     7
100
AcDbCircle
 10
231.95826
 20
92.488001
 30
0.0
 40
3.272239009653336
100
AcDbArc
 50
269.957098
 51
0.042902
  0
ARC
  5
320
330
1F
100
AcDbEntity
  8
1
  6
CONTINUOUS
 62
     7
100
AcDbCircle
 10
231.958254
 20
92.488007
 30
0.0
 40
3.324618964159999
100
AcDbArc
 50
269.90439
 51
0.095666
  0
ARC
  5
321
330
1F
100
AcDbEntity
  8
1
  6
CONTINUOUS
 62
     7
100
AcDbCircle
 10
335.38295
 20
109.16331
 30
0.0
 40
5.333333333333339
100
AcDbArc
 50
265.0
 51
95.0
  0
ARC
  5
322
330
1F
100
AcDbEntity
  8
1
  6
CONTINUOUS
 62
     7
100
AcDbCircle
 10
366.616434
 20
304.613394
 30
0.0
 40
0.8000000002000001
100
AcDbArc
 50
269.155277
 51
0.0
  0
ARC
  5
323
330
1F
100
AcDbEntity
  8
1
  6
CONTINUOUS
 62
     7
100
AcDbCircle
 10
435.58295
 20
110.329977
 30
0.0
 40
1.53333333333334
100
AcDbArc
 50
310.459083
 51
37.49525
  0
CIRCLE
  5
324
330
1F
100
AcDbEntity
  8
1
  6
CONTINUOUS
 62
     7
100
AcDbCircle
 10
337.770129
 20
212.656253
 30
0.0
 40
1.250042173095841
  0
ARC
  5
325
330
1F
100
AcDbEntity
  8
1
  6
CONTINUOUS
 62
     7
100
AcDbCircle
 10
158.91649
 20
305.251015
 30
0.0
 40
0.8000211183063456
100
AcDbArc
 50
210.0
 51
270.0
  0
ARC
  5
326
330
1F
100
AcDbEntity
  8
1
  6
CONTINUOUS
 62
     7
100
AcDbCircle
 10
347.279398
 20
199.394496
 30
0.0
 40
4.986915832600006
100
AcDbArc
 50
269.958198
 51
0.041804
  0
ARC
  5
327
330
1F
100
AcDbEntity
  8
1
  6
CONTINUOUS
 62
     7
100
AcDbCircle
 10
357.516434
 20
309.850593
 30
0.0
 40
0.5999999988800084
100
AcDbArc
 50
180.0
 51
0.0
  0
ARC
  5
328
330
1F
100
AcDbEntity
  8
1
  6
PHANTOM
 62
     6
100
AcDbCircle
 10
380.171434
 20
309.950593
 30
0.0
 40
3.004999999995262
100
AcDbArc
 50
156.463422
 51
203.536578
  0
ARC
  5
329
330
1F
100
AcDbEntity
  8
1
  6
CONTINUOUS
 62
     9
100
AcDbCircle
 10
346.39448
 20
248.535507
 30
0.0
 40
4.994737615280006
100
AcDbArc
 50
0.04716
 51
89.95284
  0
ARC
  5
32A
330
1F
100
AcDbEntity
  8
1
  6
CONTINUOUS
 62
     7
100
AcDbCircle
 10
156.895696
 20
311.951241
 30
0.0
 40
1.000033752701153
100
AcDbArc
 50
210.0
 51
330.0
  0
ARC
  5
32B
330
1F
100
AcDbEntity
  8
1
  6
CONTINUOUS
 62
     7
100
AcDbCircle
 10
227.436957
 20
199.577983
 30
0.0
 40
4.986915705599996
100
AcDbArc
 50
179.958196
 51
270.041804
  0
ARC
  5
32C
330
1F
100
AcDbEntity
  8
1
  6
CONTINUOUS
 62
     7
100
AcDbCircle
 10
231.95826
 20
125.83862
 30
0.0
 40
3.27223900965332
100
AcDbArc
 50
359.957098
 51
90.042902
  0
ARC
  5
32D
330
1F
100
AcDbEntity
  8
1
  6
CONTINUOUS
 62
     7
100
AcDbCircle
 10
362.049617
 20
103.329977
 30
0.0
 40
0.6666666666666856
100
AcDbArc
 50
180.0
 51
270.0
  0
ARC
  5
32E
330
1F
100
AcDbEntity
  8
1
  6
CONTINUOUS
 62
     7
100
AcDbCircle
 10
461.037729
 20
308.600048
 30
0.0
 40
5.00759615706061
100
AcDbArc
 50
109.967846
 51
250.032154
  0
CIRCLE
  5
32F
330
1F
100
AcDbEntity
  8
1
  6
CONTINUOUS
 62
     7
100
AcDbCircle
 10
407.466434
 20
307.000593
 30
0.0
 40
1.3
  0
ARC
  5
330
330
1F
100
AcDbEntity
  8
1
  6
CONTINUOUS
 62
     7
100
AcDbCircle
 10
461.037729
 20
308.600048
 30
0.0
 40
4.971085584587255
100
AcDbArc
 50
110.120816
 51
249.879184
  0
ARC
  5
331
330
1F
100
AcDbEntity
  8
1
  6
CONTINUOUS
 62
     7
100
AcDbCircle
 10
362.049617
 20
104.66331
 30
0.0
 40
0.6666666666666714
100
AcDbArc
 50
90.0
 51
180.0
  0
ARC
  5
332
330
1F
100
AcDbEntity
  8
1
  6
CONTINUOUS
 62
     9
100
AcDbCircle
 10
152.52648
 20
125.253111
 30
0.0
 40
2.327227722133336
100
AcDbArc
 50
89.958195
 51
180.041752
  0
ARC
  5
333
330
1F
100
AcDbEntity
  8
1
  6
CONTINUOUS
 62
     7
100
AcDbCircle
 10
461.037729
 20
308.750053
 30
0.0
 40
6.000202506046552
100
AcDbArc
 50
2.388015
 51
84.507201
  0
ARC
  5
334
330
1F
100
AcDbEntity
  8
1
  6
CONTINUOUS
 62
     7
100
AcDbCircle
 10
362.049617
 20
110.996644
 30
0.0
 40
3.0
100
AcDbArc
 50
180.0
 51
270.0
  0
ARC
  5
335
330
1F
100
AcDbEntity
  8
1
  6
CONTINUOUS
 62
     7
100
AcDbCircle
 10
396.166434
 20
295.450593
 30
0.0
 40
16.24999999999818
100
AcDbArc
 50
90.0
 51
104.250033
  0
ARC
  5
336
330
1F
100
AcDbEntity
  8
1
  6
CONTINUOUS
 62
     7
100
AcDbCircle
 10
354.363605
 20
212.63572
 30
0.0
 40
6.49999999971999
100
AcDbArc
 50
94.007838
 51
109.281163
  0
ARC
  5
337
330
1F
100
AcDbEntity
  8
1
  6
CONTINUOUS
 62
     7
100
AcDbCircle
 10
288.716284
 20
109.16331
 30
0.0
 40
10.0
100
AcDbArc
 50
85.0
 51
275.0
  0
ARC
  5
338
330
1F
100
AcDbEntity
  8
1
  6
CONTINUOUS
 62
     7
100
AcDbCircle
 10
244.849617
 20
111.921443
 30
0.0
 40
0.5333333334666577
100
AcDbArc
 50
0.0
 51
90.844723
  0
ARC
  5
339
330
1F
100
AcDbEntity
  8
1
  6
CONTINUOUS
 62
     7
100
AcDbCircle
 10
461.037729
 20
308.600048
 30
0.0
 40
5.170994568243845
100
AcDbArc
 50
289.311383
 51
70.688617
  0
ARC
  5
33A
330
1F
100
AcDbEntity
  8
1
  6
CONTINUOUS
 62
     7
100
AcDbCircle
 10
161.195841
 20
308.851136
 30
0.0
 40
4.100138378962498
100
AcDbArc
 50
270.0
 51
90.0
  0
ARC
  5
33B
330
1F
100
AcDbEntity
  8
1
  6
CONTINUOUS
 62
     7
100
AcDbCircle
 10
347.279398
 20
199.394496
 30
0.0
 40
4.90835814364
100
AcDbArc
 50
269.957529
 51
0.042471
  0
ARC
  5
33C
330
1F
100
AcDbEntity
  8
1
  6
CONTINUOUS
 62
     7
100
AcDbCircle
 10
347.09591
 20
249.236937
 30
0.0
 40
4.986915705599993
100
AcDbArc
 50
359.958196
 51
90.041804
  0
ARC
  5
33D
330
1F
100
AcDbEntity
  8
1
  6
CONTINUOUS
 62
     7
100
AcDbCircle
 10
168.151267
 20
317.55143
 30
0.0
 40
3.300111377817597
100
AcDbArc
 50
1.0
 51
90.0
  0
ARC
  5
33E
330
1F
100
AcDbEntity
  8
1
  6
CONTINUOUS
 62
     7
100
AcDbCircle
 10
180.895696
 20
293.375593
 30
0.0
 40
1.625000001200006
100
AcDbArc
 50
202.619865
 51
337.380135
  0
ARC
  5
33F
330
1F
100
AcDbEntity
  8
1
  6
CONTINUOUS
 62
     7
100
AcDbCircle
 10
364.393241
 20
153.829782
 30
0.0
 40
149.9999999994
100
AcDbArc
 50
91.03016
 51
92.398264
  0
ARC
  5
340
330
1F
100
AcDbEntity
  8
1
  6
CONTINUOUS
 62
     7
100
AcDbCircle
 10
167.69606
 20
300.550856
 30
0.0
 40
0.4000127512471465
100
AcDbArc
 50
270.0
 51
0.0
  0
ARC
  5
341
330
1F
100
AcDbEntity
  8
1
  6
CONTINUOUS
 62
     7
100
AcDbCircle
 10
355.126434
 20
226.11746
 30
0.0
 40
0.6099999991999994
100
AcDbArc
 50
180.0
 51
0.0
  0
ARC
  5
342
330
1F
100
AcDbEntity
  8
1
  6
CONTINUOUS
 62
     7
100
AcDbCircle
 10
385.38295
 20
115.66331
 30
0.0
 40
3.0
100
AcDbArc
 50
0.0
 51
90.0
  0
CIRCLE
  5
343
330
1F
100
AcDbEntity
  8
1
  6
CONTINUOUS
 62
     7
100
AcDbCircle
 10
237.266737
 20
241.407224
 30
0.0
 40
2.578634820873503
  0
ARC
  5
344
330
1F
100
AcDbEntity
  8
1
  6
CONTINUOUS
 62
     9
100
AcDbCircle
 10
346.394481
 20
200.279413
 30
0.0
 40
4.994737615280004
100
AcDbArc
 50
270.047151
 51
359.952849
  0
ARC
  5
345
330
1F
100
AcDbEntity
  8
1
  6
CONTINUOUS
 62
     7
100
AcDbCircle
 10
433.411167
 20
323.250542
 30
0.0
 40
1.500050629051742
100
AcDbArc
 50
90.0
 51
176.5
  0
ARC
  5
346
330
1F
100
AcDbEntity
  8
1
  6
CONTINUOUS
 62
     7
100
AcDbCircle
 10
237.189617
 20
110.30331
 30
0.0
 40
0.4066666661333329
100
AcDbArc
 50
180.0
 51
0.0
  0
ARC
  5
347
330
1F
100
AcDbEntity
  8
1
  6
CONTINUOUS
 62
     7
100
AcDbCircle
 10
461.037729
 20
308.750053
 30
0.0
 40
6.000202506046589
100
AcDbArc
 50
275.492799
 51
357.611985
  0
ARC
  5
348
330
1F
100
AcDbEntity
  8
1
  6
CONTINUOUS
 62
     7
100
AcDbCircle
 10
339.065071
 20
212.656253
 30
0.0
 40
0.6000202495886262
100
AcDbArc
 50
155.0
 51
205.0
  0
ARC
  5
349
330
1F
100
AcDbEntity
  8
1
  6
PHANTOM
 62
     6
100
AcDbCircle
 10
380.171434
 20
225.60746
 30
0.0
 40
3.004999999995262
100
AcDbArc
 50
156.463422
 51
203.536578
  0
CIRCLE
  5
34A
330
1F
100
AcDbEntity
  8
1
  6
CONTINUOUS
 62
     7
100
AcDbCircle
 10
407.466434
 20
310.500593
 30
0.0
 40
1.3
  0
CIRCLE
  5
34B
330
1F
100
AcDbEntity
  8
1
  6
CONTINUOUS
 62
     7
100
AcDbCircle
 10
337.770129
 20
212.656253
 30
0.0
 40
2.578634820873503
  0
ARC
  5
34C
330
1F
100
AcDbEntity
  8
1
  6
CONTINUOUS
 62
     7
100
AcDbCircle
 10
288.716284
 20
109.16331
 30
0.0
 40
5.333333333333339
100
AcDbArc
 50
85.0
 51
275.0
  0
ARC
  5
34D
330
1F
100
AcDbEntity
  8
1
  6
CONTINUOUS
 62
     7
100
AcDbCircle
 10
151.940974
 20
92.488001
 30
0.0
 40
3.272239009653336
100
AcDbArc
 50
179.957098
 51
270.042902
  0
ARC
  5
34E
330
1F
100
AcDbEntity
  8
1
  6
CONTINUOUS
 62
     7
100
AcDbCircle
 10
461.037729
 20
308.600048
 30
0.0
 40
5.00759615706061
100
AcDbArc
 50
289.967846
 51
70.032154
  0
ARC
  5
34F
330
1F
100
AcDbEntity
  8
1
  6
CONTINUOUS
 62
     7
100
AcDbCircle
 10
437.036919
 20
293.374534
 30
0.0
 40
1.625054846869331
100
AcDbArc
 50
202.619865
 51
337.380135
  0
ARC
  5
350
330
1F
100
AcDbEntity
  8
1
  6
CONTINUOUS
 62
     7
100
AcDbCircle
 10
236.681064
 20
117.011137
 30
0.0
 40
4.333333333146668
100
AcDbArc
 50
250.716992
 51
265.992162
  0
ARC
  5
351
330
1F
100
AcDbEntity
  8
1
  6
CONTINUOUS
 62
     7
100
AcDbCircle
 10
158.91649
 20
305.251015
 30
0.0
 40
0.5000168763505692
100
AcDbArc
 50
210.0
 51
270.0
  0
ARC
  5
352
330
1F
100
AcDbEntity
  8
1
  6
CONTINUOUS
 62
     7
100
AcDbCircle
 10
461.037729
 20
308.600048
 30
0.0
 40
5.246512023081105
100
AcDbArc
 50
109.022645
 51
250.977355
  0
ARC
  5
353
330
1F
100
AcDbEntity
  8
1
  6
CONTINUOUS
 62
     7
100
AcDbCircle
 10
154.874902
 20
312.451258
 30
0.0
 40
0.5000168763505815
100
AcDbArc
 50
30.0
 51
90.0
  0
ARC
  5
354
330
1F
100
AcDbEntity
  8
1
  6
CONTINUOUS
 62
     7
100
AcDbCircle
 10
338.4176
 20
213.777706
 30
0.0
 40
0.6000202495886251
100
AcDbArc
 50
215.0
 51
265.0
  0
ARC
  5
355
330
1F
100
AcDbEntity
  8
1
  6
CONTINUOUS
 62
     7
100
AcDbCircle
 10
461.037729
 20
308.600048
 30
0.0
 40
5.052366417738769
100
AcDbArc
 50
12.57557
 51
167.42443
  0
ARC
  5
356
330
1F
100
AcDbEntity
  8
1
  6
CONTINUOUS
 62
     7
100
AcDbCircle
 10
238.561679
 20
241.407224
 30
0.0
 40
0.6000202495886262
100
AcDbArc
 50
155.0
 51
205.0
  0
ARC
  5
357
330
1F
100
AcDbEntity
  8
1
  6
CONTINUOUS
 62
     7
100
AcDbCircle
 10
311.017581
 20
106.912674
 30
0.0
 40
75.86747528701332
100
AcDbArc
 50
181.437126
 51
181.685974
  0
ARC
  5
358
330
1F
100
AcDbEntity
  8
1
  6
CONTINUOUS
 62
     7
100
AcDbCircle
 10
347.279398
 20
249.420424
 30
0.0
 40
4.908358143639995
100
AcDbArc
 50
359.957529
 51
90.042471
  0
ARC
  5
359
330
1F
100
AcDbEntity
  8
1
  6
CONTINUOUS
 62
     7
100
AcDbCircle
 10
428.049617
 20
100.296644
 30
0.0
 40
10.83333333333213
100
AcDbArc
 50
90.0
 51
104.250033
  0
ARC
  5
35A
330
1F
100
AcDbEntity
  8
1
  6
CONTINUOUS
 62
     7
100
AcDbCircle
 10
154.874902
 20
312.451258
 30
0.0
 40
0.8000211183063498
100
AcDbArc
 50
30.0
 51
90.0
  0
ARC
  5
35B
330
1F
100
AcDbEntity
  8
1
  6
CONTINUOUS
 62
     7
100
AcDbCircle
 10
385.38295
 20
110.996644
 30
0.0
 40
0.6666666666666714
100
AcDbArc
 50
270.0
 51
0.0
  0
ARC
  5
35C
330
1F
100
AcDbEntity
  8
1
  6
CONTINUOUS
 62
     7
100
AcDbCircle
 10
168.151267
 20
300.100841
 30
0.0
 40
0.3000101247943121
100
AcDbArc
 50
270.0
 51
359.0
  0
ARC
  5
35D
330
1F
100
AcDbEntity
  8
1
  6
CONTINUOUS
 62
     7
100
AcDbCircle
 10
168.151267
 20
300.100841
 30
0.0
 40
3.300111377817615
100
AcDbArc
 50
270.0
 51
359.0
  0
CIRCLE
  5
35E
330
1F
100
AcDbEntity
  8
1
  6
CONTINUOUS
 62
     7
100
AcDbCircle
 10
346.266434
 20
248.40746
 30
0.0
 40
1.50000000228
  0
ARC
  5
35F
330
1F
100
AcDbEntity
  8
1
  6
CONTINUOUS
 62
     7
100
AcDbCircle
 10
146.095331
 20
317.151417
 30
0.0
 40
0.4000127512471465
100
AcDbArc
 50
90.0
 51
180.0
  0
ARC
  5
360
330
1F
100
AcDbEntity
  8
1
  6
CONTINUOUS
 62
     7
100
AcDbCircle
 10
227.253469
 20
249.420425
 30
0.0
 40
4.986915832599996
100
AcDbArc
 50
89.958198
 51
180.041804
  0
ARC
  5
361
330
1F
100
AcDbEntity
  8
1
  6
CONTINUOUS
 62
     7
100
AcDbCircle
 10
435.58295
 20
107.996644
 30
0.0
 40
1.533333333333346
100
AcDbArc
 50
322.50475
 51
49.540917
  0
ARC
  5
362
330
1F
100
AcDbEntity
  8
1
  6
CONTINUOUS
 62
     9
100
AcDbCircle
 10
346.401136
 20
200.272758
 30
0.0
 40
3.490842736360002
100
AcDbArc
 50
269.958238
 51
0.041762
  0
ARC
  5
363
330
1F
100
AcDbEntity
  8
1
  6
CONTINUOUS
 62
     7
100
AcDbCircle
 10
243.58295
 20
110.296644
 30
0.0
 40
0.399999999253339
100
AcDbArc
 50
180.0
 51
0.0
  0
ARC
  5
364
330
1F
100
AcDbEntity
  8
1
  6
CONTINUOUS
 62
     7
100
AcDbCircle
 10
156.895696
 20
305.751032
 30
0.0
 40
1.000033752701149
100
AcDbArc
 50
30.0
 51
150.0
  0
ARC
  5
365
330
1F
100
AcDbEntity
  8
1
  6
CONTINUOUS
 62
     7
100
AcDbCircle
 10
357.516434
 20
307.108719
 30
0.0
 40
0.59999999887998
100
AcDbArc
 50
0.0
 51
180.0
  0
ARC
  5
366
330
1F
100
AcDbEntity
  8
1
  6
CONTINUOUS
 62
     9
100
AcDbCircle
 10
231.368315
 20
93.077945
 30
0.0
 40
3.329825005733333
100
AcDbArc
 50
270.04715
 51
359.95285
  0
ARC
  5
367
330
1F
100
AcDbEntity
  8
1
  6
CONTINUOUS
 62
     7
100
AcDbCircle
 10
366.616434
 20
312.887792
 30
0.0
 40
0.8000000001999865
100
AcDbArc
 50
0.0
 51
90.844723
  0
ARC
  5
368
330
1F
100
AcDbEntity
  8
1
  6
CONTINUOUS
 62
     7
100
AcDbCircle
 10
231.835935
 20
125.716295
 30
0.0
 40
3.324610473786674
100
AcDbArc
 50
359.958196
 51
90.041804
  0
ARC
  5
369
330
1F
100
AcDbEntity
  8
1
  6
CONTINUOUS
 62
     7
100
AcDbCircle
 10
158.91649
 20
312.451258
 30
0.0
 40
0.5000168763505712
100
AcDbArc
 50
90.0
 51
150.0
  0
ARC
  5
36A
330
1F
100
AcDbEntity
  8
1
  6
CONTINUOUS
 62
     7
100
AcDbCircle
 10
422.716284
 20
121.296644
 30
0.0
 40
10.83333333333212
100
AcDbArc
 50
270.0
 51
284.250033
  0
ARC
  5
36B
330
1F
100
AcDbEntity
  8
1
  6
CONTINUOUS
 62
     7
100
AcDbCircle
 10
354.363605
 20
296.978853
 30
0.0
 40
6.49999999971999
100
AcDbArc
 50
94.007838
 51
110.193672
  0
ARC
  5
36C
330
1F
100
AcDbEntity
  8
1
  6
CONTINUOUS
 62
     7
100
AcDbCircle
 10
335.38295
 20
109.16331
 30
0.0
 40
7.666666666666663
100
AcDbArc
 50
265.0
 51
95.0
  0
ARC
  5
36D
330
1F
100
AcDbEntity
  8
1
  6
CONTINUOUS
 62
     7
100
AcDbCircle
 10
145.640125
 20
317.55143
 30
0.0
 40
0.3000101247943121
100
AcDbArc
 50
90.0
 51
179.0
  0
ARC
  5
36E
330
1F
100
AcDbEntity
  8
1
  6
CONTINUOUS
 62
     7
100
AcDbCircle
 10
347.09591
 20
199.577983
 30
0.0
 40
4.986915705599993
100
AcDbArc
 50
269.958196
 51
0.041804
  0
ARC
  5
36F
330
1F
100
AcDbEntity
  8
1
  6
CONTINUOUS
 62
     7
100
AcDbCircle
 10
240.376284
 20
108.02331
 30
0.0
 40
0.4066666661333329
100
AcDbArc
 50
0.0
 51
180.0
  0
ARC
  5
370
330
1F
100
AcDbEntity
  8
1
  6
CONTINUOUS
 62
     7
100
AcDbCircle
 10
362.296434
 20
307.108719
 30
0.0
 40
0.59999999887998
100
AcDbArc
 50
0.0
 51
180.0
  0
ARC
  5
371
330
1F
100
AcDbEntity
  8
1
  6
CONTINUOUS
 62
     7
100
AcDbCircle
 10
152.063299
 20
125.716295
 30
0.0
 40
3.324610473786664
100
AcDbArc
 50
89.958196
 51
180.041804
  0
CIRCLE
  5
372
330
1F
100
AcDbEntity
  8
1
  6
CONTINUOUS
 62
     7
100
AcDbCircle
 10
337.770129
 20
212.656253
 30
0.0
 40
2.500084376672712
  0
ARC
  5
373
330
1F
100
AcDbEntity
  8
1
  6
CONTINUOUS
 62
     7
100
AcDbCircle
 10
349.892014
 20
323.250593
 30
0.0
 40
1.50000000228
100
AcDbArc
 50
3.499885
 51
89.998117
  0
ARC
  5
374
330
1F
100
AcDbEntity
  8
1
  6
CONTINUOUS
 62
     7
100
AcDbCircle
 10
168.151267
 20
317.55143
 30
0.0
 40
0.3000101247943063
100
AcDbArc
 50
1.0
 51
90.0
  0
ARC
  5
375
330
1F
100
AcDbEntity
  8
1
  6
CONTINUOUS
 62
     7
100
AcDbCircle
 10
145.640125
 20
300.100841
 30
0.0
 40
0.3000101247943129
100
AcDbArc
 50
181.0
 51
270.0
  0
ARC
  5
376
330
1F
100
AcDbEntity
  8
1
  6
CONTINUOUS
 62
     7
100
AcDbCircle
 10
461.037729
 20
308.600048
 30
0.0
 40
5.10744107975095
100
AcDbArc
 50
12.437781
 51
167.562219
  0
CIRCLE
  5
377
330
1F
100
AcDbEntity
  8
1
  6
CONTINUOUS
 62
     7
100
AcDbCircle
 10
461.037729
 20
308.600048
 30
0.0
 40
5.287814345356236
  0
ARC
  5
378
330
1F
100
AcDbEntity
  8
1
  6
CONTINUOUS
 62
     7
100
AcDbCircle
 10
222.827574
 20
234.907586
 30
0.0
 40
0.5000060203235923
100
AcDbArc
 50
131.808148
 51
180.811076
  0
ARC
  5
379
330
1F
100
AcDbEntity
  8
1
  6
CONTINUOUS
 62
     7
100
AcDbCircle
 10
161.195841
 20
308.851136
 30
0.0
 40
4.400147889056058
100
AcDbArc
 50
270.0
 51
90.0
  0
ARC
  5
37A
330
1F
100
AcDbEntity
  8
1
  6
CONTINUOUS
 62
     7
100
AcDbCircle
 10
388.166434
 20
326.950593
 30
0.0
 40
16.24999999999818
100
AcDbArc
 50
270.0
 51
284.250033
  0
ARC
  5
37B
330
1F
100
AcDbEntity
  8
1
  6
CONTINUOUS
 62
     7
100
AcDbCircle
 10
156.895696
 20
311.951241
 30
0.0
 40
0.7000228150794119
100
AcDbArc
 50
210.0
 51
330.0
  0
ARC
  5
37C
330
1F
100
AcDbEntity
  8
1
  6
CONTINUOUS
 62
     7
100
AcDbCircle
 10
385.38295
 20
110.996644
 30
0.0
 40
3.0
100
AcDbArc
 50
270.0
 51
0.0
  0
CIRCLE
  5
37D
330
1F
100
AcDbEntity
  8
1
  6
CONTINUOUS
 62
     7
100
AcDbCircle
 10
228.266434
 20
248.40746
 30
0.0
 40
1.50000000228
  0
ARC
  5
37E
330
1F
100
AcDbEntity
  8
1
  6
CONTINUOUS
 62
     7
100
AcDbCircle
 10
366.616434
 20
220.270261
 30
0.0
 40
0.8000000002000001
100
AcDbArc
 50
269.155277
 51
0.0
  0
ARC
  5
37F
330
1F
100
AcDbEntity
  8
1
  6
CONTINUOUS
 62
     7
100
AcDbCircle
 10
461.037729
 20
308.750053
 30
0.0
 40
6.000202506046566
100
AcDbArc
 50
182.388015
 51
264.507201
  0
ARC
  5
380
330
1F
100
AcDbEntity
  8
1
  6
CONTINUOUS
 62
     7
100
AcDbCircle
 10
151.940974
 20
125.83862
 30
0.0
 40
3.272239009653337
100
AcDbArc
 50
89.957098
 51
180.042902
  0
ARC
  5
381
330
1F
100
AcDbEntity
  8
1
  6
CONTINUOUS
 62
     7
100
AcDbCircle
 10
461.037729
 20
308.600048
 30
0.0
 40
4.945222086253121
100
AcDbArc
 50
199.391639
 51
340.608361
  0
ARC
  5
382
330
1F
100
AcDbEntity
  8
1
  6
CONTINUOUS
 62
     7
100
AcDbCircle
 10
222.827574
 20
213.907334
 30
0.0
 40
0.5000060203235961
100
AcDbArc
 50
180.0
 51
228.191852
  0
ARC
  5
383
330
1F
100
AcDbEntity
  8
1
  6
CONTINUOUS
 62
     7
100
AcDbCircle
 10
224.640804
 20
294.250593
 30
0.0
 40
1.500000002279994
100
AcDbArc
 50
183.5
 51
270.0
  0
ARC
  5
384
330
1F
100
AcDbEntity
  8
1
  6
CONTINUOUS
 62
     7
100
AcDbCircle
 10
312.909656
 20
95.890277
 30
0.0
 40
1.248979133417766
100
AcDbArc
 50
325.0
 51
65.041386
  0
ARC
  5
385
330
1F
100
AcDbEntity
  8
1
  6
CONTINUOUS
 62
     9
100
AcDbCircle
 10
152.530919
 20
93.077946
 30
0.0
 40
3.329825005733331
100
AcDbArc
 50
180.047159
 51
269.952841
  0
ARC
  5
386
330
1F
100
AcDbEntity
  8
1
  6
CONTINUOUS
 62
     7
100
AcDbCircle
 10
354.363605
 20
320.522333
 30
0.0
 40
6.499999999720003
100
AcDbArc
 50
249.806327
 51
265.992162
  0
ARC
  5
387
330
1F
100
AcDbEntity
  8
1
  6
CONTINUOUS
 62
     7
100
AcDbCircle
 10
336.475187
 20
212.656253
 30
0.0
 40
0.6000202495886262
100
AcDbArc
 50
335.0
 51
25.0
  0
ARC
  5
388
330
1F
100
AcDbEntity
  8
1
  6
CONTINUOUS
 62
     7
100
AcDbCircle
 10
152.063299
 20
92.610326
 30
0.0
 40
3.324610473786666
100
AcDbArc
 50
179.958196
 51
270.041804
  0
ARC
  5
389
330
1F
100
AcDbEntity
  8
1
  6
CONTINUOUS
 62
     7
100
AcDbCircle
 10
385.38295
 20
115.66331
 30
0.0
 40
0.6666666666666856
100
AcDbArc
 50
0.0
 51
90.0
  0
CIRCLE
  5
38A
330
1F
100
AcDbEntity
  8
1
  6
CONTINUOUS
 62
     7
100
AcDbCircle
 10
435.58295
 20
110.329977
 30
0.0
 40
0.8666666666666742
  0
ARC
  5
38B
330
1F
100
AcDbEntity
  8
1
  6
CONTINUOUS
 62
     7
100
AcDbCircle
 10
362.049617
 20
110.996644
 30
0.0
 40
0.6666666666666856
100
AcDbArc
 50
180.0
 51
270.0
  0
ARC
  5
38C
330
1F
100
AcDbEntity
  8
1
  6
CONTINUOUS
 62
     7
100
AcDbCircle
 10
148.990378
 20
116.163395
 30
0.0
 40
0.3333373468823941
100
AcDbArc
 50
131.808148
 51
180.811076
  0
ARC
  5
38D
330
1F
100
AcDbEntity
  8
1
  6
CONTINUOUS
 62
     7
100
AcDbCircle
 10
335.38295
 20
109.16331
 30
0.0
 40
10.0
100
AcDbArc
 50
265.0
 51
95.0
  0
ARC
  5
38E
330
1F
100
AcDbEntity
  8
1
  6
CONTINUOUS
 62
     7
100
AcDbCircle
 10
244.849617
 20
106.405177
 30
0.0
 40
0.5333333334666714
100
AcDbArc
 50
269.155277
 51
0.0
  0
ARC
  5
38F
330
1F
100
AcDbEntity
  8
1
  6
CONTINUOUS
 62
     7
100
AcDbCircle
 10
129.270116
 20
323.250593
 30
0.0
 40
1.500000002280005
100
AcDbArc
 50
90.001883
 51
176.500115
  0
ARC
  5
390
330
1F
100
AcDbEntity
  8
1
  6
CONTINUOUS
 62
     7
100
AcDbCircle
 10
422.716284
 20
97.029977
 30
0.0
 40
10.83333333333213
100
AcDbArc
 50
75.749967
 51
90.0
  0
ARC
  5
391
330
1F
100
AcDbEntity
  8
1
  6
CONTINUOUS
 62
     7
100
AcDbCircle
 10
237.914208
 20
242.528676
 30
0.0
 40
0.6000202495886251
100
AcDbArc
 50
215.0
 51
265.0
  0
ARC
  5
392
330
1F
100
AcDbEntity
  8
1
  6
CONTINUOUS
 62
     7
100
AcDbCircle
 10
184.521292
 20
294.250593
 30
0.0
 40
1.500000002280005
100
AcDbArc
 50
270.00126
 51
356.500077
  0
CIRCLE
  5
393
330
1F
100
AcDbEntity
  8
1
  6
CONTINUOUS
 62
     7
100
AcDbCircle
 10
461.037729
 20
308.600048
 30
0.0
 40
4.137339072407456
  0
ARC
  5
394
330
1F
100
AcDbEntity
  8
1
  6
CONTINUOUS
 62
     7
100
AcDbCircle
 10
359.906434
 20
226.11746
 30
0.0
 40
0.6099999991999994
100
AcDbArc
 50
180.0
 51
0.0
  0
ARC
  5
395
330
1F
100
AcDbEntity
  8
1
  6
CONTINUOUS
 62
     7
100
AcDbCircle
 10
396.166434
 20
322.050593
 30
0.0
 40
16.24999999999818
100
AcDbArc
 50
255.749967
 51
270.0
  0
ARC
  5
396
330
1F
100
AcDbEntity
  8
1
  6
CONTINUOUS
 62
     7
100
AcDbCircle
 10
488.664242
 20
323.250542
 30
0.0
 40
1.500050629051741
100
AcDbArc
 50
3.499885
 51
89.998117
  0
ARC
  5
397
330
1F
100
AcDbEntity
  8
1
  6
CONTINUOUS
 62
     7
100
AcDbCircle
 10
347.279398
 20
249.420425
 30
0.0
 40
4.986915832599993
100
AcDbArc
 50
359.958198
 51
90.041804
  0
ARC
  5
398
330
1F
100
AcDbEntity
  8
1
  6
CONTINUOUS
 62
     7
100
AcDbCircle
 10
337.122658
 20
213.777706
 30
0.0
 40
0.6000202495886259
100
AcDbArc
 50
275.0
 51
325.0
  0
ARC
  5
399
330
1F
100
AcDbEntity
  8
1
  6
CONTINUOUS
 62
     7
100
AcDbCircle
 10
156.895696
 20
305.751032
 30
0.0
 40
0.70002281507941
100
AcDbArc
 50
30.0
 51
150.0
  0
ARC
  5
39A
330
1F
100
AcDbEntity
  8
1
  6
CONTINUOUS
 62
     7
100
AcDbCircle
 10
354.363605
 20
236.1792
 30
0.0
 40
6.499999999719998
100
AcDbArc
 50
250.718829
 51
265.992162
  0
ARC
  5
39B
330
1F
100
AcDbEntity
  8
1
  6
CONTINUOUS
 62
     7
100
AcDbCircle
 10
362.296434
 20
309.850593
 30
0.0
 40
0.59999999887998
100
AcDbArc
 50
180.0
 51
0.0
  0
ARC
  5
39C
330
1F
100
AcDbEntity
  8
1
  6
CONTINUOUS
 62
     7
100
AcDbCircle
 10
461.037729
 20
308.600048
 30
0.0
 40
5.052366417738785
100
AcDbArc
 50
198.964505
 51
341.035495
  0
CIRCLE
  5
39D
330
1F
100
AcDbEntity
  8
1
  6
CONTINUOUS
 62
     7
100
AcDbCircle
 10
346.266434
 20
200.40746
 30
0.0
 40
1.50000000228
  0
ARC
  5
39E
330
1F
100
AcDbEntity
  8
1
  6
CONTINUOUS
 62
     7
100
AcDbCircle
 10
461.037729
 20
308.600048
 30
0.0
 40
4.945222086253094
100
AcDbArc
 50
12.852647
 51
167.147353
  0
ARC
  5
39F
330
1F
100
AcDbEntity
  8
1
  6
CONTINUOUS
 62
     7
100
AcDbCircle
 10
359.906434
 20
222.69746
 30
0.0
 40
0.6099999991999994
100
AcDbArc
 50
0.0
 51
180.0
  0
ARC
  5
3A0
330
1F
100
AcDbEntity
  8
1
  6
PHANTOM
 62
     6
100
AcDbCircle
 10
374.661434
 20
307.550593
 30
0.0
 40
3.005000000001721
100
AcDbArc
 50
336.463422
 51
23.536578
  0
ARC
  5
3A1
330
1F
100
AcDbEntity
  8
1
  6
CONTINUOUS
 62
     7
100
AcDbCircle
 10
312.18926
 20
99.975848
 30
0.0
 40
1.248979133417762
100
AcDbArc
 50
325.0
 51
65.041386
  0
ARC
  5
3A2
330
1F
100
AcDbEntity
  8
1
  6
CONTINUOUS
 62
     9
100
AcDbCircle
 10
152.526483
 20
93.073507
 30
0.0
 40
2.327227722133334
100
AcDbArc
 50
179.958195
 51
270.041752
  0
ARC
  5
3A3
330
1F
100
AcDbEntity
  8
1
  6
CONTINUOUS
 62
     7
100
AcDbCircle
 10
240.376284
 20
110.30331
 30
0.0
 40
0.4066666661333329
100
AcDbArc
 50
180.0
 51
0.0
  0
ARC
  5
3A4
330
1F
100
AcDbEntity
  8
1
  6
CONTINUOUS
 62
     7
100
AcDbCircle
 10
167.69606
 20
317.151417
 30
0.0
 40
0.4000127512471607
100
AcDbArc
 50
0.0
 51
90.0
  0
ARC
  5
3A5
330
1F
100
AcDbEntity
  8
1
  6
CONTINUOUS
 62
     7
100
AcDbCircle
 10
337.122658
 20
211.534801
 30
0.0
 40
0.6000202495886251
100
AcDbArc
 50
35.0
 51
85.0
  0
CIRCLE
  5
3A6
330
1F
100
AcDbEntity
  8
1
  6
CONTINUOUS
 62
     7
100
AcDbCircle
 10
228.266434
 20
200.40746
 30
0.0
 40
1.50000000228
  0
ARC
  5
3A7
330
1F
100
AcDbEntity
  8
1
  6
CONTINUOUS
 62
     9
100
AcDbCircle
 10
231.368315
 20
125.248675
 30
0.0
 40
3.329825005733334
100
AcDbArc
 50
0.04715
 51
89.95285
  0
ARC
  5
3A8
330
1F
100
AcDbEntity
  8
1
  6
CONTINUOUS
 62
     9
100
AcDbCircle
 10
231.372753
 20
125.253112
 30
0.0
 40
2.327227722133341
100
AcDbArc
 50
359.958223
 51
90.041777
  0
ARC
  5
3A9
330
1F
100
AcDbEntity
  8
1
  6
CONTINUOUS
 62
     7
100
AcDbCircle
 10
364.393241
 20
463.671404
 30
0.0
 40
149.9999999994
100
AcDbArc
 50
267.601736
 51
268.96984
  0
ARC
  5
3AA
330
1F
100
AcDbEntity
  8
1
  6
CONTINUOUS
 62
     7
100
AcDbCircle
 10
312.882157
 20
96.610351
 30
0.0
 40
1.248979133417766
100
AcDbArc
 50
145.0
 51
245.041386
  0
ARC
  5
3AB
330
1F
100
AcDbEntity
  8
1
  6
CONTINUOUS
 62
     7
100
AcDbCircle
 10
167.69606
 20
300.550856
 30
0.0
 40
0.7000236279068304
100
AcDbArc
 50
270.0
 51
0.0
  0
ARC
  5
3AC
330
1F
100
AcDbEntity
  8
1
  6
CONTINUOUS
 62
     7
100
AcDbCircle
 10
237.914208
 20
240.285771
 30
0.0
 40
0.6000202495886259
100
AcDbArc
 50
95.0
 51
145.0
  0
ARC
  5
3AD
330
1F
100
AcDbEntity
  8
1
  6
CONTINUOUS
 62
     7
100
AcDbCircle
 10
227.253469
 20
249.420424
 30
0.0
 40
4.908358143639992
100
AcDbArc
 50
89.957529
 51
180.042471
  0
ARC
  5
3AE
330
1F
100
AcDbEntity
  8
1
  6
CONTINUOUS
 62
     7
100
AcDbCircle
 10
151.940981
 20
92.488007
 30
0.0
 40
3.324618970933331
100
AcDbArc
 50
179.904379
 51
270.095679
  0
ARC
  5
3AF
330
1F
100
AcDbEntity
  8
1
  6
CONTINUOUS
 62
     7
100
AcDbCircle
 10
312.549458
 20
97.933063
 30
0.0
 40
1.248979133417762
100
AcDbArc
 50
325.0
 51
65.041386
  0
ARC
  5
3B0
330
1F
100
AcDbEntity
  8
1
  6
CONTINUOUS
 62
     7
100
AcDbCircle
 10
132.895696
 20
293.375593
 30
0.0
 40
1.625000001200003
100
AcDbArc
 50
202.619865
 51
337.380135
  0
ARC
  5
3B1
330
1F
100
AcDbEntity
  8
1
  6
CONTINUOUS
 62
     7
100
AcDbCircle
 10
388.166434
 20
290.550593
 30
0.0
 40
16.24999999999818
100
AcDbArc
 50
75.749967
 51
90.0
  0
ARC
  5
3B2
330
1F
100
AcDbEntity
  8
1
  6
PHANTOM
 62
     6
100
AcDbCircle
 10
374.661434
 20
223.20746
 30
0.0
 40
3.005000000001721
100
AcDbArc
 50
336.463422
 51
23.536578
  0
ARC
  5
3B3
330
1F
100
AcDbEntity
  8
1
  6
CONTINUOUS
 62
     9
100
AcDbCircle
 10
228.131731
 20
200.272758
 30
0.0
 40
3.490842736360002
100
AcDbArc
 50
179.958238
 51
270.041762
  0
ARC
  5
3B4
330
1F
100
AcDbEntity
  8
1
  6
CONTINUOUS
 62
     7
100
AcDbCircle
 10
364.716434
 20
226.10746
 30
0.0
 40
0.59999999887998
100
AcDbArc
 50
180.0
 51
0.0
  0
ARC
  5
3B5
330
1F
100
AcDbEntity
  8
1
  6
CONTINUOUS
 62
     7
100
AcDbCircle
 10
129.270099
 20
294.250593
 30
0.0
 40
1.50000000228
100
AcDbArc
 50
183.499923
 51
269.99874
  0
ARC
  5
3B6
330
1F
100
AcDbEntity
  8
1
  6
CONTINUOUS
 62
     7
100
AcDbCircle
 10
231.958254
 20
125.838613
 30
0.0
 40
3.324618964160002
100
AcDbArc
 50
359.90439
 51
90.095666
  0
ARC
  5
3B7
330
1F
100
AcDbEntity
  8
1
  6
CONTINUOUS
 62
     7
100
AcDbCircle
 10
366.616434
 20
228.544659
 30
0.0
 40
0.8000000001999865
100
AcDbArc
 50
0.0
 51
90.844723
  0
CIRCLE
  5
3B8
330
1F
100
AcDbEntity
  8
1
  6
CONTINUOUS
 62
     7
100
AcDbCircle
 10
161.195841
 20
308.851136
 30
0.0
 40
1.180039828593774
  0
ARC
  5
3B9
330
1F
100
AcDbEntity
  8
1
  6
CONTINUOUS
 62
     7
100
AcDbCircle
 10
346.266434
 20
293.375593
 30
0.0
 40
1.625000001199993
100
AcDbArc
 50
202.619865
 51
337.380135
  0
ARC
  5
3BA
330
1F
100
AcDbEntity
  8
1
  6
CONTINUOUS
 62
     7
100
AcDbCircle
 10
184.521276
 20
323.250593
 30
0.0
 40
1.50000000228
100
AcDbArc
 50
3.499885
 51
89.998117
  0
ARC
  5
3BB
330
1F
100
AcDbEntity
  8
1
  6
CONTINUOUS
 62
     7
100
AcDbCircle
 10
154.874902
 20
305.251015
 30
0.0
 40
0.5000168763505712
100
AcDbArc
 50
270.0
 51
330.0
  0
ARC
  5
3BC
330
1F
100
AcDbEntity
  8
1
  6
CONTINUOUS
 62
     7
100
AcDbCircle
 10
228.266434
 20
293.375593
 30
0.0
 40
1.625000001200006
100
AcDbArc
 50
202.619865
 51
337.380135
  0
ARC
  5
3BD
330
1F
100
AcDbEntity
  8
1
  6
CONTINUOUS
 62
     7
100
AcDbCircle
 10
362.049617
 20
115.66331
 30
0.0
 40
3.0
100
AcDbArc
 50
90.0
 51
180.0
  0
ARC
  5
3BE
330
1F
100
AcDbEntity
  8
1
  6
CONTINUOUS
 62
     7
100
AcDbCircle
 10
355.126434
 20
222.69746
 30
0.0
 40
0.6099999991999994
100
AcDbArc
 50
0.0
 51
180.0
  0
ARC
  5
3BF
330
1F
100
AcDbEntity
  8
1
  6
CONTINUOUS
 62
     7
100
AcDbCircle
 10
461.037729
 20
308.600048
 30
0.0
 40
4.971085584587255
100
AcDbArc
 50
290.120816
 51
69.879184
  0
CIRCLE
  5
3C0
330
1F
100
AcDbEntity
  8
1
  6
CONTINUOUS
 62
     7
100
AcDbCircle
 10
337.770129
 20
212.656253
 30
0.0
 40
2.250075941037509
  0
ARC
  5
3C1
330
1F
100
AcDbEntity
  8
1
  6
CONTINUOUS
 62
     7
100
AcDbCircle
 10
461.037729
 20
308.600048
 30
0.0
 40
5.246512023081132
100
AcDbArc
 50
289.022645
 51
70.977355
  0
CIRCLE
  5
3C2
330
1F
100
AcDbEntity
  8
1
  6
CONTINUOUS
 62
     7
100
AcDbCircle
 10
461.037729
 20
308.600048
 30
0.0
 40
2.000067500322135
  0
ARC
  5
3C3
330
1F
100
AcDbEntity
  8
1
  6
CONTINUOUS
 62
     9
100
AcDbCircle
 10
228.131733
 20
248.542164
 30
0.0
 40
3.490842736359993
100
AcDbArc
 50
89.958264
 51
180.04179
  0
ARC
  5
3C4
330
1F
100
AcDbEntity
  8
1
  6
CONTINUOUS
 62
     7
100
AcDbCircle
 10
312.049617
 20
117.358783
 30
0.0
 40
0.1403508771929864
100
AcDbArc
 50
0.0
 51
180.0
  0
ARC
  5
3C5
330
1F
100
AcDbEntity
  8
1
  6
CONTINUOUS
 62
     7
100
AcDbCircle
 10
236.619266
 20
242.528676
 30
0.0
 40
0.6000202495886259
100
AcDbArc
 50
275.0
 51
325.0
  0
ARC
  5
3C6
330
1F
100
AcDbEntity
  8
1
  6
CONTINUOUS
 62
     7
100
AcDbCircle
 10
158.91649
 20
312.451258
 30
0.0
 40
0.8000211132261654
100
AcDbArc
 50
90.0
 51
150.0
  0
CIRCLE
  5
3C7
330
1F
100
AcDbEntity
  8
1
  6
CONTINUOUS
 62
     7
100
AcDbCircle
 10
237.266737
 20
241.407224
 30
0.0
 40
1.250042173095841
  0
ARC
  5
3C8
330
1F
100
AcDbEntity
  8
1
  6
CONTINUOUS
 62
     7
100
AcDbCircle
 10
288.716284
 20
109.16331
 30
0.0
 40
7.666666666666663
100
AcDbArc
 50
85.0
 51
275.0
  0
ARC
  5
3C9
330
1F
100
AcDbEntity
  8
1
  6
CONTINUOUS
 62
     7
100
AcDbCircle
 10
227.255717
 20
249.418178
 30
0.0
 40
4.990265772560005
100
AcDbArc
 50
131.305266
 51
138.740665
  0
ARC
  5
3CA
330
1F
100
AcDbEntity
  8
1
  6
CONTINUOUS
 62
     7
100
AcDbCircle
 10
237.189617
 20
108.02331
 30
0.0
 40
0.4066666661333329
100
AcDbArc
 50
0.0
 51
180.0
  0
CIRCLE
  5
3CB
330
1F
100
AcDbEntity
  8
1
  6
CONTINUOUS
 62
     7
100
AcDbCircle
 10
237.266737
 20
241.407224
 30
0.0
 40
2.250075941037509
  0
ARC
  5
3CC
330
1F
100
AcDbEntity
  8
1
  6
CONTINUOUS
 62
     7
100
AcDbCircle
 10
148.990378
 20
102.163226
 30
0.0
 40
0.333337346882395
100
AcDbArc
 50
180.0
 51
228.191852
  0
ARC
  5
3CD
330
1F
100
AcDbEntity
  8
1
  6
CONTINUOUS
 62
     7
100
AcDbCircle
 10
145.640125
 20
317.55143
 30
0.0
 40
3.300111377817615
100
AcDbArc
 50
90.0
 51
179.0
  0
ARC
  5
3CE
330
1F
100
AcDbEntity
  8
1
  6
CONTINUOUS
 62
     7
100
AcDbCircle
 10
243.58295
 20
108.029977
 30
0.0
 40
0.399999999253339
100
AcDbArc
 50
0.0
 51
180.0
  0
CIRCLE
  5
3CF
330
1F
100
AcDbEntity
  8
1
  6
CONTINUOUS
 62
     7
100
AcDbCircle
 10
435.58295
 20
107.996644
 30
0.0
 40
0.8666666666666742
  0
ARC
  5
3D0
330
1F
100
AcDbEntity
  8
1
  6
CONTINUOUS
 62
     7
100
AcDbCircle
 10
146.095331
 20
300.550856
 30
0.0
 40
0.7000236279068446
100
AcDbArc
 50
180.0
 51
270.0
  0
ARC
  5
3D1
330
1F
100
AcDbEntity
  8
1
  6
CONTINUOUS
 62
     7
100
AcDbCircle
 10
236.681064
 20
101.315484
 30
0.0
 40
4.33333333314666
100
AcDbArc
 50
94.007838
 51
109.283008
  0
ARC
  5
3D2
330
1F
100
AcDbEntity
  8
1
  6
CONTINUOUS
 62
     9
100
AcDbCircle
 10
228.138386
 20
200.279413
 30
0.0
 40
4.994737615280005
100
AcDbArc
 50
180.047151
 51
269.952849
  0
ARC
  5
3D3
330
1F
100
AcDbEntity
  8
1
  6
CONTINUOUS
 62
     7
100
AcDbCircle
 10
364.716434
 20
222.70746
 30
0.0
 40
0.59999999887998
100
AcDbArc
 50
0.0
 51
180.0
  0
ARC
  5
3D4
330
1F
100
AcDbEntity
  8
1
  6
PHANTOM
 62
     6
100
AcDbCircle
 10
375.411434
 20
307.550593
 30
0.0
 40
3.005000000001707
100
AcDbArc
 50
336.463422
 51
23.536578
  0
ARC
  5
3D5
330
1F
100
AcDbEntity
  8
1
  6
CONTINUOUS
 62
     9
100
AcDbCircle
 10
152.530919
 20
125.248675
 30
0.0
 40
3.329825005733331
100
AcDbArc
 50
90.047159
 51
179.952841
  0
ARC
  5
3D6
330
1F
100
AcDbEntity
  8
1
  6
CONTINUOUS
 62
     7
100
AcDbCircle
 10
488.664259
 20
294.249564
 30
0.0
 40
1.500050629051741
100
AcDbArc
 50
270.00126
 51
356.500077
  0
ARC
  5
3D7
330
1F
100
AcDbEntity
  8
1
  6
CONTINUOUS
 62
     9
100
AcDbCircle
 10
346.401138
 20
248.542161
 30
0.0
 40
3.490842736359998
100
AcDbArc
 50
359.958264
 51
90.04179
  0
ARC
  5
3D8
330
1F
100
AcDbEntity
  8
1
  6
CONTINUOUS
 62
     7
100
AcDbCircle
 10
227.275956
 20
249.416358
 30
0.0
 40
5.009522381239992
100
AcDbArc
 50
168.237521
 51
180.048788
  0
CIRCLE
  5
3D9
330
1F
100
AcDbEntity
  8
1
  6
CONTINUOUS
 62
     7
100
AcDbCircle
 10
152.595551
 20
308.851136
 30
0.0
 40
1.180039828593774
  0
ARC
  5
3DA
330
1F
100
AcDbEntity
  8
1
  6
CONTINUOUS
 62
     7
100
AcDbCircle
 10
362.049617
 20
115.66331
 30
0.0
 40
0.6666666666666714
100
AcDbArc
 50
90.0
 51
180.0
  0
ARC
  5
3DB
330
1F
100
AcDbEntity
  8
1
  6
CONTINUOUS
 62
     7
100
AcDbCircle
 10
227.253469
 20
199.394496
 30
0.0
 40
4.90835814364
100
AcDbArc
 50
179.957529
 51
270.042471
  0
ARC
  5
3DC
330
1F
100
AcDbEntity
  8
1
  6
CONTINUOUS
 62
     7
100
AcDbCircle
 10
154.874902
 20
305.251015
 30
0.0
 40
0.8000211132261654
100
AcDbArc
 50
270.0
 51
330.0
  0
ARC
  5
3DD
330
1F
100
AcDbEntity
  8
1
  6
CONTINUOUS
 62
     7
100
AcDbCircle
 10
433.4112
 20
294.249564
 30
0.0
 40
1.500050629051721
100
AcDbArc
 50
183.499923
 51
269.99874
  0
ARC
  5
3DE
330
1F
100
AcDbEntity
  8
1
  6
CONTINUOUS
 62
     7
100
AcDbCircle
 10
428.049617
 20
118.029977
 30
0.0
 40
10.83333333333213
100
AcDbArc
 50
255.749967
 51
270.0
  0
CIRCLE
  5
3DF
330
1F
100
AcDbEntity
  8
1
  6
CONTINUOUS
 62
     7
100
AcDbCircle
 10
461.037729
 20
308.600048
 30
0.0
 40
5.750194070411376
  0
ARC
  5
3E0
330
1F
100
AcDbEntity
  8
1
  6
CONTINUOUS
 62
     9
100
AcDbCircle
 10
231.372753
 20
93.073508
 30
0.0
 40
2.327227722133334
100
AcDbArc
 50
269.958223
 51
0.041777
  0
ARC
  5
3E1
330
1F
100
AcDbEntity
  8
1
  6
CONTINUOUS
 62
     7
100
AcDbCircle
 10
146.095331
 20
317.151417
 30
0.0
 40
0.7000236279068304
100
AcDbArc
 50
90.0
 51
180.0
  0
ARC
  5
3E2
330
1F
100
AcDbEntity
  8
1
  6
CONTINUOUS
 62
     7
100
AcDbCircle
 10
461.037729
 20
308.750053
 30
0.0
 40
8.998566670643038
100
AcDbArc
 50
201.172732
 51
338.827268
  0
SPLINE
  5
3E3
330
1F
100
AcDbEntity
  8
1
  6
CONTINUOUS
 62
     7
100
AcDbSpline
210
0.0
220
0.0
230
1.0
 70
     8
 71
     3
 72
    25
 73
    21
 74
     0
 42
0.000000001
 43
0.0000000001
 40
0.0
 40
0.0
 40
0.0
 40
0.0
 40
0.0354515488412067
 40
0.0698652781563299
 40
0.1049118749858678
 40
0.1428652420894569
 40
0.1872746279884126
 40
0.2425524859075217
 40
0.3135871192560984
 40
0.4022416268312685
 40
0.5011724757211415
 40
0.5999454113449052
 40
0.687948507074199
 40
0.7583107199126663
 40
0.8131822862001139
 40
0.8573641731087936
 40
0.8952431798682173
 40
0.9302551742177219
 40
0.9646163527033214
 40
1.0
 40
1.0
 40
1.0
 40
1.0
 10
241.5696170208087
 20
108.0497574294763
 30
0.0
 10
241.5696170208087
 20
108.0383297454415
 30
0.0
 10
241.5718536186008
 20
108.0156886838459
 30
0.0
 10
241.5837850274788
 20
107.9835949258231
 30
0.0
 10
241.6047402036295
 20
107.9554723110184
 30
0.0
 10
241.6346252795462
 20
107.9317072968882
 30
0.0
 10
241.674484276002
 20
107.9116888352972
 30
0.0
 10
241.7271068209983
 20
107.8950110927466
 30
0.0
 10
241.7953184367606
 20
107.8821295394219
 30
0.0
 10
241.8783761392548
 20
107.874057398426
 30
0.0
 10
241.9707019051906
 20
107.871363861012
 30
0.0
 10
242.0628141569616
 20
107.874181626533
 30
0.0
 10
242.1453830177385
 20
107.8823452035141
 30
0.0
 10
242.2130219820846
 20
107.8952470246613
 30
0.0
 10
242.2652129212054
 20
107.9118871366312
 30
0.0
 10
242.3048366432209
 20
107.9318604730379
 30
0.0
 10
242.3346073319806
 20
107.9555932366599
 30
0.0
 10
242.3554996157399
 20
107.9836964483628
 30
0.0
 10
242.3673886336445
 20
108.0157502483496
 30
0.0
 10
242.3696170227021
 20
108.0383516332693
 30
0.0
 10
242.3696170227021
 20
108.0497574294763
 30
0.0
  0
SPLINE
  5
3E4
330
1F
100
AcDbEntity
  8
1
  6
CONTINUOUS
 62
     7
100
AcDbSpline
210
0.0
220
0.0
230
1.0
 70
     8
 71
     3
 72
    14
 73
    10
 74
     0
 42
0.000000001
 43
0.0000000001
 40
0.0
 40
0.0
 40
0.0
 40
0.0
 40
0.0255411120037059
 40
0.0996182795347926
 40
0.2187194151013065
 40
0.3768103545824959
 40
0.5662207237505037
 40
0.7774180977526796
 40
1.0
 40
1.0
 40
1.0
 40
1.0
 10
490.1615442414038
 20
294.1579876990789
 30
0.0
 10
490.1195658367269
 20
294.1508272513057
 30
0.0
 10
489.9555374246122
 20
294.1264255329861
 30
0.0
 10
489.590249405111
 20
294.1294934458709
 30
0.0
 10
489.006427555034
 20
294.1177003445159
 30
0.0
 10
488.2295906138661
 20
294.1211361798362
 30
0.0
 10
487.2999326443829
 20
294.126790658216
 30
0.0
 10
486.2628553029688
 20
294.13962386667
 30
0.0
 10
485.5410628465643
 20
294.1511737108312
 30
0.0
 10
485.1707018090622
 20
294.1579876990789
 30
0.0
  0
SPLINE
  5
3E5
330
1F
100
AcDbEntity
  8
1
  6
CONTINUOUS
 62
     7
100
AcDbSpline
210
0.0
220
0.0
230
1.0
 70
     8
 71
     3
 72
    19
 73
    15
 74
     0
 42
0.000000001
 43
0.0000000001
 40
0.0
 40
0.0
 40
0.0
 40
0.0
 40
0.0430774209319263
 40
0.0991784429486914
 40
0.1765362176091033
 40
0.2712844492915075
 40
0.3793363574204097
 40
0.4947493897930623
 40
0.6105586831071836
 40
0.7200508854720926
 40
0.8168757816254923
 40
0.8968324577446873
 40
0.9553445636813009
 40
1.0
 40
1.0
 40
1.0
 40
1.0
 10
359.2964335033314
 20
313.4569957373531
 30
0.0
 10
359.2964335033314
 20
313.4762962178139
 30
0.0
 10
359.3163799931901
 20
313.5208595163742
 30
0.0
 10
359.3868229576065
 20
313.5618303041071
 30
0.0
 10
359.4849383244815
 20
313.5908914937561
 30
0.0
 10
359.609558463083
 20
313.6090122116578
 30
0.0
 10
359.7519293846242
 20
313.6175673242642
 30
0.0
 10
359.9040344153343
 20
313.6172145417092
 30
0.0
 10
360.0565287132657
 20
313.608480342969
 30
0.0
 10
360.1999009260129
 20
313.5913070641045
 30
0.0
 10
360.3258933581476
 20
313.5654342396585
 30
0.0
 10
360.4253520884668
 20
313.5298866493241
 30
0.0
 10
360.4959664723126
 20
313.4842491561381
 30
0.0
 10
360.5164335068114
 20
313.438139888294
 30
0.0
 10
360.5164335068114
 20
313.4181323911529
 30
0.0
  0
SPLINE
  5
3E6
330
1F
100
AcDbEntity
  8
1
  6
CONTINUOUS
 62
     7
100
AcDbSpline
210
0.0
220
0.0
230
1.0
 70
     8
 71
     3
 72
    13
 73
     9
 74
     0
 42
0.000000001
 43
0.0000000001
 40
0.0
 40
0.0
 40
0.0
 40
0.0
 40
0.0339772278663662
 40
0.1329997785572833
 40
0.2904375418150538
 40
0.4962987729850059
 40
0.7376654249318697
 40
1.0
 40
1.0
 40
1.0
 40
1.0
 10
456.1274891074138
 20
309.1000650529372
 30
0.0
 10
456.1273041516408
 20
309.1069487173486
 30
0.0
 10
456.1270224822152
 20
309.1338772395585
 30
0.0
 10
456.1330811348746
 20
309.1924829027687
 30
0.0
 10
456.1424046750079
 20
309.2855637691488
 30
0.0
 10
456.1594594343217
 20
309.4068451401255
 30
0.0
 10
456.1837133189492
 20
309.5484646400806
 30
0.0
 10
456.2045760792794
 20
309.6482803445473
 30
0.0
 10
456.2164081053536
 20
309.7000850535974
 30
0.0
  0
SPLINE
  5
3E7
330
1F
100
AcDbEntity
  8
1
  6
CONTINUOUS
 62
     7
100
AcDbSpline
210
0.0
220
0.0
230
1.0
 70
     8
 71
     3
 72
    19
 73
    15
 74
     0
 42
0.000000001
 43
0.0000000001
 40
0.0
 40
0.0
 40
0.0
 40
0.0
 40
0.0441622549907358
 40
0.1014266120368902
 40
0.1800242397118077
 40
0.2757868658989498
 40
0.384517445947271
 40
0.5000791318741163
 40
0.615638245756977
 40
0.7243546843192161
 40
0.8199884066340771
 40
0.8983462384745993
 40
0.9557288394551882
 40
1.0
 40
1.0
 40
1.0
 40
1.0
 10
365.3164335080116
 20
304.1297331879531
 30
0.0
 10
365.3164335080116
 20
304.1102505448399
 30
0.0
 10
365.2966710654945
 20
304.065452182676
 30
0.0
 10
365.2273056775219
 20
304.0224504344084
 30
0.0
 10
365.1300709588427
 20
303.9905217668445
 30
0.0
 10
365.0066891743626
 20
303.9688659459948
 30
0.0
 10
364.8659815956287
 20
303.9563574039356
 30
0.0
 10
364.7160074865047
 20
303.9525249050978
 30
0.0
 10
364.5660595807138
 20
303.9570676492012
 30
0.0
 10
364.4254768349259
 20
303.970247781979
 30
0.0
 10
364.3023711494392
 20
303.9924773491345
 30
0.0
 10
364.2053918291127
 20
304.024840998573
 30
0.0
 10
364.136217832991
 20
304.0680753685384
 30
0.0
 10
364.1164335051715
 20
304.1129575922897
 30
0.0
 10
364.1164335051715
 20
304.1324882802331
 30
0.0
  0
SPLINE
  5
3E8
330
1F
100
AcDbEntity
  8
1
  6
CONTINUOUS
 62
     7
100
AcDbSpline
210
0.0
220
0.0
230
1.0
 70
     8
 71
     3
 72
    13
 73
     9
 74
     0
 42
0.000000001
 43
0.0000000001
 40
0.0
 40
0.0
 40
0.0
 40
0.0
 40
0.2545407945714322
 40
0.4922806536743187
 40
0.6974989620988425
 40
0.8566124791820001
 40
0.9592287147867081
 40
1.0
 40
1.0
 40
1.0
 40
1.0
 10
222.9912105542514
 20
235.6626508379525
 30
0.0
 10
222.9912105542514
 20
235.9439791301763
 30
0.0
 10
222.9866593607526
 20
236.4872887863828
 30
0.0
 10
222.9695815344797
 20
237.2612110598312
 30
0.0
 10
222.9360400208715
 20
237.9167212901506
 30
0.0
 10
222.9097836590857
 20
238.4551832278761
 30
0.0
 10
222.8483514446753
 20
238.7414907792392
 30
0.0
 10
222.8362283649666
 20
238.9497818302657
 30
0.0
 10
222.7928964423716
 20
238.9621482318323
 30
0.0
  0
SPLINE
  5
3E9
330
1F
100
AcDbEntity
  8
1
  6
CONTINUOUS
 62
     7
100
AcDbSpline
210
0.0
220
0.0
230
1.0
 70
     8
 71
     3
 72
    11
 73
     7
 74
     0
 42
0.000000001
 43
0.0000000001
 40
0.0
 40
0.0
 40
0.0
 40
0.0
 40
0.3225787523667701
 40
0.6046200872521225
 40
0.8337479089344498
 40
1.0
 40
1.0
 40
1.0
 40
1.0
 10
351.7664335062116
 20
221.2468700327921
 30
0.0
 10
351.7793637449664
 20
220.6833381599284
 30
0.0
 10
351.8108943941525
 20
219.6272555099713
 30
0.0
 10
351.8794533782673
 20
218.1717924384402
 30
0.0
 10
351.9639822354623
 20
216.9911089943552
 30
0.0
 10
352.0376325028083
 20
216.3035739831053
 30
0.0
 10
352.0829456443313
 20
216.0166176027922
 30
0.0
  0
SPLINE
  5
3EA
330
1F
100
AcDbEntity
  8
1
  6
CONTINUOUS
 62
     7
100
AcDbSpline
210
0.0
220
0.0
230
1.0
 70
     8
 71
     3
 72
    27
 73
    23
 74
     0
 42
0.000000001
 43
0.0000000001
 40
0.0
 40
0.0
 40
0.0
 40
0.0
 40
0.0461844926261762
 40
0.0906177160546882
 40
0.1336319030850022
 40
0.1761263616045005
 40
0.219423142212524
 40
0.2656145901678822
 40
0.3164099300284324
 40
0.3732546176139855
 40
0.4359626997960571
 40
0.50127627986441
 40
0.5666997897841837
 40
0.6294601169416353
 40
0.6863646702878502
 40
0.7372624519668054
 40
0.7833554992816996
 40
0.82637934156946
 40
0.8684135848429507
 40
0.910822198601463
 40
0.9545361452244628
 40
1.0
 40
1.0
 40
1.0
 40
1.0
 10
356.9164335033713
 20
223.2654230899123
 30
0.0
 10
356.9164335033713
 20
223.2363482671573
 30
0.0
 10
356.9184222183753
 20
223.1792622252156
 30
0.0
 10
356.9293967513071
 20
223.0956898225603
 30
0.0
 10
356.9502285637548
 20
223.0162979454907
 30
0.0
 10
356.9832937262192
 20
222.9417881446297
 30
0.0
 10
357.0314133207753
 20
222.8733231456474
 30
0.0
 10
357.0969894720523
 20
222.8131386031422
 30
0.0
 10
357.1810289403537
 20
222.7637296284423
 30
0.0
 10
357.2823908329145
 20
222.7271650508154
 30
0.0
 10
357.3970360426885
 20
222.7049666680001
 30
0.0
 10
357.518920975206
 20
222.6977218802244
 30
0.0
 10
357.6408045922749
 20
222.7055791909295
 30
0.0
 10
357.7554582169712
 20
222.7285052434586
 30
0.0
 10
357.8566599662099
 20
222.7659489684473
 30
0.0
 10
357.9401981082949
 20
222.8163202981974
 30
0.0
 10
358.004844454046
 20
222.8772623058788
 30
0.0
 10
358.051788197027
 20
222.9458858161705
 30
0.0
 10
358.0838052320563
 20
223.0199096687738
 30
0.0
 10
358.1039079717791
 20
223.0983117856443
 30
0.0
 10
358.1145063785671
 20
223.1806244178999
 30
0.0
 10
358.1164335062115
 20
223.2368019349706
 30
0.0
 10
358.1164335062115
 20
223.2654230899122
 30
0.0
  0
SPLINE
  5
3EB
330
1F
100
AcDbEntity
  8
1
  6
CONTINUOUS
 62
     7
100
AcDbSpline
210
0.0
220
0.0
230
1.0
 70
     8
 71
     3
 72
    25
 73
    21
 74
     0
 42
0.000000001
 43
0.0000000001
 40
0.0
 40
0.0
 40
0.0
 40
0.0
 40
0.0354515488727264
 40
0.0698652794542351
 40
0.1049118742407558
 40
0.142865244089965
 40
0.1872746269205477
 40
0.2425524848887839
 40
0.3135871183005779
 40
0.4022416259544502
 40
0.5011724749321287
 40
0.5999454141440639
 40
0.6879485064685547
 40
0.7583107228033656
 40
0.8131822891395787
 40
0.8573641729819896
 40
0.895243179775396
 40
0.9302551741557031
 40
0.9646163526718716
 40
1.0
 40
1.0
 40
1.0
 40
1.0
 10
238.3829503537685
 20
108.0497574294763
 30
0.0
 10
238.3829503537685
 20
108.0383297454415
 30
0.0
 10
238.3851869501925
 20
108.0156886828022
 30
0.0
 10
238.3971183653454
 20
107.9835949279107
 30
0.0
 10
238.4180735359462
 20
107.9554723084981
 30
0.0
 10
238.4479586155431
 20
107.931707299319
 30
0.0
 10
238.4878176091821
 20
107.9116888339123
 30
0.0
 10
238.5404401542409
 20
107.8950110931595
 30
0.0
 10
238.6086517696139
 20
107.8821295392727
 30
0.0
 10
238.6917094722519
 20
107.8740573984446
 30
0.0
 10
238.784035239261
 20
107.8713638611017
 30
0.0
 10
238.8761474910874
 20
107.8741816261159
 30
0.0
 10
238.9587163528814
 20
107.8823452041601
 30
0.0
 10
239.0263553172642
 20
107.895247024434
 30
0.0
 10
239.0785462569534
 20
107.9118871356511
 30
0.0
 10
239.1181699767824
 20
107.9318604740303
 30
0.0
 10
239.1479406649843
 20
107.9555932365764
 30
0.0
 10
239.1688329486886
 20
107.9836964483842
 30
0.0
 10
239.1807219666077
 20
108.0157502483433
 30
0.0
 10
239.1829503556621
 20
108.0383516332693
 30
0.0
 10
239.1829503556621
 20
108.0497574294763
 30
0.0
  0
SPLINE
  5
3EC
330
1F
100
AcDbEntity
  8
1
  6
CONTINUOUS
 62
     7
100
AcDbSpline
210
0.0
220
0.0
230
1.0
 70
     8
 71
     3
 72
    21
 73
    17
 74
     0
 42
0.000000001
 43
0.0000000001
 40
0.0
 40
0.0
 40
0.0
 40
0.0
 40
0.0325897201655602
 40
0.0742922872838207
 40
0.1316167999887218
 40
0.2053075560638829
 40
0.292879486547265
 40
0.3915318826368628
 40
0.4949897358675454
 40
0.5984690741967467
 40
0.6974020499606814
 40
0.7858955772138554
 40
0.861474995180579
 40
0.9213674029527055
 40
0.9658512791364788
 40
1.0
 40
1.0
 40
1.0
 40
1.0
 10
354.5164335078514
 20
313.7104246996331
 30
0.0
 10
354.5164335078514
 20
313.7249639441529
 30
0.0
 10
354.5284963217676
 20
313.7586248640703
 30
0.0
 10
354.5779442086372
 20
313.7939651066886
 30
0.0
 10
354.6509348282218
 20
313.8194166982921
 30
0.0
 10
354.7472976320028
 20
313.8364745790569
 30
0.0
 10
354.8629832082005
 20
313.8454674986187
 30
0.0
 10
354.9922940872237
 20
313.8468879616158
 30
0.0
 10
355.1285637093601
 20
313.8413637345649
 30
0.0
 10
355.2645510885683
 20
313.8294479564441
 30
0.0
 10
355.3931608994081
 20
313.8114721524946
 30
0.0
 10
355.5081241896133
 20
313.7875419994169
 30
0.0
 10
355.6038422547055
 20
313.7578810416639
 30
0.0
 10
355.6762625031303
 20
313.7224603820171
 30
0.0
 10
355.7241319291722
 20
313.6810017399187
 30
0.0
 10
355.7364335062514
 20
313.6457130115831
 30
0.0
 10
355.7364335062514
 20
313.6304782504328
 30
0.0
  0
SPLINE
  5
3ED
330
1F
100
AcDbEntity
  8
1
  6
CONTINUOUS
 62
     7
100
AcDbSpline
210
0.0
220
0.0
230
1.0
 70
     8
 71
     3
 72
    13
 73
     9
 74
     0
 42
0.000000001
 43
0.0000000001
 40
0.0
 40
0.0
 40
0.0
 40
0.0
 40
0.0079314269168621
 40
0.3089456047678535
 40
0.4123640236271033
 40
0.5194050571423084
 40
0.826061509852865
 40
1.0
 40
1.0
 40
1.0
 40
1.0
 10
462.2197165520257
 20
303.7443287898135
 30
0.0
 10
462.219197892898
 20
303.7442179561559
 30
0.0
 10
462.1988977808494
 20
303.7399260781562
 30
0.0
 10
462.1811275863702
 20
303.7358208857034
 30
0.0
 10
462.1269088449445
 20
303.7323556228487
 30
0.0
 10
462.1787260312346
 20
303.7522405454555
 30
0.0
 10
462.2054537947807
 20
303.7587455956456
 30
0.0
 10
462.2383200530002
 20
303.7684497732974
 30
0.0
 10
462.2495364675694
 20
303.7715324322975
 30
0.0
  0
SPLINE
  5
3EE
330
1F
100
AcDbEntity
  8
1
  6
CONTINUOUS
 62
     7
100
AcDbSpline
210
0.0
220
0.0
230
1.0
 70
     8
 71
     3
 72
    15
 73
    11
 74
     0
 42
0.000000001
 43
0.0000000001
 40
0.0
 40
0.0
 40
0.0
 40
0.0
 40
0.0001834909069714
 40
0.0316813987972509
 40
0.1103524648593973
 40
0.2323802869424562
 40
0.3932229854774716
 40
0.5836803050839054
 40
0.7913712390176686
 40
1.0
 40
1.0
 40
1.0
 40
1.0
 10
459.9376475352608
 20
313.6900220062972
 30
0.0
 10
459.9376615875173
 20
313.6899848794774
 30
0.0
 10
459.9400559451495
 20
313.6835848606056
 30
0.0
 10
459.9048371878604
 20
313.672967289777
 30
0.0
 10
459.869790760585
 20
313.6553459492433
 30
0.0
 10
459.7895662931394
 20
313.6313304391012
 30
0.0
 10
459.6947357264847
 20
313.6008315132898
 30
0.0
 10
459.5790192003954
 20
313.5646028191757
 30
0.0
 10
459.4550177062533
 20
313.5240060591477
 30
0.0
 10
459.3701016690195
 20
313.494941744448
 30
0.0
 10
459.3276717651131
 20
313.4800978710288
 30
0.0
  0
SPLINE
  5
3EF
330
1F
100
AcDbEntity
  8
1
  6
CONTINUOUS
 62
     7
100
AcDbSpline
210
0.0
220
0.0
230
1.0
 70
     8
 71
     3
 72
     9
 73
     5
 74
     0
 42
0.000000001
 43
0.0000000001
 40
0.0
 40
0.0
 40
0.0
 40
0.0
 40
0.5422267538052078
 40
1.0
 40
1.0
 40
1.0
 40
1.0
 10
235.2305784991821
 20
114.7572052456096
 30
0.0
 10
235.2170193092019
 20
114.556645538177
 30
0.0
 10
235.2003289962793
 20
114.1862289351616
 30
0.0
 10
235.1879604568883
 20
113.8157199399017
 30
0.0
 10
235.1829496349955
 20
113.6460855069694
 30
0.0
  0
SPLINE
  5
3F0
330
1F
100
AcDbEntity
  8
1
  6
CONTINUOUS
 62
     7
100
AcDbSpline
210
0.0
220
0.0
230
1.0
 70
     8
 71
     3
 72
    27
 73
    23
 74
     0
 42
0.000000001
 43
0.0000000001
 40
0.0
 40
0.0
 40
0.0
 40
0.0
 40
0.0441211077371546
 40
0.0866647815418802
 40
0.1277903548730065
 40
0.1683194709221687
 40
0.2098953125074985
 40
0.2550714007981155
 40
0.3059351969326142
 40
0.3636965353783739
 40
0.4282722791061595
 40
0.4962330659756931
 40
0.5640896004408064
 40
0.6290017802248601
 40
0.6876536534018753
 40
0.7397025038179235
 40
0.786201177870078
 40
0.8288842647296022
 40
0.8702995793226718
 40
0.9120895382903766
 40
0.9552207716893636
 40
1.0
 40
1.0
 40
1.0
 40
1.0
 10
358.1164335062115
 20
225.5494969418721
 30
0.0
 10
358.1164335062115
 20
225.577272278885
 30
0.0
 10
358.1146150956927
 20
225.6318630266981
 30
0.0
 10
358.1046819124381
 20
225.7118335251082
 30
0.0
 10
358.0859641510939
 20
225.7879798707403
 30
0.0
 10
358.0563522200721
 20
225.8600596084679
 30
0.0
 10
358.0127439473218
 20
225.9278883397027
 30
0.0
 10
357.9513170492052
 20
225.9899331107196
 30
0.0
 10
357.8693946715126
 20
226.0428707926039
 30
0.0
 10
357.7674356455665
 20
226.0831739422445
 30
0.0
 10
357.649840495647
 20
226.1083351273357
 30
0.0
 10
357.5236473486848
 20
226.1173747485849
 30
0.0
 10
357.3971329763556
 20
226.1101658894181
 30
0.0
 10
357.2784474920318
 20
226.0869018248447
 30
0.0
 10
357.1742490323808
 20
226.048249505466
 30
0.0
 10
357.0892507046204
 20
225.9961632080069
 30
0.0
 10
357.0248049495868
 20
225.9338653529554
 30
0.0
 10
356.9789467300404
 20
225.8649538423325
 30
0.0
 10
356.9479922230145
 20
225.7915860340995
 30
0.0
 10
356.9285660042893
 20
225.7142123947555
 30
0.0
 10
356.9183050836702
 20
225.633063299672
 30
0.0
 10
356.9164335033713
 20
225.5776865821892
 30
0.0
 10
356.9164335033713
 20
225.5494969418721
 30
0.0
  0
SPLINE
  5
3F1
330
1F
100
AcDbEntity
  8
1
  6
CONTINUOUS
 62
     7
100
AcDbSpline
210
0.0
220
0.0
230
1.0
 70
     8
 71
     3
 72
    20
 73
    16
 74
     0
 42
0.000000001
 43
0.0000000001
 40
0.0
 40
0.0
 40
0.0
 40
0.0
 40
0.039364655200267
 40
0.0893762015067297
 40
0.156222039178115
 40
0.2402569154028113
 40
0.3369385766737524
 40
0.4433836666034618
 40
0.5517038215037284
 40
0.6584628842697418
 40
0.7559700754950344
 40
0.8409397293300603
 40
0.9089699142833698
 40
0.9600006236981435
 40
1.0
 40
1.0
 40
1.0
 40
1.0
 10
361.6964335039313
 20
229.0719877632721
 30
0.0
 10
361.6964335039313
 20
229.0892495179513
 30
0.0
 10
361.7131573043538
 20
229.1286116502651
 30
0.0
 10
361.7723303015965
 20
229.1667879360775
 30
0.0
 10
361.8557546401037
 20
229.1955544027294
 30
0.0
 10
361.9627942067202
 20
229.2156189946884
 30
0.0
 10
362.0881621444187
 20
229.2280134773025
 30
0.0
 10
362.224728081948
 20
229.2330036204188
 30
0.0
 10
362.3657525876729
 20
229.2310468674956
 30
0.0
 10
362.5026249056359
 20
229.2222494406006
 30
0.0
 10
362.6285140884575
 20
229.2063079757398
 30
0.0
 10
362.736221865279
 20
229.1831128142927
 30
0.0
 10
362.820220116472
 20
229.1517581115527
 30
0.0
 10
362.8795023225007
 20
229.111730736009
 30
0.0
 10
362.8964335067715
 20
229.0717389334521
 30
0.0
 10
362.8964335067715
 20
229.054198847872
 30
0.0
  0
SPLINE
  5
3F2
330
1F
100
AcDbEntity
  8
1
  6
CONTINUOUS
 62
     7
100
AcDbSpline
210
0.0
220
0.0
230
1.0
 70
     8
 71
     3
 72
     9
 73
     5
 74
     0
 42
0.000000001
 43
0.0000000001
 40
0.0
 40
0.0
 40
0.0
 40
0.0
 40
0.5733535020972206
 40
1.0
 40
1.0
 40
1.0
 40
1.0
 10
235.0496170221421
 20
104.6763621002496
 30
0.0
 10
235.0642400013982
 20
104.4642038431349
 30
0.0
 10
235.0937086862333
 20
104.0944652121412
 30
0.0
 10
235.1359422907788
 20
103.7257252814082
 30
0.0
 10
235.1606251144086
 20
103.5694153580896
 30
0.0
  0
SPLINE
  5
3F3
330
1F
100
AcDbEntity
  8
1
  6
CONTINUOUS
 62
     9
100
AcDbSpline
210
0.0
220
0.0
230
1.0
 70
     8
 71
     3
 72
    14
 73
    10
 74
     0
 42
0.000000001
 43
0.0000000001
 40
0.0
 40
0.0
 40
0.0
 40
0.0
 40
0.2225884853204985
 40
0.4337808047051777
 40
0.6231954592276796
 40
0.7812852027800166
 40
0.9003823955122813
 40
0.9744603494785349
 40
1.0
 40
1.0
 40
1.0
 40
1.0
 10
132.7635380152912
 20
294.1590201957132
 30
0.0
 10
132.3931801344245
 20
294.1522642738545
 30
0.0
 10
131.6708685904929
 20
294.1401473533814
 30
0.0
 10
130.6360591973061
 20
294.1293662618166
 30
0.0
 10
129.6995051702093
 20
294.1174619327967
 30
0.0
 10
128.9422877707092
 20
294.1316691728708
 30
0.0
 10
128.3109011784481
 20
294.1006058779134
 30
0.0
 10
128.0331418921678
 20
294.1763348134637
 30
0.0
 10
127.7756947119846
 20
294.1166128854667
 30
0.0
 10
127.7728640240914
 20
294.1590201957131
 30
0.0
  0
SPLINE
  5
3F4
330
1F
100
AcDbEntity
  8
1
  6
CONTINUOUS
 62
     7
100
AcDbSpline
210
0.0
220
0.0
230
1.0
 70
     8
 71
     3
 72
     9
 73
     5
 74
     0
 42
0.000000001
 43
0.0000000001
 40
0.0
 40
0.0
 40
0.0
 40
0.0
 40
0.8797737374830865
 40
1.0
 40
1.0
 40
1.0
 40
1.0
 10
462.1796906329894
 20
313.4621078916663
 30
0.0
 10
462.2009118251211
 20
313.4575845724992
 30
0.0
 10
462.225179229744
 20
313.4534367602723
 30
0.0
 10
462.2496128266521
 20
313.4504183806501
 30
0.0
 10
462.2525527888904
 20
313.4500718173682
 30
0.0
  0
SPLINE
  5
3F5
330
1F
100
AcDbEntity
  8
1
  6
CONTINUOUS
 62
     7
100
AcDbSpline
210
0.0
220
0.0
230
1.0
 70
     8
 71
     3
 72
    19
 73
    15
 74
     0
 42
0.000000001
 43
0.0000000001
 40
0.0
 40
0.0
 40
0.0
 40
0.0
 40
0.0313635780163021
 40
0.0840348876332096
 40
0.1620134836957931
 40
0.2618591313809844
 40
0.3776327090932789
 40
0.5016271836520723
 40
0.625549124977168
 40
0.74092058952393
 40
0.8401487908611416
 40
0.9173417515019319
 40
0.9692083196044226
 40
1.0
 40
1.0
 40
1.0
 40
1.0
 10
242.3696170227021
 20
105.9606771169163
 30
0.0
 10
242.3696170227021
 20
105.9519503957027
 30
0.0
 10
242.35196008592
 20
105.9312722486836
 30
0.0
 10
242.3090725602245
 20
105.9180613184928
 30
0.0
 10
242.2459663473727
 20
105.9052813900995
 30
0.0
 10
242.1646147365033
 20
105.8974685275792
 30
0.0
 10
242.0702545329385
 20
105.892104059705
 30
0.0
 10
241.9690818445856
 20
105.8895191201647
 30
0.0
 10
241.867985311056
 20
105.8892851803854
 30
0.0
 10
241.773824038628
 20
105.8920277636878
 30
0.0
 10
241.6927660455216
 20
105.8975273266886
 30
0.0
 10
241.6299986168686
 20
105.9085485965101
 30
0.0
 10
241.5872357931964
 20
105.9203465681912
 30
0.0
 10
241.5696170208087
 20
105.9406369353381
 30
0.0
 10
241.5696170208087
 20
105.9492045295829
 30
0.0
  0
SPLINE
  5
3F6
330
1F
100
AcDbEntity
  8
1
  6
CONTINUOUS
 62
     7
100
AcDbSpline
210
0.0
220
0.0
230
1.0
 70
     8
 71
     3
 72
    14
 73
    10
 74
     0
 42
0.000000001
 43
0.0000000001
 40
0.0
 40
0.0
 40
0.0
 40
0.0
 40
0.0001874494162003
 40
0.0359754326094058
 40
0.1355010314066544
 40
0.2928854808796514
 40
0.4980938129732636
 40
0.7385564252640707
 40
1.0
 40
1.0
 40
1.0
 40
1.0
 10
455.9837024898495
 20
309.1000656930389
 30
0.0
 10
455.9836644816696
 20
309.1000669497827
 30
0.0
 10
455.9763909445343
 20
309.1003328015401
 30
0.0
 10
455.9813429205552
 20
309.1424060194191
 30
0.0
 10
455.975413556535
 20
309.1882218679401
 30
0.0
 10
455.9850970448841
 20
309.2885618321867
 30
0.0
 10
455.9970235816646
 20
309.4068853644071
 30
0.0
 10
456.0192214532003
 20
309.5492008420447
 30
0.0
 10
456.0387301079882
 20
309.6484551567206
 30
0.0
 10
456.0501576554341
 20
309.7000850535974
 30
0.0
  0
SPLINE
  5
3F7
330
1F
100
AcDbEntity
  8
1
  6
CONTINUOUS
 62
     7
100
AcDbSpline
210
0.0
220
0.0
230
1.0
 70
     8
 71
     3
 72
    11
 73
     7
 74
     0
 42
0.000000001
 43
0.0000000001
 40
0.0
 40
0.0
 40
0.0
 40
0.0
 40
0.1226763394442184
 40
0.3783379572810944
 40
0.6763459158507378
 40
1.0
 40
1.0
 40
1.0
 40
1.0
 10
459.825922494456
 20
313.4285634230191
 30
0.0
 10
459.8053835089952
 20
313.4225058237048
 30
0.0
 10
459.7420795337434
 20
313.4036944648943
 30
0.0
 10
459.6289027431185
 20
313.3700886609384
 30
0.0
 10
459.4831334107076
 20
313.3230712597798
 30
0.0
 10
459.3807421237975
 20
313.2871577088575
 30
0.0
 10
459.3276717651132
 20
313.2677448448252
 30
0.0
  0
SPLINE
  5
3F8
330
1F
100
AcDbEntity
  8
1
  6
CONTINUOUS
 62
     7
100
AcDbSpline
210
0.0
220
0.0
230
1.0
 70
     8
 71
     3
 72
    14
 73
    10
 74
     0
 42
0.000000001
 43
0.0000000001
 40
0.0
 40
0.0
 40
0.0
 40
0.0
 40
0.2653427280654899
 40
0.5090771177954974
 40
0.7172797621870912
 40
0.8715163209162289
 40
0.967052206692092
 40
0.9998751465343095
 40
1.0
 40
1.0
 40
1.0
 40
1.0
 10
462.7477871969123
 20
303.8934863526075
 30
0.0
 10
462.6952188520398
 20
303.8743551809357
 30
0.0
 10
462.5939296731676
 20
303.8401124013641
 30
0.0
 10
462.4478984671611
 20
303.7964202990094
 30
0.0
 10
462.3269697391586
 20
303.7677774622857
 30
0.0
 10
462.2255437574007
 20
303.7413595035318
 30
0.0
 10
462.1796236840281
 20
303.7429350639688
 30
0.0
 10
462.1390224005662
 20
303.7278978094245
 30
0.0
 10
462.1377625536123
 20
303.7347302722797
 30
0.0
 10
462.1377578360358
 20
303.7347562328991
 30
0.0
  0
SPLINE
  5
3F9
330
1F
100
AcDbEntity
  8
1
  6
CONTINUOUS
 62
     7
100
AcDbSpline
210
0.0
220
0.0
230
1.0
 70
     8
 71
     3
 72
    27
 73
    23
 74
     0
 42
0.000000001
 43
0.0000000001
 40
0.0
 40
0.0
 40
0.0
 40
0.0
 40
0.0461844926065915
 40
0.0906177160162987
 40
0.1336319030283024
 40
0.17612636152967
 40
0.2194231405683797
 40
0.2656145904792953
 40
0.3164099303183062
 40
0.3732546178796982
 40
0.4359627000352379
 40
0.5012762800758951
 40
0.5666997899679265
 40
0.629460117098765
 40
0.68636467042085
 40
0.7372624520782225
 40
0.783355499373593
 40
0.8263793416430583
 40
0.8684135848987489
 40
0.9108221986392782
 40
0.9545361452437414
 40
1.0
 40
1.0
 40
1.0
 40
1.0
 10
361.6964335039313
 20
223.2654230899122
 30
0.0
 10
361.6964335039313
 20
223.2363482671573
 30
0.0
 10
361.6984222189045
 20
223.1792622251923
 30
0.0
 10
361.7093967519689
 20
223.0956898226375
 30
0.0
 10
361.7302285639545
 20
223.0162979452159
 30
0.0
 10
361.7632937277183
 20
222.9417881465476
 30
0.0
 10
361.8114133155888
 20
222.8733231421801
 30
0.0
 10
361.8769894729637
 20
222.8131386051758
 30
0.0
 10
361.9610289404636
 20
222.763729628002
 30
0.0
 10
362.062390833615
 20
222.727165050953
 30
0.0
 10
362.1770360432073
 20
222.7049666679599
 30
0.0
 10
362.2989209757774
 20
222.6977218802354
 30
0.0
 10
362.4208045928319
 20
222.7055791909267
 30
0.0
 10
362.5354582175319
 20
222.7285052434592
 30
0.0
 10
362.6366599667698
 20
222.7659489684472
 30
0.0
 10
362.7201981088548
 20
222.8163202981974
 30
0.0
 10
362.7848444546061
 20
222.8772623058787
 30
0.0
 10
362.8317881975869
 20
222.9458858161707
 30
0.0
 10
362.8638052326164
 20
223.0199096687738
 30
0.0
 10
362.8839079723391
 20
223.0983117856443
 30
0.0
 10
362.8945063791271
 20
223.1806244178999
 30
0.0
 10
362.8964335067715
 20
223.2368019349706
 30
0.0
 10
362.8964335067715
 20
223.2654230899122
 30
0.0
  0
SPLINE
  5
3FA
330
1F
100
AcDbEntity
  8
1
  6
CONTINUOUS
 62
     7
100
AcDbSpline
210
0.0
220
0.0
230
1.0
 70
     8
 71
     3
 72
    14
 73
    10
 74
     0
 42
0.000000001
 43
0.0000000001
 40
0.0
 40
0.0
 40
0.0
 40
0.0
 40
0.0329760512492456
 40
0.1104435689709715
 40
0.2294057547622828
 40
0.3849348023987695
 40
0.5705339868444789
 40
0.778451625017232
 40
1.0
 40
1.0
 40
1.0
 40
1.0
 10
352.2664335069715
 20
230.4022494207522
 30
0.0
 10
352.2347197151873
 20
230.3517430240818
 30
0.0
 10
352.238644925081
 20
230.1385544426035
 30
0.0
 10
352.1905864758602
 20
229.7364074822457
 30
0.0
 10
352.1766303632895
 20
229.0942607875559
 30
0.0
 10
352.1500628485624
 20
228.2649059229462
 30
0.0
 10
352.1341028635746
 20
227.2712319645375
 30
0.0
 10
352.121467693167
 20
226.1592154744098
 30
0.0
 10
352.1175948244075
 20
225.3824566416792
 30
0.0
 10
352.1165858920115
 20
224.9817839345521
 30
0.0
  0
SPLINE
  5
3FB
330
1F
100
AcDbEntity
  8
1
  6
CONTINUOUS
 62
     7
100
AcDbSpline
210
0.0
220
0.0
230
1.0
 70
     8
 71
     3
 72
    15
 73
    11
 74
     0
 42
0.000000001
 43
0.0000000001
 40
0.0
 40
0.0
 40
0.0
 40
0.0
 40
0.1946859461519884
 40
0.3891667244300688
 40
0.5707310129065729
 40
0.7278875979614704
 40
0.853797937014441
 40
0.9429360893125539
 40
0.9918907716174249
 40
1.0
 40
1.0
 40
1.0
 40
1.0
 10
462.7477871969123
 20
313.4800978710288
 30
0.0
 10
462.7082418274157
 20
313.4939369861025
 30
0.0
 10
462.6290016156742
 20
313.521092725552
 30
0.0
 10
462.5124227477676
 20
313.5594575451599
 30
0.0
 10
462.4026589591692
 20
313.5939037765903
 30
0.0
 10
462.3084026027142
 20
313.6244496755328
 30
0.0
 10
462.2289981040286
 20
313.6469794194008
 30
0.0
 10
462.1822943318559
 20
313.6699229548365
 30
0.0
 10
462.142619304386
 20
313.675964712896
 30
0.0
 10
462.1406838181335
 20
313.688271775845
 30
0.0
 10
462.1405352826148
 20
313.6901188242049
 30
0.0
  0
SPLINE
  5
3FC
330
1F
100
AcDbEntity
  8
1
  6
CONTINUOUS
 62
     7
100
AcDbSpline
210
0.0
220
0.0
230
1.0
 70
     8
 71
     3
 72
    23
 73
    19
 74
     0
 42
0.000000001
 43
0.0000000001
 40
0.0
 40
0.0
 40
0.0
 40
0.0
 40
0.0644228424955513
 40
0.126391057713088
 40
0.1848429289885559
 40
0.241165812578904
 40
0.2986261216389449
 40
0.3606815080583444
 40
0.4295204625655104
 40
0.502245081459163
 40
0.5748992366770432
 40
0.6432120731236658
 40
0.7046673556335903
 40
0.761623192580131
 40
0.8174139661306331
 40
0.8752652149612848
 40
0.9364468191243517
 40
1.0
 40
1.0
 40
1.0
 40
1.0
 10
360.5164335068114
 20
309.7878490040328
 30
0.0
 10
360.5164335068114
 20
309.8311611032766
 30
0.0
 10
360.5131681734746
 20
309.916223777553
 30
0.0
 10
360.492986066192
 20
310.0393185862712
 30
0.0
 10
360.4521994269342
 20
310.1519243195133
 30
0.0
 10
360.3865482961555
 20
310.2489869568167
 30
0.0
 10
360.2950248478726
 20
310.3260614696966
 30
0.0
 10
360.1798498771584
 20
310.3813092475241
 30
0.0
 10
360.0461580200597
 20
310.4142032901498
 30
0.0
 10
359.9019192089645
 20
310.4247171194991
 30
0.0
 10
359.7581348205963
 20
310.4128290785304
 30
0.0
 10
359.6255917839669
 20
310.3786212418159
 30
0.0
 10
359.5121462385376
 20
310.3223089200838
 30
0.0
 10
359.422594036597
 20
310.2446501077544
 30
0.0
 10
359.3587456337802
 20
310.1477744643299
 30
0.0
 10
359.3191989098659
 20
310.0361502539274
 30
0.0
 10
359.2996143470211
 20
309.9145214550382
 30
0.0
 10
359.2964335033314
 20
309.8305764213699
 30
0.0
 10
359.2964335033314
 20
309.7878490040328
 30
0.0
  0
SPLINE
  5
3FD
330
1F
100
AcDbEntity
  8
1
  6
CONTINUOUS
 62
     7
100
AcDbSpline
210
0.0
220
0.0
230
1.0
 70
     8
 71
     3
 72
     9
 73
     5
 74
     0
 42
0.000000001
 43
0.0000000001
 40
0.0
 40
0.0
 40
0.0
 40
0.0
 40
0.4266464888253604
 40
1.0
 40
1.0
 40
1.0
 40
1.0
 10
235.1606251144086
 20
114.7572052456096
 30
0.0
 10
235.135942291303
 20
114.6008953256107
 30
0.0
 10
235.0937086844297
 20
114.2321553951418
 30
0.0
 10
235.0642400016302
 20
113.8624167639313
 30
0.0
 10
235.0496170221421
 20
113.6502585034496
 30
0.0
  0
SPLINE
  5
3FE
330
1F
100
AcDbEntity
  8
1
  6
CONTINUOUS
 62
     7
100
AcDbSpline
210
0.0
220
0.0
230
1.0
 70
     8
 71
     3
 72
    23
 73
    19
 74
     0
 42
0.000000001
 43
0.0000000001
 40
0.0
 40
0.0
 40
0.0
 40
0.0
 40
0.0644703611953417
 40
0.1266976938117877
 40
0.1854398287380544
 40
0.2417024256614736
 40
0.2986361238922118
 40
0.3596503614426526
 40
0.4269351577335697
 40
0.4980201262866443
 40
0.5691422609607821
 40
0.6368646850414386
 40
0.6984109030223516
 40
0.7557983876037894
 40
0.8125306215084457
 40
0.8718047053580313
 40
0.9347346208306319
 40
1.0
 40
1.0
 40
1.0
 40
1.0
 10
359.2964335033314
 20
307.713337008793
 30
0.0
 10
359.2964335033314
 20
307.6699927826867
 30
0.0
 10
359.2997094024513
 20
307.5847235573319
 30
0.0
 10
359.3200015805338
 20
307.4612336137018
 30
0.0
 10
359.3610871938848
 20
307.3483657504623
 30
0.0
 10
359.426891842778
 20
307.2516496502026
 30
0.0
 10
359.5176385732794
 20
307.1754180805412
 30
0.0
 10
359.6307566209395
 20
307.1208537204247
 30
0.0
 10
359.7614779054807
 20
307.0879719572953
 30
0.0
 10
359.9024357678954
 20
307.0766281126811
 30
0.0
 10
360.0437732472471
 20
307.0867789041714
 30
0.0
 10
360.1754652229122
 20
307.1185075436197
 30
0.0
 10
360.2900842112441
 20
307.1721236717693
 30
0.0
 10
360.3825738330791
 20
307.2478090725427
 30
0.0
 10
360.4500093596273
 20
307.3446504994166
 30
0.0
 10
360.4922353062909
 20
307.4583721090455
 30
0.0
 10
360.5130797716673
 20
307.5831783223057
 30
0.0
 10
360.5164335068114
 20
307.6694582822095
 30
0.0
 10
360.5164335068114
 20
307.713337008793
 30
0.0
  0
SPLINE
  5
3FF
330
1F
100
AcDbEntity
  8
1
  6
CONTINUOUS
 62
     7
100
AcDbSpline
210
0.0
220
0.0
230
1.0
 70
     8
 71
     3
 72
    14
 73
    10
 74
     0
 42
0.000000001
 43
0.0000000001
 40
0.0
 40
0.0
 40
0.0
 40
0.0
 40
0.0052273777045065
 40
0.0622571969702573
 40
0.1711021788018672
 40
0.3284868435263942
 40
0.5246773323878435
 40
0.7522250434159992
 40
1.0
 40
1.0
 40
1.0
 40
1.0
 10
466.0078490582971
 20
307.5542332141677
 30
0.0
 10
466.008974622202
 20
307.5540225721001
 30
0.0
 10
466.0216244404802
 20
307.5509611827756
 30
0.0
 10
466.0016249011306
 20
307.500639709861
 30
0.0
 10
466.0044273227938
 20
307.4453877754635
 30
0.0
 10
465.9812975206106
 20
307.3472405040317
 30
0.0
 10
465.9566522793569
 20
307.2328034583259
 30
0.0
 10
465.9196729907517
 20
307.0991487946312
 30
0.0
 10
465.8904439149907
 20
307.0062965925288
 30
0.0
 10
465.8740525470992
 20
306.9581180771368
 30
0.0
  0
SPLINE
  5
400
330
1F
100
AcDbEntity
  8
1
  6
CONTINUOUS
 62
     7
100
AcDbSpline
210
0.0
220
0.0
230
1.0
 70
     8
 71
     3
 72
    19
 73
    15
 74
     0
 42
0.000000001
 43
0.0000000001
 40
0.0
 40
0.0
 40
0.0
 40
0.0
 40
0.0485082633164384
 40
0.1151541677702149
 40
0.1969987245122088
 40
0.2910871819991884
 40
0.3933823591532116
 40
0.5000000001513291
 40
0.6066176408467902
 40
0.7089128180008133
 40
0.8030012754877675
 40
0.8848458322297852
 40
0.9514917366835633
 40
1.0
 40
1.0
 40
1.0
 40
1.0
 10
352.1878757418115
 20
232.7983024289923
 30
0.0
 10
352.1695675086055
 20
232.5274976218111
 30
0.0
 10
352.1394433465377
 20
231.8837750836372
 30
0.0
 10
352.1045069282073
 20
230.7820463866069
 30
0.0
 10
352.0755793942469
 20
229.425001304732
 30
0.0
 10
352.0538143550605
 20
227.8683492448993
 30
0.0
 10
352.0403683484601
 20
226.1729799785786
 30
0.0
 10
352.0358128885146
 20
224.4074600150454
 30
0.0
 10
352.0403683484734
 20
222.6419400515125
 30
0.0
 10
352.0538143550606
 20
220.9465707868852
 30
0.0
 10
352.0755793942468
 20
219.3899187270526
 30
0.0
 10
352.1045069282074
 20
218.0328736451777
 30
0.0
 10
352.1394433465377
 20
216.9311449481472
 30
0.0
 10
352.1695675086055
 20
216.2874224099733
 30
0.0
 10
352.1878757418115
 20
216.0166176027922
 30
0.0
  0
SPLINE
  5
401
330
1F
100
AcDbEntity
  8
1
  6
CONTINUOUS
 62
     7
100
AcDbSpline
210
0.0
220
0.0
230
1.0
 70
     8
 71
     3
 72
    20
 73
    16
 74
     0
 42
0.000000001
 43
0.0000000001
 40
0.0
 40
0.0
 40
0.0
 40
0.0
 40
0.0399993763019467
 40
0.0910300857164901
 40
0.1590602706699278
 40
0.244029924504978
 40
0.3415371157302418
 40
0.4482961784962795
 40
0.556616333396577
 40
0.6630614233263132
 40
0.7597430845973101
 40
0.8437779608220214
 40
0.9106237984933236
 40
0.9606353447997846
 40
1.0
 40
1.0
 40
1.0
 40
1.0
 10
362.8964335067715
 20
219.7607211839125
 30
0.0
 10
362.8964335067715
 20
219.7431810983323
 30
0.0
 10
362.8795023225009
 20
219.7031892957753
 30
0.0
 10
362.8202201164717
 20
219.6631619202323
 30
0.0
 10
362.7362218652793
 20
219.6318072174916
 30
0.0
 10
362.6285140884575
 20
219.6086120560445
 30
0.0
 10
362.502624905636
 20
219.5926705911845
 30
0.0
 10
362.3657525876728
 20
219.5838731642895
 30
0.0
 10
362.224728081948
 20
219.5819164113654
 30
0.0
 10
362.0881621444186
 20
219.5869065544817
 30
0.0
 10
361.9627942067202
 20
219.5993010370966
 30
0.0
 10
361.8557546401037
 20
219.6193656290556
 30
0.0
 10
361.7723303015966
 20
219.6481320957068
 30
0.0
 10
361.7131573043537
 20
219.6863083815193
 30
0.0
 10
361.6964335039313
 20
219.725670513833
 30
0.0
 10
361.6964335039313
 20
219.7429322685122
 30
0.0
  0
SPLINE
  5
402
330
1F
100
AcDbEntity
  8
1
  6
CONTINUOUS
 62
     7
100
AcDbSpline
210
0.0
220
0.0
230
1.0
 70
     8
 71
     3
 72
    25
 73
    21
 74
     0
 42
0.000000001
 43
0.0000000001
 40
0.0
 40
0.0
 40
0.0
 40
0.0
 40
0.035390440800791
 40
0.0697594225749502
 40
0.1047790710914175
 40
0.142664984300675
 40
0.1868533928144649
 40
0.2417321811836865
 40
0.3121047776112165
 40
0.4001185169242871
 40
0.4988955507248234
 40
0.5978225444063808
 40
0.6864665809714872
 40
0.7574905544546312
 40
0.8127611100849237
 40
0.857163986721044
 40
0.895110506021765
 40
0.9301495156740024
 40
0.9645553915511084
 40
1.0
 40
1.0
 40
1.0
 40
1.0
 10
242.3696170227021
 20
110.2768631742229
 30
0.0
 10
242.3696170227021
 20
110.2882711602584
 30
0.0
 10
242.3673877387865
 20
110.3108773351759
 30
0.0
 10
242.355493379221
 20
110.3429371465589
 30
0.0
 10
242.3345924654911
 20
110.3710432079777
 30
0.0
 10
242.304812650608
 20
110.3947754483522
 30
0.0
 10
242.2651804031581
 20
110.414746525562
 30
0.0
 10
242.2129804830761
 20
110.4313838887833
 30
0.0
 10
242.1453316971858
 20
110.444282632119
 30
0.0
 10
242.0627543761801
 20
110.4524427220968
 30
0.0
 10
241.9706385086951
 20
110.4552567811432
 30
0.0
 10
241.8783161421286
 20
110.452559534304
 30
0.0
 10
241.7952668491637
 20
110.4444838828649
 30
0.0
 10
241.7270651159115
 20
110.4315992130908
 30
0.0
 10
241.6744516539096
 20
110.4149187342405
 30
0.0
 10
241.6346011984964
 20
110.3948979710084
 30
0.0
 10
241.6047252218868
 20
110.3711323806519
 30
0.0
 10
241.5837787123581
 20
110.3430125486788
 30
0.0
 10
241.5718527007519
 20
110.310924828236
 30
0.0
 10
241.5696170208087
 20
110.2882886210122
 30
0.0
 10
241.5696170208087
 20
110.2768631742229
 30
0.0
  0
SPLINE
  5
403
330
1F
100
AcDbEntity
  8
1
  6
CONTINUOUS
 62
     7
100
AcDbSpline
210
0.0
220
0.0
230
1.0
 70
     8
 71
     3
 72
    13
 73
     9
 74
     0
 42
0.000000001
 43
0.0000000001
 40
0.0
 40
0.0
 40
0.0
 40
0.0
 40
0.2493328391208383
 40
0.4785303413229668
 40
0.676163178729313
 40
0.8343798127999069
 40
0.9434681945050386
 40
1.0
 40
1.0
 40
1.0
 40
1.0
 10
456.3730443003117
 20
306.9581180771368
 30
0.0
 10
456.3559899325409
 20
307.0065389274184
 30
0.0
 10
456.3249420694402
 20
307.0999891646084
 30
0.0
 10
456.2856045525177
 20
307.2335015425698
 30
0.0
 10
456.2551443161435
 20
307.3500114823122
 30
0.0
 10
456.233831890379
 20
307.4432895282982
 30
0.0
 10
456.2201421398474
 20
307.5085439012388
 30
0.0
 10
456.2149001616954
 20
307.542222796151
 30
0.0
 10
456.213251408735
 20
307.5537442019436
 30
0.0
  0
SPLINE
  5
404
330
1F
100
AcDbEntity
  8
1
  6
CONTINUOUS
 62
     7
100
AcDbSpline
210
0.0
220
0.0
230
1.0
 70
     8
 71
     3
 72
    19
 73
    15
 74
     0
 42
0.000000001
 43
0.0000000001
 40
0.0
 40
0.0
 40
0.0
 40
0.0
 40
0.0295379863802266
 40
0.0803853575389725
 40
0.1567988175658369
 40
0.2555680867544395
 40
0.370799512880823
 40
0.4949477844425133
 40
0.6192913216556942
 40
0.735675981363306
 40
0.8363121250222727
 40
0.9151885352491465
 40
0.9686067640049846
 40
1.0
 40
1.0
 40
1.0
 40
1.0
 10
238.3829503537685
 20
112.4882459667561
 30
0.0
 10
238.3829503537685
 20
112.4964556041166
 30
0.0
 10
238.4008515184509
 20
112.5158151436178
 30
0.0
 10
238.4431693668137
 20
112.5254236194916
 30
0.0
 10
238.5055968797694
 20
112.5341977012444
 30
0.0
 10
238.5863189845768
 20
112.5368455693843
 30
0.0
 10
238.6803104578089
 20
112.5364984196389
 30
0.0
 10
238.7813565112555
 20
112.5330077023474
 30
0.0
 10
238.8826095311969
 20
112.5272354969588
 30
0.0
 10
238.9771587289204
 20
112.5189733348841
 30
0.0
 10
239.0587424764999
 20
112.5087345095628
 30
0.0
 10
239.1222048247522
 20
112.4942190070526
 30
0.0
 10
239.1649376188066
 20
112.4799914392947
 30
0.0
 10
239.182950355662
 20
112.4593636640707
 30
0.0
 10
239.1829503556621
 20
112.4506383880896
 30
0.0
  0
SPLINE
  5
405
330
1F
100
AcDbEntity
  8
1
  6
CONTINUOUS
 62
     7
100
AcDbSpline
210
0.0
220
0.0
230
1.0
 70
     8
 71
     3
 72
    22
 73
    18
 74
     0
 42
0.000000001
 43
0.0000000001
 40
0.0
 40
0.0
 40
0.0
 40
0.0
 40
0.0316740819845107
 40
0.0717936261067495
 40
0.1250944705799885
 40
0.1919900785924174
 40
0.2712377409767003
 40
0.3602083783495081
 40
0.4560133415418567
 40
0.5528236251049653
 40
0.6485296979224504
 40
0.7372660377245035
 40
0.81563505145473
 40
0.8809610707228109
 40
0.9319873161247836
 40
0.9696963585621935
 40
1.0
 40
1.0
 40
1.0
 40
1.0
 10
355.7364335062514
 20
303.8707077623928
 30
0.0
 10
355.7364335062514
 20
303.8565731273414
 30
0.0
 10
355.7261448007511
 20
303.8242687055092
 30
0.0
 10
355.6847726072172
 20
303.7848134707339
 30
0.0
 10
355.6214267583407
 20
303.7507647372174
 30
0.0
 10
355.5370536238112
 20
303.7216197028569
 30
0.0
 10
355.4348317951427
 20
303.6975257412039
 30
0.0
 10
355.3184784375618
 20
303.6785283856597
 30
0.0
 10
355.1935212683247
 20
303.6648367745975
 30
0.0
 10
355.0650809317269
 20
303.6565781424309
 30
0.0
 10
354.9395491735876
 20
303.6541450898926
 30
0.0
 10
354.8222585173353
 20
303.6580540005073
 30
0.0
 10
354.7189931130309
 20
303.668760070032
 30
0.0
 10
354.6336674825387
 20
303.686713258774
 30
0.0
 10
354.5693861969828
 20
303.712041208354
 30
0.0
 10
354.5264946339055
 20
303.7463543358768
 30
0.0
 10
354.5164335078514
 20
303.7772382405225
 30
0.0
 10
354.5164335078514
 20
303.7907613131931
 30
0.0
  0
SPLINE
  5
406
330
1F
100
AcDbEntity
  8
1
  6
CONTINUOUS
 62
     7
100
AcDbSpline
210
0.0
220
0.0
230
1.0
 70
     8
 71
     3
 72
    14
 73
    10
 74
     0
 42
0.000000001
 43
0.0000000001
 40
0.0
 40
0.0
 40
0.0
 40
0.0
 40
0.0255396506609446
 40
0.0996176046152792
 40
0.2187147983459809
 40
0.3768045408554468
 40
0.5662191963652081
 40
0.7774115146985942
 40
1.0
 40
1.0
 40
1.0
 40
1.0
 10
431.9139147206213
 20
323.3421182810317
 30
0.0
 10
431.9558906310573
 20
323.349278932622
 30
0.0
 10
432.1199176108904
 20
323.3736827127198
 30
0.0
 10
432.4851982219429
 20
323.3706143376119
 30
0.0
 10
433.0690127409051
 20
323.3824055495644
 30
0.0
 10
433.8458483445737
 20
323.3789696899989
 30
0.0
 10
434.7755030354866
 20
323.3733129225137
 30
0.0
 10
435.8125901096503
 20
323.3604813989482
 30
0.0
 10
436.5343851415424
 20
323.3489320562153
 30
0.0
 10
436.9047571529629
 20
323.3421182810317
 30
0.0
  0
SPLINE
  5
407
330
1F
100
AcDbEntity
  8
1
  6
CONTINUOUS
 62
     7
100
AcDbSpline
210
0.0
220
0.0
230
1.0
 70
     8
 71
     3
 72
    15
 73
    11
 74
     0
 42
0.000000001
 43
0.0000000001
 40
0.0
 40
0.0
 40
0.0
 40
0.0
 40
0.0001834909069601
 40
0.0316814097711273
 40
0.1103524757579133
 40
0.232380295240928
 40
0.3932229861261583
 40
0.5836803055495027
 40
0.7913712491994616
 40
1.0
 40
1.0
 40
1.0
 40
1.0
 10
462.1378114267648
 20
303.5100738490192
 30
0.0
 10
462.1377973745083
 20
303.510110975839
 30
0.0
 10
462.1354030160584
 20
303.5165109969349
 30
0.0
 10
462.1706217762815
 20
303.5271285705627
 30
0.0
 10
462.205668206504
 20
303.5447499115816
 30
0.0
 10
462.2858926734428
 20
303.5687654132693
 30
0.0
 10
462.3807232366308
 20
303.5992643442056
 30
0.0
 10
462.49643976418
 20
303.6354930351691
 30
0.0
 10
462.6204412561924
 20
303.6760898017072
 30
0.0
 10
462.7053572943494
 20
303.7051541136068
 30
0.0
 10
462.7477871969124
 20
303.7199979842878
 30
0.0
  0
SPLINE
  5
408
330
1F
100
AcDbEntity
  8
1
  6
CONTINUOUS
 62
     7
100
AcDbSpline
210
0.0
220
0.0
230
1.0
 70
     8
 71
     3
 72
    19
 73
    15
 74
     0
 42
0.000000001
 43
0.0000000001
 40
0.0
 40
0.0
 40
0.0
 40
0.0
 40
0.0442616840050068
 40
0.1016629326116972
 40
0.1800559299702337
 40
0.2756892778772977
 40
0.3843822512005353
 40
0.4999097225876175
 40
0.6154401695109214
 40
0.7241508383963101
 40
0.8199182001088189
 40
0.8985566524734794
 40
0.9558484990944918
 40
1.0
 40
1.0
 40
1.0
 40
1.0
 10
364.1164335051715
 20
313.3686977325931
 30
0.0
 10
364.1164335051715
 20
313.3882242405357
 30
0.0
 10
364.1362149578983
 20
313.4331110218369
 30
0.0
 10
364.2054093158739
 20
313.4763557992795
 30
0.0
 10
364.3024129479652
 20
313.5087189963163
 30
0.0
 10
364.4255245446126
 20
313.530943959429
 30
0.0
 10
364.5660830761836
 20
313.5441189604596
 30
0.0
 10
364.7159928536156
 20
313.5486603290634
 30
0.0
 10
364.8659304491
 20
313.5448306372533
 30
0.0
 10
365.0066178914517
 20
313.532328631313
 30
0.0
 10
365.1300122945831
 20
313.5106785477392
 30
0.0
 10
365.2272799818364
 20
313.478750373689
 30
0.0
 10
365.296673036295
 20
313.4357369828315
 30
0.0
 10
365.3164335080118
 20
313.3909307243813
 30
0.0
 10
365.3164335080118
 20
313.3714528248732
 30
0.0
  0
SPLINE
  5
409
330
1F
100
AcDbEntity
  8
1
  6
CONTINUOUS
 62
     7
100
AcDbSpline
210
0.0
220
0.0
230
1.0
 70
     8
 71
     3
 72
    11
 73
     7
 74
     0
 42
0.000000001
 43
0.0000000001
 40
0.0
 40
0.0
 40
0.0
 40
0.0
 40
0.1226763394654683
 40
0.378337966638093
 40
0.6763459190035616
 40
1.0
 40
1.0
 40
1.0
 40
1.0
 10
462.2495364675694
 20
303.7715324322975
 30
0.0
 10
462.2700754530081
 20
303.7775900316851
 30
0.0
 10
462.3333794297
 20
303.7964013913165
 30
0.0
 10
462.4465562222626
 20
303.8300071908586
 30
0.0
 10
462.592325550715
 20
303.8770246041464
 30
0.0
 10
462.6947168375815
 20
303.9129381500877
 30
0.0
 10
462.7477871969123
 20
303.9323510104912
 30
0.0
  0
SPLINE
  5
40A
330
1F
100
AcDbEntity
  8
1
  6
CONTINUOUS
 62
     7
100
AcDbSpline
210
0.0
220
0.0
230
1.0
 70
     8
 71
     3
 72
    10
 73
     6
 74
     0
 42
0.000000001
 43
0.0000000001
 40
0.0
 40
0.0
 40
0.0
 40
0.0
 40
0.0494173814991008
 40
0.9316928959014424
 40
1.0
 40
1.0
 40
1.0
 40
1.0
 10
459.9335828494375
 20
303.7353926208974
 30
0.0
 10
459.93345581401
 20
303.734720275151
 30
0.0
 10
459.930807883498
 20
303.7224974897882
 30
0.0
 10
459.9080501493125
 20
303.7336198857727
 30
0.0
 10
459.8966110328051
 20
303.7376569389826
 30
0.0
 10
459.8957683290356
 20
303.7379879687305
 30
0.0
  0
SPLINE
  5
40B
330
1F
100
AcDbEntity
  8
1
  6
CONTINUOUS
 62
     7
100
AcDbSpline
210
0.0
220
0.0
230
1.0
 70
     8
 71
     3
 72
    11
 73
     7
 74
     0
 42
0.000000001
 43
0.0000000001
 40
0.0
 40
0.0
 40
0.0
 40
0.0
 40
0.0172735925481921
 40
0.3256684789091284
 40
0.9217501691106755
 40
1.0
 40
1.0
 40
1.0
 40
1.0
 10
462.1418761125881
 20
313.4647032344192
 30
0.0
 10
462.1420031480155
 20
313.4653755801655
 30
0.0
 10
462.1447350406783
 20
313.4775630499079
 30
0.0
 10
462.1960241031895
 20
313.4519023372075
 30
0.0
 10
462.2239303606533
 20
313.4539045256304
 30
0.0
 10
462.2496124700521
 20
313.4504164298721
 30
0.0
 10
462.2525527888904
 20
313.4500718173682
 30
0.0
  0
SPLINE
  5
40C
330
1F
100
AcDbEntity
  8
1
  6
CONTINUOUS
 62
     7
100
AcDbSpline
210
0.0
220
0.0
230
1.0
 70
     8
 71
     3
 72
    11
 73
     7
 74
     0
 42
0.000000001
 43
0.0000000001
 40
0.0
 40
0.0
 40
0.0
 40
0.0
 40
0.0172735924543383
 40
0.3256684771267498
 40
0.9217501640512049
 40
1.0
 40
1.0
 40
1.0
 40
1.0
 10
459.9335828494375
 20
303.7353926208974
 30
0.0
 10
459.93345581401
 20
303.734720275151
 30
0.0
 10
459.9307239213434
 20
303.7225328053817
 30
0.0
 10
459.8794348591804
 20
303.7481935208458
 30
0.0
 10
459.8515285997287
 20
303.7461913178399
 30
0.0
 10
459.8258464919498
 20
303.74967942864
 30
0.0
 10
459.8229061731352
 20
303.7500240430284
 30
0.0
  0
SPLINE
  5
40D
330
1F
100
AcDbEntity
  8
1
  6
CONTINUOUS
 62
     7
100
AcDbSpline
210
0.0
220
0.0
230
1.0
 70
     8
 71
     3
 72
    23
 73
    19
 74
     0
 42
0.000000001
 43
0.0000000001
 40
0.0
 40
0.0
 40
0.0
 40
0.0
 40
0.0634856249846482
 40
0.1245047318193312
 40
0.1822579255745758
 40
0.2382999332314969
 40
0.2958969876418071
 40
0.3584735618135822
 40
0.4282929429951992
 40
0.5023395465771197
 40
0.5762980582700971
 40
0.645540460824352
 40
0.7074690048851016
 40
0.7645217732618059
 40
0.8200006118641884
 40
0.8771401684534885
 40
0.9373747469074973
 40
1.0
 40
1.0
 40
1.0
 40
1.0
 10
365.3164335080116
 20
309.8041583795928
 30
0.0
 10
365.3164335080116
 20
309.8459061504736
 30
0.0
 10
365.313211110739
 20
309.9278673901031
 30
0.0
 10
365.2935507644992
 20
310.046550491823
 30
0.0
 10
365.2540817209685
 20
310.1554606122583
 30
0.0
 10
365.1905005135337
 20
310.2501098434793
 30
0.0
 10
365.1012006365631
 20
310.3261347507434
 30
0.0
 10
364.987812135761
 20
310.3811878752755
 30
0.0
 10
364.8553057918929
 20
310.4141783896072
 30
0.0
 10
364.7118416810056
 20
310.4247465283649
 30
0.0
 10
364.5688619478857
 20
310.4127659723401
 30
0.0
 10
364.4375748803535
 20
310.378443605562
 30
0.0
 10
364.3259917590942
 20
310.3223470159682
 30
0.0
 10
364.2386998997309
 20
310.2457964067217
 30
0.0
 10
364.1769051402938
 20
310.1513869777642
 30
0.0
 10
364.1386473675074
 20
310.043465005201
 30
0.0
 10
364.1195719144029
 20
309.9262158520702
 30
0.0
 10
364.1164335051715
 20
309.8453403750145
 30
0.0
 10
364.1164335051715
 20
309.8041583795928
 30
0.0
  0
SPLINE
  5
40E
330
1F
100
AcDbEntity
  8
1
  6
CONTINUOUS
 62
     7
100
AcDbSpline
210
0.0
220
0.0
230
1.0
 70
     8
 71
     3
 72
    23
 73
    19
 74
     0
 42
0.000000001
 43
0.0000000001
 40
0.0
 40
0.0
 40
0.0
 40
0.0
 40
0.0644703610502421
 40
0.1266976936401749
 40
0.1854398285415418
 40
0.2417024254410312
 40
0.2986361236475649
 40
0.359650361172055
 40
0.4269351574343406
 40
0.498020125957181
 40
0.569142260601083
 40
0.6368646846529354
 40
0.6984109026076715
 40
0.7557983871647009
 40
0.8125306224942302
 40
0.8718047054125576
 40
0.93473462085839
 40
1.0
 40
1.0
 40
1.0
 40
1.0
 10
354.5164335078514
 20
307.713337008793
 30
0.0
 10
354.5164335078514
 20
307.6699927827658
 30
0.0
 10
354.5197093996296
 20
307.5847235571472
 30
0.0
 10
354.5400015805367
 20
307.4612336137279
 30
0.0
 10
354.5810871931847
 20
307.348365750456
 30
0.0
 10
354.6468918422551
 20
307.2516496502042
 30
0.0
 10
354.737638572709
 20
307.1754180805407
 30
0.0
 10
354.8507566203818
 20
307.1208537204253
 30
0.0
 10
354.9814779049228
 20
307.0879719572932
 30
0.0
 10
355.1224357673232
 20
307.0766281126889
 30
0.0
 10
355.2637732467325
 20
307.0867789041428
 30
0.0
 10
355.3954652221984
 20
307.1185075437169
 30
0.0
 10
355.5100842111863
 20
307.1721236714519
 30
0.0
 10
355.6025738315508
 20
307.2478090742609
 30
0.0
 10
355.6700093662543
 20
307.3446504965082
 30
0.0
 10
355.7122353037688
 20
307.4583721105638
 30
0.0
 10
355.7330797717356
 20
307.5831783220268
 30
0.0
 10
355.7364335062514
 20
307.6694582822095
 30
0.0
 10
355.7364335062514
 20
307.713337008793
 30
0.0
  0
SPLINE
  5
40F
330
1F
100
AcDbEntity
  8
1
  6
CONTINUOUS
 62
     7
100
AcDbSpline
210
0.0
220
0.0
230
1.0
 70
     8
 71
     3
 72
    23
 73
    19
 74
     0
 42
0.000000001
 43
0.0000000001
 40
0.0
 40
0.0
 40
0.0
 40
0.0
 40
0.0644228425030171
 40
0.1263910577276915
 40
0.1848429290099194
 40
0.2411658126067939
 40
0.298626121673485
 40
0.3606815081000664
 40
0.4295204626151994
 40
0.5022450815172549
 40
0.5748992367435297
 40
0.6432120731980855
 40
0.7046673557151226
 40
0.7616231926682552
 40
0.8174139662252142
 40
0.8752652150625614
 40
0.9364468192327066
 40
1.0
 40
1.0
 40
1.0
 40
1.0
 10
355.7364335062514
 20
309.7878490040328
 30
0.0
 10
355.7364335062514
 20
309.8311611032766
 30
0.0
 10
355.7331681729137
 20
309.9162237775529
 30
0.0
 10
355.7129860656323
 20
310.0393185862713
 30
0.0
 10
355.6721994263741
 20
310.1519243195133
 30
0.0
 10
355.6065482955955
 20
310.2489869568167
 30
0.0
 10
355.5150248473126
 20
310.3260614696966
 30
0.0
 10
355.3998498765985
 20
310.3813092475242
 30
0.0
 10
355.2661580194995
 20
310.4142032901497
 30
0.0
 10
355.1219192084048
 20
310.4247171194991
 30
0.0
 10
354.9781348200352
 20
310.4128290785304
 30
0.0
 10
354.8455917834104
 20
310.3786212418159
 30
0.0
 10
354.7321462379663
 20
310.3223089200841
 30
0.0
 10
354.6425940360751
 20
310.2446501077528
 30
0.0
 10
354.5787456330791
 20
310.1477744643365
 30
0.0
 10
354.5391989098684
 20
310.0361502539016
 30
0.0
 10
354.519614344205
 20
309.9145214552198
 30
0.0
 10
354.5164335078514
 20
309.830576421292
 30
0.0
 10
354.5164335078514
 20
309.7878490040328
 30
0.0
  0
SPLINE
  5
410
330
1F
100
AcDbEntity
  8
1
  6
CONTINUOUS
 62
     9
100
AcDbSpline
210
0.0
220
0.0
230
1.0
 70
     8
 71
     3
 72
    14
 73
    10
 74
     0
 42
0.000000001
 43
0.0000000001
 40
0.0
 40
0.0
 40
0.0
 40
0.0
 40
0.22258190224843
 40
0.4337792762396737
 40
0.6231896454154882
 40
0.7812805848975278
 40
0.900381720464645
 40
0.9744588879960212
 40
1.0
 40
1.0
 40
1.0
 40
1.0
 10
346.3985913437716
 20
323.342165817113
 30
0.0
 10
346.7689383395452
 20
323.3489171003514
 30
0.0
 10
347.4912468175958
 20
323.3610414969697
 30
0.0
 10
348.5260479648617
 20
323.3718216835263
 30
0.0
 10
349.4626006576342
 20
323.3837239892808
 30
0.0
 10
350.2198319790779
 20
323.3695172117736
 30
0.0
 10
350.8511963582231
 20
323.4005780631489
 30
0.0
 10
351.1290189022973
 20
323.3248510969116
 30
0.0
 10
351.3864094286455
 20
323.3845738726675
 30
0.0
 10
351.3892653349715
 20
323.3421658171131
 30
0.0
  0
SPLINE
  5
411
330
1F
100
AcDbEntity
  8
1
  6
CONTINUOUS
 62
     9
100
AcDbSpline
210
0.0
220
0.0
230
1.0
 70
     8
 71
     3
 72
    14
 73
    10
 74
     0
 42
0.000000001
 43
0.0000000001
 40
0.0
 40
0.0
 40
0.0
 40
0.0
 40
0.0255396506622403
 40
0.099617604586005
 40
0.2187147983226592
 40
0.3768045408402032
 40
0.5662191963595528
 40
0.7774115147037987
 40
1.0
 40
1.0
 40
1.0
 40
1.0
 10
223.1436016744111
 20
323.342165817113
 30
0.0
 10
223.1464323333439
 20
323.384573129532
 30
0.0
 10
223.4038795813271
 20
323.3248512092988
 30
0.0
 10
223.681638806377
 20
323.4005801290996
 30
0.0
 10
224.3130254329619
 20
323.3695168426141
 30
0.0
 10
225.0702428201465
 20
323.3837240789956
 30
0.0
 10
226.0067968505424
 20
323.3718197517383
 30
0.0
 10
227.0416062420933
 20
323.3610386577951
 30
0.0
 10
227.7639177848066
 20
323.3489217423629
 30
0.0
 10
228.1342756656115
 20
323.3421658171131
 30
0.0
  0
SPLINE
  5
412
330
1F
100
AcDbEntity
  8
1
  6
CONTINUOUS
 62
     7
100
AcDbSpline
210
0.0
220
0.0
230
1.0
 70
     8
 71
     3
 72
    23
 73
    19
 74
     0
 42
0.000000001
 43
0.0000000001
 40
0.0
 40
0.0
 40
0.0
 40
0.0
 40
0.0635744858156628
 40
0.1248708216259597
 40
0.1829071402875326
 40
0.238862792796879
 40
0.2959092865053678
 40
0.3574054436430837
 40
0.4255957689985146
 40
0.4979272411865845
 40
0.5703108566236303
 40
0.6389841537489067
 40
0.7010552257702066
 40
0.7585923693148936
 40
0.8150485753896844
 40
0.873632241631014
 40
0.9356347610344858
 40
1.0
 40
1.0
 40
1.0
 40
1.0
 10
364.1164335051715
 20
307.6970276332329
 30
0.0
 10
364.1164335051715
 20
307.6552211871769
 30
0.0
 10
364.1196700120719
 20
307.5730184733086
 30
0.0
 10
364.1394591666185
 20
307.4539165824829
 30
0.0
 10
364.1792386738977
 20
307.3447673387037
 30
0.0
 10
364.2429641462284
 20
307.2504988543345
 30
0.0
 10
364.3314675072846
 20
307.1753469747894
 30
0.0
 10
364.4427586460647
 20
307.1210030606373
 30
0.0
 10
364.5722271420619
 20
307.088028447514
 30
0.0
 10
364.7123484057067
 20
307.0766029190115
 30
0.0
 10
364.8528766338269
 20
307.0867969595931
 30
0.0
 10
364.9833799525341
 20
307.1185969155714
 30
0.0
 10
365.0962438348477
 20
307.1720040014399
 30
0.0
 10
365.1865321532073
 20
307.2466555706997
 30
0.0
 10
365.2518843788065
 20
307.3410970627241
 30
0.0
 10
365.2927856471823
 20
307.4511125180027
 30
0.0
 10
365.3131191134562
 20
307.571510210891
 30
0.0
 10
365.3164335080116
 20
307.6547011895948
 30
0.0
 10
365.3164335080116
 20
307.6970276332329
 30
0.0
  0
SPLINE
  5
413
330
1F
100
AcDbEntity
  8
1
  6
CONTINUOUS
 62
     7
100
AcDbSpline
210
0.0
220
0.0
230
1.0
 70
     8
 71
     3
 72
    14
 73
    10
 74
     0
 42
0.000000001
 43
0.0000000001
 40
0.0
 40
0.0
 40
0.0
 40
0.0
 40
0.2614435762664102
 40
0.5019061872064502
 40
0.7071145192264098
 40
0.8644989686428648
 40
0.964024567404362
 40
0.9998125505847101
 40
1.0
 40
1.0
 40
1.0
 40
1.0
 10
466.0253013065915
 20
309.7000850535974
 30
0.0
 10
466.0367288575306
 20
309.6484551570339
 30
0.0
 10
466.0562375166118
 20
309.5492008430955
 30
0.0
 10
466.0784353786847
 20
309.4068853638884
 30
0.0
 10
466.0903619174758
 20
309.2885618322377
 30
0.0
 10
466.1000454054118
 20
309.1882218679328
 30
0.0
 10
466.0941160415256
 20
309.1424060194194
 30
0.0
 10
466.0990680174511
 20
309.1003328015404
 30
0.0
 10
466.0917944803563
 20
309.1000669497827
 30
0.0
 10
466.091756472176
 20
309.1000656930389
 30
0.0
  0
SPLINE
  5
414
330
1F
100
AcDbEntity
  8
1
  6
CONTINUOUS
 62
     7
100
AcDbSpline
210
0.0
220
0.0
230
1.0
 70
     8
 71
     3
 72
    15
 73
    11
 74
     0
 42
0.000000001
 43
0.0000000001
 40
0.0
 40
0.0
 40
0.0
 40
0.0
 40
0.1946859514260395
 40
0.389166725079827
 40
0.5707310115331208
 40
0.7278875873306332
 40
0.8537979274100873
 40
0.9429360787154292
 40
0.9918907639755101
 40
1.0
 40
1.0
 40
1.0
 40
1.0
 10
459.3276717651131
 20
303.7199979842877
 30
0.0
 10
459.3672171361353
 20
303.7061588686925
 30
0.0
 10
459.4464573490667
 20
303.6790031293539
 30
0.0
 10
459.5630362202667
 20
303.6406383164444
 30
0.0
 10
459.6728000064192
 20
303.6061920841333
 30
0.0
 10
459.7670563614835
 20
303.5756461852951
 30
0.0
 10
459.8464608585357
 20
303.5531164371416
 30
0.0
 10
459.8931646280377
 20
303.530172895884
 30
0.0
 10
459.9328396652751
 20
303.524131147548
 30
0.0
 10
459.934775149339
 20
303.5118240814481
 30
0.0
 10
459.9349236844907
 20
303.5099770311118
 30
0.0
  0
SPLINE
  5
415
330
1F
100
AcDbEntity
  8
1
  6
CONTINUOUS
 62
     9
100
AcDbSpline
210
0.0
220
0.0
230
1.0
 70
     8
 71
     3
 72
    14
 73
    10
 74
     0
 42
0.000000001
 43
0.0000000001
 40
0.0
 40
0.0
 40
0.0
 40
0.0
 40
0.025539650662143
 40
0.0996176045859246
 40
0.2187147973051989
 40
0.3768045408402928
 40
0.5662191953421345
 40
0.7774115147037797
 40
1.0
 40
1.0
 40
1.0
 40
1.0
 10
127.7728640240914
 20
323.342165817113
 30
0.0
 10
127.7756946830241
 20
323.3845731295319
 30
0.0
 10
128.0331419310137
 20
323.3248512092941
 30
0.0
 10
128.310901154672
 20
323.4005801288149
 30
0.0
 10
128.942287781015
 20
323.3695168426039
 30
0.0
 10
129.6995051664578
 20
323.3837240789967
 30
0.0
 10
130.6360591985345
 20
323.3718197516728
 30
0.0
 10
131.6708685900792
 20
323.3610386578483
 30
0.0
 10
132.3931801344864
 20
323.3489217423629
 30
0.0
 10
132.7635380152912
 20
323.342165817113
 30
0.0
  0
SPLINE
  5
416
330
1F
100
AcDbEntity
  8
1
  6
CONTINUOUS
 62
     7
100
AcDbSpline
210
0.0
220
0.0
230
1.0
 70
     8
 71
     3
 72
     9
 73
     5
 74
     0
 42
0.000000001
 43
0.0000000001
 40
0.0
 40
0.0
 40
0.0
 40
0.0
 40
0.4577732461946261
 40
1.0
 40
1.0
 40
1.0
 40
1.0
 10
235.1829496349955
 20
104.6805350967295
 30
0.0
 10
235.1879604568883
 20
104.5109006637973
 30
0.0
 10
235.2003289962792
 20
104.1403916685376
 30
0.0
 10
235.2170193092019
 20
103.7699750655223
 30
0.0
 10
235.2305784991821
 20
103.5694153580896
 30
0.0
  0
SPLINE
  5
417
330
1F
100
AcDbEntity
  8
1
  6
CONTINUOUS
 62
     7
100
AcDbSpline
210
0.0
220
0.0
230
1.0
 70
     8
 71
     3
 72
    13
 73
     9
 74
     0
 42
0.000000001
 43
0.0000000001
 40
0.0
 40
0.0
 40
0.0
 40
0.0
 40
0.0383600199916439
 40
0.1404061915097273
 40
0.2996307758593676
 40
0.5054676037949585
 40
0.7442329362999048
 40
1.0
 40
1.0
 40
1.0
 40
1.0
 10
222.4918312583716
 20
209.8527717999521
 30
0.0
 10
222.5269688205742
 20
209.8761938676994
 30
0.0
 10
222.4948867484208
 20
210.0691049490286
 30
0.0
 10
222.5540994889066
 20
210.3640199722036
 30
0.0
 10
222.5480047469545
 20
210.8960272921027
 30
0.0
 10
222.5692498645278
 20
211.5534855853918
 30
0.0
 10
222.5742027598789
 20
212.3269094300855
 30
0.0
 10
222.5767366765714
 20
212.8707092444981
 30
0.0
 10
222.5767366765714
 20
213.1522691938324
 30
0.0
  0
SPLINE
  5
418
330
1F
100
AcDbEntity
  8
1
  6
CONTINUOUS
 62
     7
100
AcDbSpline
210
0.0
220
0.0
230
1.0
 70
     8
 71
     3
 72
    13
 73
     9
 74
     0
 42
0.000000001
 43
0.0000000001
 40
0.0
 40
0.0
 40
0.0
 40
0.0
 40
0.0079314270260221
 40
0.3089456129591156
 40
0.4123640079125404
 40
0.5194050428950708
 40
0.8260614831082231
 40
1.0
 40
1.0
 40
1.0
 40
1.0
 10
459.8557424150797
 20
313.4557670655031
 30
0.0
 10
459.8562610742076
 20
313.4558778991595
 30
0.0
 10
459.8765611865153
 20
313.460169777173
 30
0.0
 10
459.8943313796012
 20
313.4642749755714
 30
0.0
 10
459.9485501158555
 20
313.4677402366412
 30
0.0
 10
459.8967329310242
 20
313.4478553162043
 30
0.0
 10
459.8700051707206
 20
313.4413502572704
 30
0.0
 10
459.8371389109005
 20
313.4316460814175
 30
0.0
 10
459.825922494456
 20
313.4285634230191
 30
0.0
  0
SPLINE
  5
419
330
1F
100
AcDbEntity
  8
1
  6
CONTINUOUS
 62
     7
100
AcDbSpline
210
0.0
220
0.0
230
1.0
 70
     8
 71
     3
 72
    13
 73
     9
 74
     0
 42
0.000000001
 43
0.0000000001
 40
0.0
 40
0.0
 40
0.0
 40
0.0
 40
0.2623345764515441
 40
0.5037012280980749
 40
0.7095624578714328
 40
0.8670002209332414
 40
0.9660227721234635
 40
1.0
 40
1.0
 40
1.0
 40
1.0
 10
465.8590508566715
 20
309.7000850535974
 30
0.0
 10
465.8708828852934
 20
309.6482803447255
 30
0.0
 10
465.8917456486605
 20
309.548464640544
 30
0.0
 10
465.915999533906
 20
309.4068451405825
 30
0.0
 10
465.9330542881784
 20
309.2855637688381
 30
0.0
 10
465.9423778215588
 20
309.1924829024388
 30
0.0
 10
465.9484364893996
 20
309.1338772396762
 30
0.0
 10
465.9481548126578
 20
309.106948717357
 30
0.0
 10
465.9479698546113
 20
309.1000650529372
 30
0.0
  0
SPLINE
  5
41A
330
1F
100
AcDbEntity
  8
1
  6
CONTINUOUS
 62
     7
100
AcDbSpline
210
0.0
220
0.0
230
1.0
 70
     8
 71
     3
 72
    12
 73
     8
 74
     0
 42
0.000000001
 43
0.0000000001
 40
0.0
 40
0.0
 40
0.0
 40
0.0
 40
0.3040321797315447
 40
0.5792271003444922
 40
0.7994296202008135
 40
0.9437814012154212
 40
1.0
 40
1.0
 40
1.0
 40
1.0
 10
149.093352125262
 20
116.6667708481962
 30
0.0
 10
149.093352125262
 20
116.8907387502507
 30
0.0
 10
149.0907842821911
 20
117.3197816969541
 30
0.0
 10
149.0685410223622
 20
117.8994180146726
 30
0.0
 10
149.0558977657999
 20
118.3935744967281
 30
0.0
 10
148.999109771159
 20
118.6557461530152
 30
0.0
 10
149.0009666172958
 20
118.8550705227198
 30
0.0
 10
148.9611427173421
 20
118.8664357774497
 30
0.0
  0
SPLINE
  5
41B
330
1F
100
AcDbEntity
  8
1
  6
CONTINUOUS
 62
     9
100
AcDbSpline
210
0.0
220
0.0
230
1.0
 70
     8
 71
     3
 72
    14
 73
    10
 74
     0
 42
0.000000001
 43
0.0000000001
 40
0.0
 40
0.0
 40
0.0
 40
0.0
 40
0.2225819022462015
 40
0.4337792762355062
 40
0.6231896454095202
 40
0.7812805848900344
 40
0.9003817204560168
 40
0.9744588890037349
 40
1.0
 40
1.0
 40
1.0
 40
1.0
 10
181.0278536886514
 20
323.342165817113
 30
0.0
 10
181.3982006844249
 20
323.3489171003514
 30
0.0
 10
182.1205091624776
 20
323.3610414969602
 30
0.0
 10
183.1553103097345
 20
323.3718216835566
 30
0.0
 10
184.0918630025355
 20
323.3837239891903
 30
0.0
 10
184.8490943238987
 20
323.3695172120217
 30
0.0
 10
185.4804587050676
 20
323.4005780626651
 30
0.0
 10
185.758281248187
 20
323.3248510974348
 30
0.0
 10
186.015671773638
 20
323.3845738709947
 30
0.0
 10
186.0185276798513
 20
323.342165817113
 30
0.0
  0
SPLINE
  5
41C
330
1F
100
AcDbEntity
  8
1
  6
CONTINUOUS
 62
     7
100
AcDbSpline
210
0.0
220
0.0
230
1.0
 70
     8
 71
     3
 72
    12
 73
     8
 74
     0
 42
0.000000001
 43
0.0000000001
 40
0.0
 40
0.0
 40
0.0
 40
0.0
 40
0.1013454484683443
 40
0.2667506197210707
 40
0.4800774229219952
 40
0.7292065539481691
 40
1.0
 40
1.0
 40
1.0
 40
1.0
 10
235.258231733182
 20
112.9837878797429
 30
0.0
 10
235.2570292351155
 20
112.8676197908754
 30
0.0
 10
235.2226789466788
 20
112.563083746069
 30
0.0
 10
235.2158056848325
 20
112.0125129474835
 30
0.0
 10
235.1963677733906
 20
111.2931375363389
 30
0.0
 10
235.187536326009
 20
110.4525829185315
 30
0.0
 10
235.183833590803
 20
109.8566078694697
 30
0.0
 10
235.1830519360353
 20
109.5461929159829
 30
0.0
  0
SPLINE
  5
41D
330
1F
100
AcDbEntity
  8
1
  6
CONTINUOUS
 62
     7
100
AcDbSpline
210
0.0
220
0.0
230
1.0
 70
     8
 71
     3
 72
    14
 73
    10
 74
     0
 42
0.000000001
 43
0.0000000001
 40
0.0
 40
0.0
 40
0.0
 40
0.0
 40
0.0031143741823322
 40
0.0587169982089309
 40
0.1661886443847552
 40
0.3237072133335271
 40
0.5248305494381329
 40
0.7535613532343205
 40
1.0
 40
1.0
 40
1.0
 40
1.0
 10
462.1418761125881
 20
313.4647032344192
 30
0.0
 10
462.1420031480155
 20
313.4653755801654
 30
0.0
 10
462.1447392770156
 20
313.4775619371301
 30
0.0
 10
462.1955882124553
 20
313.4520168345356
 30
0.0
 10
462.2502806566041
 20
313.4545366019604
 30
0.0
 10
462.351157952024
 20
313.4263029059247
 30
0.0
 10
462.4683563726275
 20
313.3979416688275
 30
0.0
 10
462.6050105269859
 20
313.356272903799
 30
0.0
 10
462.6991720382586
 20
313.3242959852088
 30
0.0
 10
462.7477871969123
 20
313.3066095077893
 30
0.0
  0
SPLINE
  5
41E
330
1F
100
AcDbEntity
  8
1
  6
CONTINUOUS
 62
     7
100
AcDbSpline
210
0.0
220
0.0
230
1.0
 70
     8
 71
     3
 72
    17
 73
    13
 74
     0
 42
0.000000001
 43
0.0000000001
 40
0.0
 40
0.0
 40
0.0
 40
0.0
 40
0.108592000975188
 40
0.108592000975188
 40
0.108592000975188
 40
0.4999999999999801
 40
0.4999999999999801
 40
0.4999999999999801
 40
0.8914079990247723
 40
0.8914079990247723
 40
0.8914079990247723
 40
1.0
 40
1.0
 40
1.0
 40
1.0
 10
162.4239110025448
 20
299.8008309477798
 30
0.0
 10
162.4008403809637
 20
299.8075881769698
 30
0.0
 10
162.3777697593825
 20
299.8143454061599
 30
0.0
 10
162.3546991378014
 20
299.82110263535
 30
0.0
 10
162.2684232108252
 20
299.8291342661913
 30
0.0
 10
162.1821472838491
 20
299.8371658970325
 30
0.0
 10
162.0958713568729
 20
299.8451975278738
 30
0.0
 10
162.0095954298968
 20
299.8371658970325
 30
0.0
 10
161.9233195029207
 20
299.8291342661913
 30
0.0
 10
161.8370435759445
 20
299.82110263535
 30
0.0
 10
161.8139729543634
 20
299.8143454061599
 30
0.0
 10
161.7909023327822
 20
299.8075881769698
 30
0.0
 10
161.7678317112011
 20
299.8008309477798
 30
0.0
  0
SPLINE
  5
41F
330
1F
100
AcDbEntity
  8
1
  6
CONTINUOUS
 62
     7
100
AcDbSpline
210
0.0
220
0.0
230
1.0
 70
     8
 71
     3
 72
    14
 73
    10
 74
     0
 42
0.000000001
 43
0.0000000001
 40
0.0
 40
0.0
 40
0.0
 40
0.0
 40
0.2215098978474328
 40
0.4293682473409514
 40
0.6149152155083343
 40
0.7704177978724372
 40
0.8894531762132912
 40
0.966995025746254
 40
1.0
 40
1.0
 40
1.0
 40
1.0
 10
352.1165858920115
 20
223.8331360972323
 30
0.0
 10
352.1175946491828
 20
223.4325330082165
 30
0.0
 10
352.1214662797195
 20
222.6559510763396
 30
0.0
 10
352.1340962336484
 20
221.5442057393583
 30
0.0
 10
352.1500474799848
 20
220.5507817161849
 30
0.0
 10
352.1766062661675
 20
219.7214361139468
 30
0.0
 10
352.1905493579841
 20
219.0790667470627
 30
0.0
 10
352.2386431825217
 20
218.6766133361566
 30
0.0
 10
352.2346919018094
 20
218.463221302403
 30
0.0
 10
352.2664335069715
 20
218.4126706110322
 30
0.0
  0
SPLINE
  5
420
330
1F
100
AcDbEntity
  8
1
  6
CONTINUOUS
 62
     7
100
AcDbSpline
210
0.0
220
0.0
230
1.0
 70
     8
 71
     3
 72
    13
 73
     9
 74
     0
 42
0.000000001
 43
0.0000000001
 40
0.0
 40
0.0
 40
0.0
 40
0.0
 40
0.255767063700014
 40
0.4945323962049805
 40
0.7003692241405962
 40
0.8595938084902557
 40
0.9616399800083599
 40
1.0
 40
1.0
 40
1.0
 40
1.0
 10
222.5767366765714
 20
235.6626508379524
 30
0.0
 10
222.5767366765714
 20
235.9442107872866
 30
0.0
 10
222.5742027598789
 20
236.488010601699
 30
0.0
 10
222.5692498645278
 20
237.2614344463927
 30
0.0
 10
222.5480047469545
 20
237.9188927396816
 30
0.0
 10
222.5540994889067
 20
238.4509000595809
 30
0.0
 10
222.4948867484208
 20
238.7458150827557
 30
0.0
 10
222.5269688205741
 20
238.938726164085
 30
0.0
 10
222.4918312583716
 20
238.9621482318323
 30
0.0
  0
SPLINE
  5
421
330
1F
100
AcDbEntity
  8
1
  6
CONTINUOUS
 62
     7
100
AcDbSpline
210
0.0
220
0.0
230
1.0
 70
     8
 71
     3
 72
     9
 73
     5
 74
     0
 42
0.000000001
 43
0.0000000001
 40
0.0
 40
0.0
 40
0.0
 40
0.0
 40
0.1305205802922351
 40
1.0
 40
1.0
 40
1.0
 40
1.0
 10
235.2582317331821
 20
105.3428327205696
 30
0.0
 10
235.2583119014914
 20
105.3350880098954
 30
0.0
 10
235.2585657604433
 20
105.2761916420167
 30
0.0
 10
235.2555133991303
 20
105.2104792548611
 30
0.0
 10
235.2829503426221
 20
105.1667840336362
 30
0.0
  0
SPLINE
  5
422
330
1F
100
AcDbEntity
  8
1
  6
CONTINUOUS
 62
     7
100
AcDbSpline
210
0.0
220
0.0
230
1.0
 70
     8
 71
     3
 72
    14
 73
    10
 74
     0
 42
0.000000001
 43
0.0000000001
 40
0.0
 40
0.0
 40
0.0
 40
0.0
 40
0.2225819022138566
 40
0.4337792761842798
 40
0.6231896453307016
 40
0.7812805847881229
 40
0.9003817203367305
 40
0.9744588878566807
 40
1.0
 40
1.0
 40
1.0
 40
1.0
 10
485.1707018090622
 20
323.3421182810317
 30
0.0
 10
485.5410628465643
 20
323.3489322692794
 30
0.0
 10
486.2628553029587
 20
323.3604821140821
 30
0.0
 10
487.2999326444268
 20
323.3733153198671
 30
0.0
 10
488.2295906137895
 20
323.3789698064983
 30
0.0
 10
489.0064275551865
 20
323.3824056414508
 30
0.0
 10
489.5902494047621
 20
323.3706125369167
 30
0.0
 10
489.9555374254212
 20
323.3736804561967
 30
0.0
 10
490.1195658367885
 20
323.3492787309356
 30
0.0
 10
490.1615442414038
 20
323.3421182810317
 30
0.0
  0
SPLINE
  5
423
330
1F
100
AcDbEntity
  8
1
  6
CONTINUOUS
 62
     7
100
AcDbSpline
210
0.0
220
0.0
230
1.0
 70
     8
 71
     3
 72
    13
 73
     9
 74
     0
 42
0.000000001
 43
0.0000000001
 40
0.0
 40
0.0
 40
0.0
 40
0.0
 40
0.0566016224042748
 40
0.1656819318387124
 40
0.3238868582694189
 40
0.5215050713339623
 40
0.7506856134873019
 40
1.0
 40
1.0
 40
1.0
 40
1.0
 10
465.8602864966144
 20
307.5540383946725
 30
0.0
 10
465.8594980199662
 20
307.5423904998769
 30
0.0
 10
465.8562882266074
 20
307.5084337600877
 30
0.0
 10
465.8411423967926
 20
307.4433521244185
 30
0.0
 10
465.8205046605732
 20
307.3499869417803
 30
0.0
 10
465.7897888110889
 20
307.2335100146118
 30
0.0
 10
465.7505386796958
 20
307.0999863515134
 30
0.0
 10
465.7194690320633
 20
307.0065389276866
 30
0.0
 10
465.7024146667939
 20
306.9581180771368
 30
0.0
  0
SPLINE
  5
424
330
1F
100
AcDbEntity
  8
1
  6
CONTINUOUS
 62
     7
100
AcDbSpline
210
0.0
220
0.0
230
1.0
 70
     8
 71
     3
 72
    20
 73
    16
 74
     0
 42
0.000000001
 43
0.0000000001
 40
0.0
 40
0.0
 40
0.0
 40
0.0
 40
0.0410106637899089
 40
0.0928959897345597
 40
0.1629881036832114
 40
0.2489171131823442
 40
0.3459835484500942
 40
0.4517686005421915
 40
0.558714639356934
 40
0.6636789123377952
 40
0.7592427865230262
 40
0.8429950506047286
 40
0.9106986203522782
 40
0.9604130381764452
 40
1.0
 40
1.0
 40
1.0
 40
1.0
 10
360.5164335068114
 20
304.0830536216729
 30
0.0
 10
360.5164335068114
 20
304.0646705259875
 30
0.0
 10
360.4997453646567
 20
304.0228545983389
 30
0.0
 10
360.4392262000034
 20
303.9787091014292
 30
0.0
 10
360.3525020861191
 20
303.9438162575402
 30
0.0
 10
360.2418447406975
 20
303.9173818034291
 30
0.0
 10
360.1136918207717
 20
303.8985795331405
 30
0.0
 10
359.9752059809354
 20
303.8871938523815
 30
0.0
 10
359.832808420289
 20
303.8829541057836
 30
0.0
 10
359.694929150397
 20
303.8860793002754
 30
0.0
 10
359.5679105151094
 20
303.8971302642748
 30
0.0
 10
359.4585641164108
 20
303.9166988192868
 30
0.0
 10
359.373001488459
 20
303.9458378205903
 30
0.0
 10
359.3126259901719
 20
303.9860300667909
 30
0.0
 10
359.2964335033314
 20
304.0264453564728
 30
0.0
 10
359.2964335033314
 20
304.0441902754731
 30
0.0
  0
SPLINE
  5
425
330
1F
100
AcDbEntity
  8
1
  6
CONTINUOUS
 62
     7
100
AcDbSpline
210
0.0
220
0.0
230
1.0
 70
     8
 71
     3
 72
    20
 73
    16
 74
     0
 42
0.000000001
 43
0.0000000001
 40
0.0
 40
0.0
 40
0.0
 40
0.0
 40
0.0376695667665271
 40
0.0861018704432707
 40
0.1517061695659162
 40
0.2349173966684165
 40
0.3312155427845068
 40
0.4378050113795955
 40
0.5466756969534198
 40
0.6543011426665744
 40
0.7529835423944773
 40
0.8392467747895415
 40
0.9084833514617888
 40
0.9602674112046671
 40
1.0
 40
1.0
 40
1.0
 40
1.0
 10
356.9164335033713
 20
229.2436198507924
 30
0.0
 10
356.9164335033713
 20
229.2600831261842
 30
0.0
 10
356.9332526871083
 20
229.2978515328807
 30
0.0
 10
356.9921669139782
 20
229.3323842285706
 30
0.0
 10
357.0747467231105
 20
229.3573509568411
 30
0.0
 10
357.1810553408111
 20
229.3732300364258
 30
0.0
 10
357.3058789119751
 20
229.3811996487833
 30
0.0
 10
357.4422146693868
 20
229.3816511602819
 30
0.0
 10
357.5833135141912
 20
229.3752152551922
 30
0.0
 10
357.7205268134217
 20
229.3622480132858
 30
0.0
 10
357.8469407475877
 20
229.3426383557216
 30
0.0
 10
357.9552302313274
 20
229.3165427125361
 30
0.0
 10
358.0396575413273
 20
229.2831499093715
 30
0.0
 10
358.0989207695869
 20
229.2426114198942
 30
0.0
 10
358.1164335062115
 20
229.2027880600887
 30
0.0
 10
358.1164335062115
 20
229.1854231523523
 30
0.0
  0
SPLINE
  5
426
330
1F
100
AcDbEntity
  8
1
  6
CONTINUOUS
 62
     7
100
AcDbSpline
210
0.0
220
0.0
230
1.0
 70
     8
 71
     3
 72
    14
 73
    10
 74
     0
 42
0.000000001
 43
0.0000000001
 40
0.0
 40
0.0
 40
0.0
 40
0.0
 40
0.2653427238001863
 40
0.5090771119866929
 40
0.7172797628559308
 40
0.871516320608706
 40
0.9670522070352988
 40
0.9998751386325724
 40
1.0
 40
1.0
 40
1.0
 40
1.0
 10
459.3276717651131
 20
313.3066095077893
 30
0.0
 10
459.3802401102597
 20
313.3257406769596
 30
0.0
 10
459.4815292861936
 20
313.3599834525833
 30
0.0
 10
459.6275605069121
 20
313.4036755587048
 30
0.0
 10
459.7484891966051
 20
313.4323183889143
 30
0.0
 10
459.8499152773602
 20
313.4587363594339
 30
0.0
 10
459.8958351725934
 20
313.4571607791253
 30
0.0
 10
459.9364366422562
 20
313.472198062844
 30
0.0
 10
459.9376964084238
 20
313.4653655847433
 30
0.0
 10
459.9377011259895
 20
313.4653396224172
 30
0.0
  0
SPLINE
  5
427
330
1F
100
AcDbEntity
  8
1
  6
CONTINUOUS
 62
     7
100
AcDbSpline
210
0.0
220
0.0
230
1.0
 70
     8
 71
     3
 72
    19
 73
    15
 74
     0
 42
0.000000001
 43
0.0000000001
 40
0.0
 40
0.0
 40
0.0
 40
0.0
 40
0.0307916837892209
 40
0.0826582518341459
 40
0.1598512116738167
 40
0.259079413232254
 40
0.3744508776511987
 40
0.4983728188390046
 40
0.6223672933701976
 40
0.7381408707160818
 40
0.8379865182905972
 40
0.9159651142667904
 40
0.9686364254644544
 40
1.0
 40
1.0
 40
1.0
 40
1.0
 10
241.5696170208087
 20
112.3774160707297
 30
0.0
 10
241.5696170208087
 20
112.3859836659282
 30
0.0
 10
241.5872357911467
 20
112.4062740357219
 30
0.0
 10
241.6299986170968
 20
112.4180720077728
 30
0.0
 10
241.6927660459499
 20
112.4290932711697
 30
0.0
 10
241.7738240383955
 20
112.4345928421288
 30
0.0
 10
241.8679853110827
 20
112.4373354222768
 30
0.0
 10
241.9690818446754
 20
112.4371014853612
 30
0.0
 10
242.0702545326774
 20
112.4345165379653
 30
0.0
 10
242.1646147368203
 20
112.4291520777099
 30
0.0
 10
242.245966346833
 20
112.4213392125552
 30
0.0
 10
242.309072561974
 20
112.4085592871011
 30
0.0
 10
242.3519600832351
 20
112.3953483510646
 30
0.0
 10
242.3696170227021
 20
112.3746702070377
 30
0.0
 10
242.3696170227021
 20
112.365943486783
 30
0.0
  0
SPLINE
  5
428
330
1F
100
AcDbEntity
  8
1
  6
CONTINUOUS
 62
     7
100
AcDbSpline
210
0.0
220
0.0
230
1.0
 70
     8
 71
     3
 72
    20
 73
    16
 74
     0
 42
0.000000001
 43
0.0000000001
 40
0.0
 40
0.0
 40
0.0
 40
0.0
 40
0.0397325923758591
 40
0.0915166496303145
 40
0.1607532262191962
 40
0.2470164585106628
 40
0.3456988581199493
 40
0.4533243037037021
 40
0.5621949891466594
 40
0.6687844576136253
 40
0.7650826036139844
 40
0.8482938306164051
 40
0.913898129660194
 40
0.962330433278772
 40
1.0
 40
1.0
 40
1.0
 40
1.0
 10
358.1164335062115
 20
219.6294968794321
 30
0.0
 10
358.1164335062115
 20
219.61213197011
 30
0.0
 10
358.0989207730422
 20
219.5723086075816
 30
0.0
 10
358.0396575387634
 20
219.5317701236187
 30
0.0
 10
357.9552302319266
 20
219.4983773186414
 30
0.0
 10
357.8469407473851
 20
219.472281676268
 30
0.0
 10
357.720526813485
 20
219.4526720184346
 30
0.0
 10
357.5833135141734
 20
219.4397047766107
 30
0.0
 10
357.4422146693914
 20
219.4332688714985
 30
0.0
 10
357.305878911974
 20
219.4337203830019
 30
0.0
 10
357.1810553408113
 20
219.4416899953591
 30
0.0
 10
357.0747467231105
 20
219.4575690749431
 30
0.0
 10
356.9921669139782
 20
219.4825358032136
 30
0.0
 10
356.9332526871082
 20
219.5170684989038
 30
0.0
 10
356.9164335033713
 20
219.5548369056002
 30
0.0
 10
356.9164335033713
 20
219.5713001809921
 30
0.0
  0
SPLINE
  5
429
330
1F
100
AcDbEntity
  8
1
  6
CONTINUOUS
 62
     7
100
AcDbSpline
210
0.0
220
0.0
230
1.0
 70
     8
 71
     3
 72
    13
 73
     9
 74
     0
 42
0.000000001
 43
0.0000000001
 40
0.0
 40
0.0
 40
0.0
 40
0.0
 40
0.040771163328078
 40
0.1433873437073859
 40
0.3025010606280231
 40
0.5077196951744901
 40
0.7454596578931502
 40
1.0
 40
1.0
 40
1.0
 40
1.0
 10
222.7928964423716
 20
209.8527717999521
 30
0.0
 10
222.836228235508
 20
209.8651381645531
 30
0.0
 10
222.8483514475533
 20
210.0734288781779
 30
0.0
 10
222.9097836239014
 20
210.3597364773271
 30
0.0
 10
222.9360400440992
 20
210.8981989655087
 30
0.0
 10
222.9695815659159
 20
211.5537098772886
 30
0.0
 10
222.9866593745407
 20
212.3276321281168
 30
0.0
 10
222.9912105542513
 20
212.8709414011933
 30
0.0
 10
222.9912105542513
 20
213.1522691938324
 30
0.0
  0
SPLINE
  5
42A
330
1F
100
AcDbEntity
  8
1
  6
CONTINUOUS
 62
     7
100
AcDbSpline
210
0.0
220
0.0
230
1.0
 70
     8
 71
     3
 72
     9
 73
     5
 74
     0
 42
0.000000001
 43
0.0000000001
 40
0.0
 40
0.0
 40
0.0
 40
0.0
 40
0.8694794031671588
 40
1.0
 40
1.0
 40
1.0
 40
1.0
 10
235.2829503426221
 20
113.1598365700629
 30
0.0
 10
235.2555133991303
 20
113.1161413488381
 30
0.0
 10
235.2585657604301
 20
113.0504289604889
 30
0.0
 10
235.2583119015031
 20
112.9915325915459
 30
0.0
 10
235.258231733182
 20
112.9837878797429
 30
0.0
  0
SPLINE
  5
42B
330
1F
100
AcDbEntity
  8
1
  6
CONTINUOUS
 62
     7
100
AcDbSpline
210
0.0
220
0.0
230
1.0
 70
     8
 71
     3
 72
    14
 73
    10
 74
     0
 42
0.000000001
 43
0.0000000001
 40
0.0
 40
0.0
 40
0.0
 40
0.0
 40
0.0031143741758429
 40
0.0587169980842587
 40
0.1661886440292328
 40
0.3237072126417034
 40
0.524830540502412
 40
0.7535613461228383
 40
1.0
 40
1.0
 40
1.0
 40
1.0
 10
459.9335828494375
 20
303.7353926208974
 30
0.0
 10
459.93345581401
 20
303.734720275151
 30
0.0
 10
459.9307196850096
 20
303.7225339181861
 30
0.0
 10
459.8798707495699
 20
303.7480790207799
 30
0.0
 10
459.8251783054255
 20
303.7455592533624
 30
0.0
 10
459.7243010116637
 20
303.7737929488808
 30
0.0
 10
459.6071025921161
 20
303.8021541860994
 30
0.0
 10
459.4704484396051
 20
303.8438229587352
 30
0.0
 10
459.3762869257995
 20
303.8757998762849
 30
0.0
 10
459.3276717651131
 20
303.8934863526075
 30
0.0
  0
SPLINE
  5
42C
330
1F
100
AcDbEntity
  8
1
  6
CONTINUOUS
 62
     7
100
AcDbSpline
210
0.0
220
0.0
230
1.0
 70
     8
 71
     3
 72
    14
 73
    10
 74
     0
 42
0.000000001
 43
0.0000000001
 40
0.0
 40
0.0
 40
0.0
 40
0.0
 40
0.247774958645825
 40
0.4753226692810458
 40
0.6715131559641301
 40
0.8288978204170154
 40
0.9377428031377468
 40
0.9947726223050508
 40
1.0
 40
1.0
 40
1.0
 40
1.0
 10
456.2014064200064
 20
306.9581180771368
 30
0.0
 10
456.1850150496034
 20
307.0062965922702
 30
0.0
 10
456.155785971025
 20
307.0991487939764
 30
0.0
 10
456.1188066812325
 20
307.2328034575877
 30
0.0
 10
456.0941614465953
 20
307.3472405045689
 30
0.0
 10
456.0710316469923
 20
307.4453877760305
 30
0.0
 10
456.0738340600907
 20
307.5006397094465
 30
0.0
 10
456.0538345215576
 20
307.5509611827802
 30
0.0
 10
456.0664843398237
 20
307.5540225720994
 30
0.0
 10
456.067609903728
 20
307.5542332141677
 30
0.0
  0
SPLINE
  5
42D
330
1F
100
AcDbEntity
  8
1
  6
CONTINUOUS
 62
     9
100
AcDbSpline
210
0.0
220
0.0
230
1.0
 70
     8
 71
     3
 72
    14
 73
    10
 74
     0
 42
0.000000001
 43
0.0000000001
 40
0.0
 40
0.0
 40
0.0
 40
0.0
 40
0.2225884853204784
 40
0.4337808036877582
 40
0.6231954592277662
 40
0.7812852017625522
 40
0.9003823955121949
 40
0.9744603494784378
 40
1.0
 40
1.0
 40
1.0
 40
1.0
 10
228.1342756656114
 20
294.1590201957131
 30
0.0
 10
227.7639177847448
 20
294.1522642738544
 30
0.0
 10
227.041606242507
 20
294.1401473534351
 30
0.0
 10
226.006796849314
 20
294.1293662617501
 30
0.0
 10
225.0702428238981
 20
294.1174619327979
 30
0.0
 10
224.3130254226561
 20
294.1316691728605
 30
0.0
 10
223.6816388301531
 20
294.1006058776269
 30
0.0
 10
223.4038795424813
 20
294.1763348134591
 30
0.0
 10
223.1464323623043
 20
294.1166128854666
 30
0.0
 10
223.1436016744111
 20
294.1590201957131
 30
0.0
  0
SPLINE
  5
42E
330
1F
100
AcDbEntity
  8
1
  6
CONTINUOUS
 62
     9
100
AcDbSpline
210
0.0
220
0.0
230
1.0
 70
     8
 71
     3
 72
    14
 73
    10
 74
     0
 42
0.000000001
 43
0.0000000001
 40
0.0
 40
0.0
 40
0.0
 40
0.0
 40
0.0255411120040935
 40
0.0996182795357951
 40
0.2187194151034356
 40
0.37681035458617
 40
0.5662207237628161
 40
0.7774180977670534
 40
1.0
 40
1.0
 40
1.0
 40
1.0
 10
351.3892653349715
 20
294.1590201957131
 30
0.0
 10
351.3864094283872
 20
294.1166121401761
 30
0.0
 10
351.1290189026556
 20
294.1763349158892
 30
0.0
 10
350.8511963580039
 20
294.1006079497058
 30
0.0
 10
350.2198319791715
 20
294.1316688009512
 30
0.0
 10
349.4626006576066
 20
294.1174620240643
 30
0.0
 10
348.5260479648201
 20
294.1293643268542
 30
0.0
 10
347.4912468177194
 20
294.1401445263161
 30
0.0
 10
346.7689383394766
 20
294.1522689102146
 30
0.0
 10
346.3985913437716
 20
294.1590201957131
 30
0.0
  0
SPLINE
  5
42F
330
1F
100
AcDbEntity
  8
1
  6
CONTINUOUS
 62
     7
100
AcDbSpline
210
0.0
220
0.0
230
1.0
 70
     8
 71
     3
 72
    10
 73
     6
 74
     0
 42
0.000000001
 43
0.0000000001
 40
0.0
 40
0.0
 40
0.0
 40
0.0
 40
0.0494173837045249
 40
0.9316929375184189
 40
1.0
 40
1.0
 40
1.0
 40
1.0
 10
462.1418761125881
 20
313.4647032344192
 30
0.0
 10
462.1420031480155
 20
313.4653755801654
 30
0.0
 10
462.1446510786996
 20
313.4775983660119
 30
0.0
 10
462.1674088050465
 20
313.4664759514563
 30
0.0
 10
462.1788479291754
 20
313.4624389195935
 30
0.0
 10
462.1796906329894
 20
313.4621078916663
 30
0.0
  0
SPLINE
  5
430
330
1F
100
AcDbEntity
  8
1
  6
CONTINUOUS
 62
     7
100
AcDbSpline
210
0.0
220
0.0
230
1.0
 70
     8
 71
     3
 72
    14
 73
    10
 74
     0
 42
0.000000001
 43
0.0000000001
 40
0.0
 40
0.0
 40
0.0
 40
0.0
 40
0.1251330690701432
 40
0.2672311104948778
 40
0.4216404660120629
 40
0.5783595339878069
 40
0.7327688899126605
 40
0.8748669313373951
 40
1.0
 40
1.0
 40
1.0
 40
1.0
 10
235.1739702303819
 20
113.3166983577694
 30
0.0
 10
235.165243537054
 20
112.9702974014872
 30
0.0
 10
235.1509429945511
 20
112.2304227743378
 30
0.0
 10
235.1370291084777
 20
111.0629178054983
 30
0.0
 10
235.1299185956212
 20
109.8078828655463
 30
0.0
 10
235.1299185956291
 20
108.5187377370241
 30
0.0
 10
235.137029108471
 20
107.2637027959432
 30
0.0
 10
235.1509429945008
 20
106.0961978271024
 30
0.0
 10
235.1652435370825
 20
105.3563232010835
 30
0.0
 10
235.1739702303819
 20
105.0099222459294
 30
0.0
  0
SPLINE
  5
431
330
1F
100
AcDbEntity
  8
1
  6
CONTINUOUS
 62
     7
100
AcDbSpline
210
0.0
220
0.0
230
1.0
 70
     8
 71
     3
 72
    17
 73
    13
 74
     0
 42
0.000000001
 43
0.0000000001
 40
0.0
 40
0.0
 40
0.0
 40
0.0
 40
0.1085920001777125
 40
0.1085920001777125
 40
0.1085920001777125
 40
0.4999999963295532
 40
0.4999999963295532
 40
0.4999999963295532
 40
0.8914079924810103
 40
0.8914079924810103
 40
0.8914079924810103
 40
1.0
 40
1.0
 40
1.0
 40
1.0
 10
152.0235599927414
 20
299.8008309477798
 30
0.0
 10
152.0004893711603
 20
299.8075881769698
 30
0.0
 10
151.9774187495792
 20
299.8143454061599
 30
0.0
 10
151.9543481279981
 20
299.82110263535
 30
0.0
 10
151.8680722010219
 20
299.8291342661913
 30
0.0
 10
151.7817962740457
 20
299.8371658970325
 30
0.0
 10
151.6955203470695
 20
299.8451975278738
 30
0.0
 10
151.6092444200934
 20
299.8371658970325
 30
0.0
 10
151.5229684931172
 20
299.8291342661913
 30
0.0
 10
151.4366925661411
 20
299.82110263535
 30
0.0
 10
151.4136219428665
 20
299.8143454061599
 30
0.0
 10
151.390551319592
 20
299.8075881769698
 30
0.0
 10
151.3674806963174
 20
299.8008309477798
 30
0.0
  0
SPLINE
  5
432
330
1F
100
AcDbEntity
  8
1
  6
CONTINUOUS
 62
     7
100
AcDbSpline
210
0.0
220
0.0
230
1.0
 70
     8
 71
     3
 72
    27
 73
    23
 74
     0
 42
0.000000001
 43
0.0000000001
 40
0.0
 40
0.0
 40
0.0
 40
0.0
 40
0.0441211077463076
 40
0.0866647815598637
 40
0.1277903548995887
 40
0.1683194709570555
 40
0.2098953140119838
 40
0.2550714004238547
 40
0.3059351965689063
 40
0.3636965375192419
 40
0.4282722786338307
 40
0.4962330655174646
 40
0.5640895999966564
 40
0.6290017797942369
 40
0.6876536529833646
 40
0.7397025056923137
 40
0.7862011778257488
 40
0.8288842646941287
 40
0.870299579295779
 40
0.9120895382721617
 40
0.9552207716800639
 40
1.0
 40
1.0
 40
1.0
 40
1.0
 10
362.8964335067715
 20
225.5494969418722
 30
0.0
 10
362.8964335067715
 20
225.577272278885
 30
0.0
 10
362.8946150962204
 20
225.6318630266757
 30
0.0
 10
362.8846819131048
 20
225.7118335251822
 30
0.0
 10
362.8659641512739
 20
225.7879798704768
 30
0.0
 10
362.8363522216893
 20
225.8600596103008
 30
0.0
 10
362.7927439418373
 20
225.9278883363159
 30
0.0
 10
362.7313170503181
 20
225.9899331126812
 30
0.0
 10
362.6493946704302
 20
226.0428707935386
 30
0.0
 10
362.547435643909
 20
226.0831739403532
 30
0.0
 10
362.4298404947148
 20
226.1083351281451
 30
0.0
 10
362.3036473491771
 20
226.1173747484288
 30
0.0
 10
362.1771329770182
 20
226.1101658893374
 30
0.0
 10
362.0584474922769
 20
226.0869018252753
 30
0.0
 10
361.9542490325802
 20
226.0482495035595
 30
0.0
 10
361.8692507006958
 20
225.9961632114324
 30
0.0
 10
361.8048049503162
 20
225.9338653510045
 30
0.0
 10
361.758946730389
 20
225.8649538425655
 30
0.0
 10
361.7279922236311
 20
225.7915860340373
 30
0.0
 10
361.7085660048334
 20
225.714212394773
 30
0.0
 10
361.6983050842359
 20
225.6330632996667
 30
0.0
 10
361.6964335039313
 20
225.5776865821892
 30
0.0
 10
361.6964335039313
 20
225.5494969418721
 30
0.0
  0
SPLINE
  5
433
330
1F
100
AcDbEntity
  8
1
  6
CONTINUOUS
 62
     7
100
AcDbSpline
210
0.0
220
0.0
230
1.0
 70
     8
 71
     3
 72
    11
 73
     7
 74
     0
 42
0.000000001
 43
0.0000000001
 40
0.0
 40
0.0
 40
0.0
 40
0.0
 40
0.1662520842169728
 40
0.3953799535417702
 40
0.6774213542939398
 40
1.0
 40
1.0
 40
1.0
 40
1.0
 10
352.0829456443313
 20
232.7983024289923
 30
0.0
 10
352.0376325046753
 20
232.5113460605029
 30
0.0
 10
351.9639822328996
 20
231.8238109780452
 30
0.0
 10
351.8794533561376
 20
230.6431273485017
 30
0.0
 10
351.8108943903835
 20
229.1876642640087
 30
0.0
 10
351.7793637406908
 20
228.1315816855184
 30
0.0
 10
351.7664335062116
 20
227.5680499989924
 30
0.0
  0
SPLINE
  5
434
330
1F
100
AcDbEntity
  8
1
  6
CONTINUOUS
 62
     7
100
AcDbSpline
210
0.0
220
0.0
230
1.0
 70
     8
 71
     3
 72
    15
 73
    11
 74
     0
 42
0.000000001
 43
0.0000000001
 40
0.0
 40
0.0
 40
0.0
 40
0.0
 40
0.0227006233094646
 40
0.0817400821275675
 40
0.1751850879236941
 40
0.2995792551108205
 40
0.4502734125722512
 40
0.6216185237276075
 40
0.8071843043416106
 40
1.0
 40
1.0
 40
1.0
 40
1.0
 10
148.7639302762753
 20
99.4601848262495
 30
0.0
 10
148.7777936389235
 20
99.46942589477483
 30
0.0
 10
148.7703040570512
 20
99.54329468486873
 30
0.0
 10
148.7929013078183
 20
99.65898317911663
 30
0.0
 10
148.7947087457032
 20
99.86869214629765
 30
0.0
 10
148.8057781910274
 20
100.1363034821754
 30
0.0
 10
148.8114415122125
 20
100.4648849158356
 30
0.0
 10
148.8168165190339
 20
100.837085074619
 30
0.0
 10
148.8198133922762
 20
101.2406446906047
 30
0.0
 10
148.8205338884086
 20
101.5183333972533
 30
0.0
 10
148.8205338884086
 20
101.6598497555027
 30
0.0
  0
SPLINE
  5
435
330
1F
100
AcDbEntity
  8
1
  6
CONTINUOUS
 62
     9
100
AcDbSpline
210
0.0
220
0.0
230
1.0
 70
     8
 71
     3
 72
    14
 73
    10
 74
     0
 42
0.000000001
 43
0.0000000001
 40
0.0
 40
0.0
 40
0.0
 40
0.0
 40
0.0255411109963797
 40
0.0996182795444201
 40
0.2187194151109273
 40
0.3768103545921369
 40
0.5662207237669842
 40
0.777418097769281
 40
1.0
 40
1.0
 40
1.0
 40
1.0
 10
186.0185276798513
 20
294.1590201957132
 30
0.0
 10
186.0156717733797
 20
294.1166121418489
 30
0.0
 10
185.7582812485452
 20
294.1763349153661
 30
0.0
 10
185.4804587048485
 20
294.1006079501904
 30
0.0
 10
184.8490943239923
 20
294.1316688007028
 30
0.0
 10
184.0918630025079
 20
294.1174620241551
 30
0.0
 10
183.1553103096928
 20
294.1293643268255
 30
0.0
 10
182.1205091626013
 20
294.1401445263252
 30
0.0
 10
181.3982006843563
 20
294.1522689102146
 30
0.0
 10
181.0278536886514
 20
294.1590201957131
 30
0.0
  0
SPLINE
  5
436
330
1F
100
AcDbEntity
  8
1
  6
CONTINUOUS
 62
     7
100
AcDbSpline
210
0.0
220
0.0
230
1.0
 70
     8
 71
     3
 72
     9
 73
     5
 74
     0
 42
0.000000001
 43
0.0000000001
 40
0.0
 40
0.0
 40
0.0
 40
0.0
 40
0.8797737286692813
 40
1.0
 40
1.0
 40
1.0
 40
1.0
 10
459.8957683290357
 20
303.7379879687305
 30
0.0
 10
459.8745471353274
 20
303.7425112739984
 30
0.0
 10
459.8502797304615
 20
303.746659084342
 30
0.0
 10
459.8258461353444
 20
303.7496774778278
 30
0.0
 10
459.8229061731352
 20
303.7500240430284
 30
0.0
  0
SPLINE
  5
437
330
1F
100
AcDbEntity
  8
1
  6
CONTINUOUS
 62
     7
100
AcDbSpline
210
0.0
220
0.0
230
1.0
 70
     8
 71
     3
 72
    12
 73
     8
 74
     0
 42
0.000000001
 43
0.0000000001
 40
0.0
 40
0.0
 40
0.0
 40
0.0
 40
0.2707934457857352
 40
0.5199225765671017
 40
0.7332493795584992
 40
0.8986545506486899
 40
1.0
 40
1.0
 40
1.0
 40
1.0
 10
235.1830519360353
 20
108.7804276877163
 30
0.0
 10
235.183833590803
 20
108.4700127342295
 30
0.0
 10
235.1875363259991
 20
107.874037685167
 30
0.0
 10
235.1963677734207
 20
107.033483067362
 30
0.0
 10
235.215805684747
 20
106.3141076562101
 30
0.0
 10
235.2226789468958
 20
105.7635368565157
 30
0.0
 10
235.2570292351039
 20
105.4590008105634
 30
0.0
 10
235.258231733182
 20
105.3428327205696
 30
0.0
  0
SPLINE
  5
438
330
1F
100
AcDbEntity
  8
1
  6
CONTINUOUS
 62
     7
100
AcDbSpline
210
0.0
220
0.0
230
1.0
 70
     8
 71
     3
 72
    14
 73
    10
 74
     0
 42
0.000000001
 43
0.0000000001
 40
0.0
 40
0.0
 40
0.0
 40
0.0
 40
0.2225884852910492
 40
0.4337808036302264
 40
0.6231954591451822
 40
0.7812852016589835
 40
0.9003823953819919
 40
0.9744603493383581
 40
1.0
 40
1.0
 40
1.0
 40
1.0
 10
436.9047571529629
 20
294.1579876990789
 30
0.0
 10
436.5343851415283
 20
294.1511739264575
 30
0.0
 10
435.8125901096038
 20
294.1396245872534
 30
0.0
 10
434.7755030354942
 20
294.1267930627355
 30
0.0
 10
433.8458483445623
 20
294.1211362942713
 30
0.0
 10
433.0690127409522
 20
294.1177004382977
 30
0.0
 10
432.4851982219129
 20
294.129491641378
 30
0.0
 10
432.119917610891
 20
294.1264232674718
 30
0.0
 10
431.9558906310574
 20
294.1508270474885
 30
0.0
 10
431.9139147206213
 20
294.1579876990789
 30
0.0
  0
SPLINE
  5
439
330
1F
100
AcDbEntity
  8
1
  6
CONTINUOUS
 62
     7
100
AcDbSpline
210
0.0
220
0.0
230
1.0
 70
     8
 71
     3
 72
    12
 73
     8
 74
     0
 42
0.000000001
 43
0.0000000001
 40
0.0
 40
0.0
 40
0.0
 40
0.0
 40
0.0562183849484768
 40
0.2005701941571383
 40
0.4207732215673556
 40
0.6959684907645625
 40
1.0
 40
1.0
 40
1.0
 40
1.0
 10
148.9611427173421
 20
99.4601848262495
 30
0.0
 10
149.0009664659013
 20
99.47155003781862
 30
0.0
 10
148.9991097873457
 20
99.67087413600184
 30
0.0
 10
149.0558977721279
 20
99.93304600217816
 30
0.0
 10
149.0685410522766
 20
100.4272031947371
 30
0.0
 10
149.0907842895828
 20
101.0068396407107
 30
0.0
 10
149.093352125262
 20
101.4358823468473
 30
0.0
 10
149.093352125262
 20
101.6598497555027
 30
0.0
  0
SPLINE
  5
43A
330
1F
100
AcDbEntity
  8
1
  6
CONTINUOUS
 62
     7
100
AcDbSpline
210
0.0
220
0.0
230
1.0
 70
     8
 71
     3
 72
    15
 73
    11
 74
     0
 42
0.000000001
 43
0.0000000001
 40
0.0
 40
0.0
 40
0.0
 40
0.0
 40
0.1928186989078329
 40
0.378390454837222
 40
0.5497403873129318
 40
0.7004345836346131
 40
0.824824244374563
 40
0.9182637499249179
 40
0.9773000210768714
 40
1.0
 40
1.0
 40
1.0
 40
1.0
 10
148.8205338884089
 20
116.6667708481962
 30
0.0
 10
148.8205338884089
 20
116.8082894111874
 30
0.0
 10
148.8198133634816
 20
117.085984707625
 30
0.0
 10
148.8168163537003
 20
117.4895544584634
 30
0.0
 10
148.8114410711735
 20
117.861762553354
 30
0.0
 10
148.8057775117275
 20
118.1903442538205
 30
0.0
 10
148.7947081238494
 20
118.457948365818
 30
0.0
 10
148.7929003198155
 20
118.667647224513
 30
0.0
 10
148.7703042569055
 20
118.7833296600229
 30
0.0
 10
148.7777932454488
 20
118.857194971216
 30
0.0
 10
148.7639302762753
 20
118.8664357774497
 30
0.0
  0
SPLINE
  5
43B
330
1F
100
AcDbEntity
  8
1
  6
CONTINUOUS
 62
     7
100
AcDbSpline
210
0.0
220
0.0
230
1.0
 70
     8
 71
     3
 72
    25
 73
    21
 74
     0
 42
0.000000001
 43
0.0000000001
 40
0.0
 40
0.0
 40
0.0
 40
0.0
 40
0.0353904407986327
 40
0.0697594225706108
 40
0.1047790710851731
 40
0.142664984291788
 40
0.1868533928028669
 40
0.2417321778447415
 40
0.3121047777018431
 40
0.4001185170096014
 40
0.4988955508039902
 40
0.5978225444795954
 40
0.6864665775557383
 40
0.7574905544695064
 40
0.8127611100964075
 40
0.8571639867297254
 40
0.8951105060282781
 40
0.9301495156782437
 40
0.9645553915532695
 40
1.0
 40
1.0
 40
1.0
 40
1.0
 10
239.1829503556621
 20
110.2768631742229
 30
0.0
 10
239.1829503556621
 20
110.2882711602584
 30
0.0
 10
239.180721071746
 20
110.3108773351749
 30
0.0
 10
239.1688267121822
 20
110.3429371465623
 30
0.0
 10
239.1479257984469
 20
110.3710432079647
 30
0.0
 10
239.1181459835855
 20
110.3947754484078
 30
0.0
 10
239.0785137369959
 20
110.4147465248071
 30
0.0
 10
239.0263138175166
 20
110.4313838900108
 30
0.0
 10
238.9586650311131
 20
110.4442826314503
 30
0.0
 10
238.8760877091826
 20
110.452442722301
 30
0.0
 10
238.7839718416535
 20
110.4552567810097
 30
0.0
 10
238.691649476175
 20
110.4525595346387
 30
0.0
 10
238.6086001833761
 20
110.4444838821252
 30
0.0
 10
238.5403984499014
 20
110.4315992135837
 30
0.0
 10
238.487784986875
 20
110.414918734211
 30
0.0
 10
238.4479345314554
 20
110.3948979710143
 30
0.0
 10
238.4180585548469
 20
110.3711323806507
 30
0.0
 10
238.3971120453183
 20
110.343012548679
 30
0.0
 10
238.3851860337119
 20
110.3109248282359
 30
0.0
 10
238.3829503537685
 20
110.2882886210122
 30
0.0
 10
238.3829503537685
 20
110.2768631742229
 30
0.0
  0
SPLINE
  5
43C
330
1F
100
AcDbEntity
  8
1
  6
CONTINUOUS
 62
     7
100
AcDbSpline
210
0.0
220
0.0
230
1.0
 70
     8
 71
     3
 72
     9
 73
     5
 74
     0
 42
0.000000001
 43
0.0000000001
 40
0.0
 40
0.0
 40
0.0
 40
0.0
 40
0.2775101659311606
 40
1.0
 40
1.0
 40
1.0
 40
1.0
 10
222.4865323662514
 20
212.8523148839124
 30
0.0
 10
222.4982088881702
 20
212.8600982436224
 30
0.0
 10
222.4803206626309
 20
212.9246191646143
 30
0.0
 10
222.4899861597214
 20
212.967410984771
 30
0.0
 10
222.4932215781715
 20
213.0038016573924
 30
0.0
  0
SPLINE
  5
43D
330
1F
100
AcDbEntity
  8
1
  6
CONTINUOUS
 62
     7
100
AcDbSpline
210
0.0
220
0.0
230
1.0
 70
     8
 71
     3
 72
    19
 73
    15
 74
     0
 42
0.000000001
 43
0.0000000001
 40
0.0
 40
0.0
 40
0.0
 40
0.0
 40
0.031393232630321
 40
0.0848114615170259
 40
0.1636878728599484
 40
0.2643240162075952
 40
0.3807086765614539
 40
0.5050522138421474
 40
0.6292004858417328
 40
0.7444319122419248
 40
0.8432011814805055
 40
0.9196146422644357
 40
0.97046201354775
 40
1.0
 40
1.0
 40
1.0
 40
1.0
 10
239.1829503556621
 20
105.8759822122229
 30
0.0
 10
239.1829503556621
 20
105.8672569371984
 30
0.0
 10
239.1649376167693
 20
105.8466291645796
 30
0.0
 10
239.122204824881
 20
105.8324015972344
 30
0.0
 10
239.0587424771985
 20
105.8178860881285
 30
0.0
 10
238.9771587283032
 20
105.807647272182
 30
0.0
 10
238.8826095316354
 20
105.7993850997962
 30
0.0
 10
238.7813565109959
 20
105.7936129049562
 30
0.0
 10
238.6803104578729
 20
105.7901221770551
 30
0.0
 10
238.5863189847652
 20
105.7897750378167
 30
0.0
 10
238.5055968792788
 20
105.7924228961969
 30
0.0
 10
238.4431693670846
 20
105.8011969851394
 30
0.0
 10
238.4008515184359
 20
105.8108054599553
 30
0.0
 10
238.3829503537685
 20
105.8301649995823
 30
0.0
 10
238.3829503537685
 20
105.8383746369427
 30
0.0
  0
MTEXT
  5
43E
102
{ACAD_REACTORS
330
4A8
102
}
330
1F
100
AcDbEntity
  8
256
  6
CONTINUOUS
 62
    40
100
AcDbMText
 10
9.90675
 20
208.825194
 30
0.0
 40
2.4
 41
0.0
 71
     7
 72
     5
  1
\W00.439;→ 
  7
KANJI2
1001
ACAD
1000
MTEXTBEGIN
1070
    73
1070
     2
1070
    44
1040
0.813253
1000
MTEXTEND
1000
ACAD_MTEXT_DEFINED_HEIGHT_BEGIN
1070
    46
1040
0.2
1000
ACAD_MTEXT_DEFINED_HEIGHT_END
  0
MTEXT
  5
442
330
1F
100
AcDbEntity
  8
254
  6
CONTINUOUS
 62
     4
100
AcDbMText
 10
542.8
 20
59.767742
 30
0.0
 40
3.2
 41
0.0
 71
     7
 72
     5
  1
\W01.000; 
  7
IDEAS_KANJI
1001
ACAD
1000
MTEXTBEGIN
1070
    73
1070
     2
1070
    44
1040
0.783133
1000
MTEXTEND
1000
ACAD_MTEXT_DEFINED_HEIGHT_BEGIN
1070
    46
1040
0.2
1000
ACAD_MTEXT_DEFINED_HEIGHT_END
  0
MTEXT
  5
445
330
1F
100
AcDbEntity
  8
254
  6
CONTINUOUS
 62
     4
100
AcDbMText
 10
507.8
 20
59.767742
 30
0.0
 40
3.2
 41
0.0
 71
     7
 72
     5
  1
\W01.000; 
  7
IDEAS_KANJI
1001
ACAD
1000
MTEXTBEGIN
1070
    73
1070
     2
1070
    44
1040
0.783133
1000
MTEXTEND
1000
ACAD_MTEXT_DEFINED_HEIGHT_BEGIN
1070
    46
1040
0.2
1000
ACAD_MTEXT_DEFINED_HEIGHT_END
  0
MTEXT
  5
446
330
1F
100
AcDbEntity
  8
254
  6
CONTINUOUS
 62
     4
100
AcDbMText
 10
438.8
 20
15.767742
 30
0.0
 40
3.2
 41
0.0
 71
     7
 72
     5
  1
\W01.000; 
  7
IDEAS_KANJI
1001
ACAD
1000
MTEXTBEGIN
1070
    73
1070
     2
1070
    44
1040
0.783133
1000
MTEXTEND
1000
ACAD_MTEXT_DEFINED_HEIGHT_BEGIN
1070
    46
1040
0.2
1000
ACAD_MTEXT_DEFINED_HEIGHT_END
  0
MTEXT
  5
447
330
1F
100
AcDbEntity
  8
254
  6
CONTINUOUS
 62
     4
100
AcDbMText
 10
472.8
 20
59.767742
 30
0.0
 40
3.2
 41
0.0
 71
     7
 72
     5
  1
\W01.000; 
  7
IDEAS_KANJI
1001
ACAD
1000
MTEXTBEGIN
1070
    73
1070
     2
1070
    44
1040
0.783133
1000
MTEXTEND
1000
ACAD_MTEXT_DEFINED_HEIGHT_BEGIN
1070
    46
1040
0.2
1000
ACAD_MTEXT_DEFINED_HEIGHT_END
  0
MTEXT
  5
448
330
1F
100
AcDbEntity
  8
254
  6
CONTINUOUS
 62
     4
100
AcDbMText
 10
438.8
 20
59.767742
 30
0.0
 40
3.2
 41
0.0
 71
     7
 72
     5
  1
\W01.000; 
  7
IDEAS_KANJI
1001
ACAD
1000
MTEXTBEGIN
1070
    73
1070
     2
1070
    44
1040
0.783133
1000
MTEXTEND
1000
ACAD_MTEXT_DEFINED_HEIGHT_BEGIN
1070
    46
1040
0.2
1000
ACAD_MTEXT_DEFINED_HEIGHT_END
  0
MTEXT
  5
449
330
1F
100
AcDbEntity
  8
1
  6
CONTINUOUS
 62
     6
100
AcDbMText
 10
36.512
 20
373.967742
 30
0.0
 40
3.2
 41
0.0
 71
     7
 72
     5
  1
\W00.632;\H5.60;
  7
IDEAS_KANJI
1001
ACAD
1000
MTEXTBEGIN
1070
    73
1070
     2
1070
    44
1040
0.783133
1000
MTEXTEND
1000
ACAD_MTEXT_DEFINED_HEIGHT_BEGIN
1070
    46
1040
0.2
1000
ACAD_MTEXT_DEFINED_HEIGHT_END
  0
TOLERANCE
  5
44A
330
1F
100
AcDbEntity
  8
1
  6
CONTINUOUS
 62
     6
100
AcDbFcf
  3
STANDARD
 10
36.032
 20
376.6
 30
0.0
  1
%%v\W0.721;PA-V18%%v
1001
ACAD
1000
DSTYLE
1002
{
1070
   340
1005
443
1070
   271
1070
     2
1070
   272
1070
     2
1070
   177
1070
     6
1070
   176
1070
     6
1070
   178
1070
     6
1070
    48
1040
-0.005
1070
    41
1041
2.0
1070
    42
1041
0.0
1070
    44
1041
0.0
1070
   140
1041
3.2
1070
   343
1005
44B
1070
   344
1005
44B
1002
}
  0
MTEXT
  5
451
330
1F
100
AcDbEntity
  8
1
  6
CONTINUOUS
 62
     6
100
AcDbMText
 10
54.612
 20
373.967742
 30
0.0
 40
3.2
 41
0.0
 71
     7
 72
     5
  1
\W00.632;\H3.20;
  7
IDEAS_KANJI
1001
ACAD
1000
MTEXTBEGIN
1070
    73
1070
     2
1070
    44
1040
0.783133
1000
MTEXTEND
1000
ACAD_MTEXT_DEFINED_HEIGHT_BEGIN
1070
    46
1040
0.2
1000
ACAD_MTEXT_DEFINED_HEIGHT_END
  0
MTEXT
  5
452
330
1F
100
AcDbEntity
  8
1
  6
CONTINUOUS
 62
     6
100
AcDbMText
 10
529.74
 20
29.167742
 30
0.0
 40
3.2
 41
0.0
 71
     7
 72
     5
  1
\W00.692;\H5.60;単位:mm\H3.20; 
  7
IDEAS_KANJI
1001
ACAD
1000
MTEXTBEGIN
1070
    73
1070
     2
1070
    44
1040
0.783133
1000
MTEXTEND
1000
ACAD_MTEXT_DEFINED_HEIGHT_BEGIN
1070
    46
1040
0.2
1000
ACAD_MTEXT_DEFINED_HEIGHT_END
  0
SPLINE
  5
453
330
1F
100
AcDbEntity
  8
1
  6
CENTER
 62
     2
100
AcDbSpline
210
0.0
220
0.0
230
1.0
 70
    24
 71
     1
 72
     5
 73
     3
 74
     0
 42
0.000000001
 43
0.0000000001
 40
0.0
 40
0.0
 40
0.7272727272597641
 40
1.0
 40
1.0
 10
502.2664334968114
 20
308.7505930064131
 30
0.0
 10
222.2664335151112
 20
308.7505930064131
 30
0.0
 10
117.2664335151112
 20
308.7505930064131
 30
0.0
  0
SPLINE
  5
454
330
1F
100
AcDbEntity
  8
1
  6
CENTER
 62
     2
100
AcDbSpline
210
0.0
220
0.0
230
1.0
 70
    24
 71
     1
 72
     5
 73
     3
 74
     0
 42
0.000000001
 43
0.0000000001
 40
0.0
 40
0.0
 40
0.4076433120984208
 40
1.0
 40
1.0
 10
395.7664335073716
 20
224.4074600158922
 30
0.0
 10
315.7664335073716
 20
224.4074600158922
 30
0.0
 10
199.5164335056915
 20
224.4074600158922
 30
0.0
  0
SPLINE
  5
455
330
1F
100
AcDbEntity
  8
1
  6
CENTER
 62
     2
100
AcDbSpline
210
0.0
220
0.0
230
1.0
 70
    24
 71
     1
 72
     5
 73
     3
 74
     0
 42
0.000000001
 43
0.0000000001
 40
0.0
 40
0.0
 40
0.2401989356069224
 40
1.0
 40
1.0
 10
287.2664335046916
 20
268.5396178551121
 30
0.0
 10
287.2664335046916
 20
248.5396178551121
 30
0.0
 10
287.2664335046916
 20
185.2753021766723
 30
0.0
  0
DIMENSION
  5
462
330
1F
100
AcDbEntity
  8
1
  6
CONTINUOUS
 62
     4
100
AcDbDimension
  2
DIMNDRAFT3D1
 10
186.895696
 20
336.497633
 30
0.0
 11
156.895696
 21
336.497633
 31
0.0
 70
   160
  1
\C4;60
  3
STANDARD
100
AcDbAlignedDimension
 13
126.895696
 23
309.000593
 33
0.0
 14
186.895696
 24
309.000593
 34
0.0
100
AcDbRotatedDimension
1001
ACAD
1000
DSTYLE
1002
{
1070
   287
1070
     3
1070
     7
1000
OPEN
1070
     6
1000
OPEN
1070
   279
1070
     0
1070
   172
1070
     1
1070
   173
1070
     1
1070
   340
1005
458
1070
   271
1070
     0
1070
   272
1070
     2
1070
    77
1070
     1
1070
    73
1070
     0
1070
   177
1070
     4
1070
   176
1070
     4
1070
   178
1070
     4
1070
    48
1040
-0.005
1070
    41
1041
2.0
1070
   147
1041
0.625
1070
    42
1041
0.0
1070
    44
1041
1.5
1070
   140
1041
2.5
1002
}
  0
DIMENSION
  5
46E
330
1F
100
AcDbEntity
  8
1
  6
CONTINUOUS
 62
     4
100
AcDbDimension
  2
DIMNDRAFT3D2
 10
402.166434
 20
294.125
 30
0.0
 11
395.0
 21
294.125
 31
0.0
 70
   160
  1
\C4;15.8
  3
STANDARD
100
AcDbAlignedDimension
 13
417.966434
 23
305.600593
 33
0.0
 14
402.166434
 24
305.250593
 34
0.0
100
AcDbRotatedDimension
1001
ACAD
1000
DSTYLE
1002
{
1070
   287
1070
     3
1070
     7
1000
OPEN
1070
     6
1000
OPEN
1070
   279
1070
     0
1070
   172
1070
     1
1070
   173
1070
     1
1070
   340
1005
458
1070
   271
1070
     1
1070
   272
1070
     2
1070
    77
1070
     1
1070
    73
1070
     0
1070
   177
1070
     4
1070
   176
1070
     4
1070
   178
1070
     4
1070
    48
1040
-0.005
1070
    41
1041
2.0
1070
   147
1041
0.625
1070
    42
1041
0.0
1070
    44
1041
1.5
1070
   140
1041
2.5
1002
}
  0
DIMENSION
  5
47A
330
1F
100
AcDbEntity
  8
1
  6
CONTINUOUS
 62
     4
100
AcDbDimension
  2
DIMNDRAFT3D3
 10
352.266434
 20
336.497633
 30
0.0
 11
287.266434
 21
336.497633
 31
0.0
 70
   160
  1
\C4;130
  3
STANDARD
100
AcDbAlignedDimension
 13
222.266434
 23
308.500593
 33
0.0
 14
352.266434
 24
308.500593
 34
0.0
100
AcDbRotatedDimension
1001
ACAD
1000
DSTYLE
1002
{
1070
   287
1070
     3
1070
     7
1000
OPEN
1070
     6
1000
OPEN
1070
   279
1070
     0
1070
   172
1070
     1
1070
   173
1070
     1
1070
   340
1005
458
1070
   271
1070
     0
1070
   272
1070
     2
1070
    77
1070
     1
1070
    73
1070
     0
1070
   177
1070
     4
1070
   176
1070
     4
1070
   178
1070
     4
1070
    48
1040
-0.005
1070
    41
1041
2.0
1070
   147
1041
0.625
1070
    42
1041
0.0
1070
    44
1041
1.5
1070
   140
1041
2.5
1002
}
  0
DIMENSION
  5
487
330
1F
100
AcDbEntity
  8
1
  6
CONTINUOUS
 62
     6
100
AcDbDimension
  2
DIMNDRAFT3D4
 10
432.049617
 20
77.47017
 30
0.0
 11
338.716284
 21
77.47017
 31
0.0
 70
   160
  1
 \C6;全長 \C6;1500±50
  3
STANDARD
100
AcDbAlignedDimension
 13
245.38295
 23
106.405177
 33
0.0
 14
432.049617
 24
106.829977
 34
0.0
100
AcDbRotatedDimension
1001
ACAD
1000
DSTYLE
1002
{
1070
   287
1070
     3
1070
     7
1000
OPEN
1070
     6
1000
OPEN
1070
   279
1070
     0
1070
   172
1070
     1
1070
   173
1070
     1
1070
   340
1005
458
1070
   271
1070
     2
1070
   272
1070
     2
1070
    77
1070
     1
1070
    73
1070
     0
1070
   177
1070
     6
1070
   176
1070
     6
1070
   178
1070
     6
1070
    48
1040
-0.005
1070
    41
1041
2.0
1070
   147
1041
0.625
1070
    42
1041
0.0
1070
    44
1041
1.5
1070
   140
1041
2.5
1002
}
  0
DIMENSION
  5
493
330
1F
100
AcDbEntity
  8
1
  6
CONTINUOUS
 62
     4
100
AcDbDimension
  2
DIMNDRAFT3D5
 10
203.875
 20
292.750593
 30
0.0
 11
203.875
 21
315.0
 31
0.0
 70
   160
  1
\C4;32
  3
STANDARD
100
AcDbAlignedDimension
 13
184.521325
 23
324.750593
 33
0.0
 14
184.521325
 24
292.750593
 34
0.0
 50
90.0
100
AcDbRotatedDimension
1001
ACAD
1000
DSTYLE
1002
{
1070
   287
1070
     3
1070
     7
1000
OPEN
1070
     6
1000
OPEN
1070
    74
1070
     0
1070
   279
1070
     0
1070
   172
1070
     1
1070
   173
1070
     1
1070
   340
1005
458
1070
   271
1070
     0
1070
   272
1070
     2
1070
    77
1070
     1
1070
    73
1070
     0
1070
   177
1070
     4
1070
   176
1070
     4
1070
   178
1070
     4
1070
    48
1040
-0.005
1070
    41
1041
2.0
1070
   147
1041
0.625
1070
    42
1041
0.0
1070
    44
1041
1.5
1070
   140
1041
2.5
1002
}
  0
DIMENSION
  5
49F
330
1F
100
AcDbEntity
  8
1
  6
CONTINUOUS
 62
     4
100
AcDbDimension
  2
DIMNDRAFT3D6
 10
426.875
 20
305.250593
 30
0.0
 11
426.875
 21
320.0
 31
0.0
 70
   160
  1
\C4;7.0
  3
STANDARD
100
AcDbAlignedDimension
 13
414.966434
 23
312.250593
 33
0.0
 14
414.966434
 24
305.250593
 34
0.0
 50
90.0
100
AcDbRotatedDimension
1001
ACAD
1000
DSTYLE
1002
{
1070
   287
1070
     3
1070
     7
1000
OPEN
1070
     6
1000
OPEN
1070
    74
1070
     0
1070
   279
1070
     0
1070
   172
1070
     1
1070
   173
1070
     1
1070
   340
1005
458
1070
   271
1070
     1
1070
   272
1070
     2
1070
    77
1070
     1
1070
    73
1070
     0
1070
   177
1070
     4
1070
   176
1070
     4
1070
   178
1070
     4
1070
    48
1040
-0.005
1070
    41
1041
2.0
1070
   147
1041
0.625
1070
    42
1041
0.0
1070
    44
1041
1.5
1070
   140
1041
2.5
1002
}
  0
ENDSEC
  0
SECTION
  2
OBJECTS
  0
DICTIONARY
  5
C
330
0
100
AcDbDictionary
  3
ACAD_GROUP
350
D
  3
ACAD_LAYOUT
350
1A
  3
ACAD_MATERIAL
350
3B
  3
ACAD_MLEADERSTYLE
350
4DB
  3
ACAD_MLINESTYLE
350
17
  3
ACAD_PLOTSETTINGS
350
19
  3
ACAD_VISUALSTYLE
350
2A
  3
ACDBHEADERROUNDTRIPXREC
350
4B9
  3
ACDBVARIABLEDICTIONARY
350
4D9
  0
DICTIONARY
  5
D
102
{ACAD_REACTORS
330
C
102
}
330
C
100
AcDbDictionary
  3
A2_FRAME_V5
350
4A8
  0
DICTIONARY
  5
1A
102
{ACAD_REACTORS
330
C
102
}
330
C
100
AcDbDictionary
  0
DICTIONARY
  5
3B
102
{ACAD_REACTORS
330
C
102
}
330
C
100
AcDbDictionary
  3
BYBLOCK
350
3D
  3
BYLAYER
350
3C
  3
GLOBAL
350
3E
  0
DICTIONARY
  5
4DB
102
{ACAD_REACTORS
330
C
102
}
330
C
100
AcDbDictionary
  0
DICTIONARY
  5
17
102
{ACAD_REACTORS
330
C
102
}
330
C
100
AcDbDictionary
  3
STANDARD
350
18
  0
DICTIONARY
  5
19
102
{ACAD_REACTORS
330
C
102
}
330
C
100
AcDbDictionary
  0
DICTIONARY
  5
2A
102
{ACAD_REACTORS
330
C
102
}
330
C
100
AcDbDictionary
  3
2DWIREFRAME
350
2F
  3
3D_HIDDEN
350
31
  3
3DWIREFRAME
350
30
  3
BASIC
350
32
  3
BRIGHTEN
350
36
  3
COLORCHANGE
350
3A
  3
CONCEPTUAL
350
34
  3
DIM
350
35
  3
FACEPATTERN
350
39
  3
FLAT
350
2B
  3
FLATWITHEDGES
350
2C
  3
GOURAUD
350
2D
  3
GOURAUDWITHEDGES
350
2E
  3
LINEPATTERN
350
38
  3
REALISTIC
350
33
  3
THICKEN
350
37
  0
DICTIONARY
  5
4B9
102
{ACAD_REACTORS
330
C
102
}
330
C
100
AcDbDictionary
  3
CEPSNTYPE
350
4C2
  3
DIMSTYLEDATA
350
4D8
  3
FINGERPRINTGUID
350
4C3
  3
HYPERLINKBASE
350
4BC
  3
INSUNITS
350
4C1
  3
LAYOUTDICT
350
4BE
  3
LWETCUNION
350
4C0
  3
PLOTSETDICT
350
4BF
  3
PSVPSCALE
350
4C5
  3
PUCSBASE
350
4C8
  3
PUCSORGBACK
350
4CE
  3
PUCSORGBOTTOM
350
4CA
  3
PUCSORGFRONT
350
4CD
  3
PUCSORGLEFT
350
4CB
  3
PUCSORGRIGHT
350
4CC
  3
PUCSORGTOP
350
4C9
  3
PUCSORTHOREF
350
4C6
  3
PUCSORTHOVIEW
350
4C7
  3
STYLESHEET
350
4BD
  3
TSTACKALIGN
350
4BA
  3
TSTACKSIZE
350
4BB
  3
UCSBASE
350
4D1
  3
UCSORGBACK
350
4D7
  3
UCSORGBOTTOM
350
4D3
  3
UCSORGFRONT
350
4D6
  3
UCSORGLEFT
350
4D4
  3
UCSORGRIGHT
350
4D5
  3
UCSORGTOP
350
4D2
  3
UCSORTHOREF
350
4CF
  3
UCSORTHOVIEW
350
4D0
  3
VERSIONGUID
350
4C4
  0
DICTIONARY
  5
4D9
102
{ACAD_REACTORS
330
C
102
}
330
C
100
AcDbDictionary
  3
DIMASSOC
350
4DC
  3
HIDETEXT
350
4DD
  0
GROUP
  5
4A8
102
{ACAD_REACTORS
330
D
102
}
330
D
100
AcDbGroup
300

 70
     0
 71
     1
340
43E
  0
MATERIAL
  5
3D
102
{ACAD_REACTORS
330
3B
102
}
102
{ACAD_XDICTIONARY
360
4E0
102
}
330
3B
100
AcDbMaterial
  1
ByBlock
  0
MATERIAL
  5
3C
102
{ACAD_REACTORS
330
3B
102
}
102
{ACAD_XDICTIONARY
360
4DE
102
}
330
3B
100
AcDbMaterial
  1
ByLayer
  0
MATERIAL
  5
3E
102
{ACAD_REACTORS
330
3B
102
}
102
{ACAD_XDICTIONARY
360
4E2
102
}
330
3B
100
AcDbMaterial
  1
Global
  0
MLINESTYLE
  5
18
102
{ACAD_REACTORS
330
17
102
}
330
17
100
AcDbMlineStyle
  2
Standard
 70
     0
  3

 62
   256
 51
90.0
 52
90.0
 71
     2
 49
0.5
 62
   256
  6
BYLAYER
 49
-0.5
 62
   256
  6
BYLAYER
  0
ACAD_PROXY_OBJECT
  5
2F
102
{ACAD_REACTORS
330
2A
102
}
330
2A
100
AcDbProxyObject
 90
      499
 91
      501
 93
      436
310
42CC9915DA5C99599C985B595049028333333333333E3BF0000000000000FB0107901411070040501600405405064090741402480A0340
1001
ACAD
1000
AcDbSavedByObjectVersion
1070
     0
  0
ACAD_PROXY_OBJECT
  5
31
102
{ACAD_REACTORS
330
2A
102
}
330
2A
100
AcDbProxyObject
 90
      499
 91
      501
 93
      500
310
424CD108121A5919195B90640502408333333333333E3BF0000000000000FB01079024090700405020000000000001110200405405064090740C02480A0340
1001
ACAD
1000
AcDbSavedByObjectVersion
1070
     0
  0
ACAD_PROXY_OBJECT
  5
30
102
{ACAD_REACTORS
330
2A
102
}
330
2A
100
AcDbProxyObject
 90
      499
 91
      501
 93
      436
310
42CCD915DA5C99599C985B595059028333333333333E3BF0000000000000FB0107901411070040501600405405064090741402480A0340
1001
ACAD
1000
AcDbSavedByObjectVersion
1070
     0
  0
ACAD_PROXY_OBJECT
  5
32
102
{ACAD_REACTORS
330
2A
102
}
330
2A
100
AcDbProxyObject
 90
      499
 91
      501
 93
      388
310
4150985CDA58D07406404333333333333E3BF0000000000000FB0107A41107004050150841D405064090741402480A0350
1001
ACAD
1000
AcDbSavedByObjectVersion
1070
     0
  0
ACAD_PROXY_OBJECT
  5
36
102
{ACAD_REACTORS
330
2A
102
}
330
2A
100
AcDbProxyObject
 90
      499
 91
      501
 93
      428
310
42109C9A59DA1D195B90C409028333333333333E3BF0000000000000FB010790141107004050150841D405064090741402480A029950
1001
ACAD
1000
AcDbSavedByObjectVersion
1070
     0
  0
ACAD_PROXY_OBJECT
  5
3A
102
{ACAD_REACTORS
330
2A
102
}
330
2A
100
AcDbProxyObject
 90
      499
 91
      501
 93
      452
310
42D0DBDB1BDC90DA185B99D95104090240C333333333333E3BF0000000000000FB0108901411070040501508421405064090741402480A0350
1001
ACAD
1000
AcDbSavedByObjectVersion
1070
     0
  0
ACAD_PROXY_OBJECT
  5
34
102
{ACAD_REACTORS
330
2A
102
}
330
2A
100
AcDbProxyObject
 90
      499
 91
      501
 93
      500
310
4290DBDB98D95C1D1D585B10940D028333333333333E3BF0000000000000FB0107902409070040501000000000000111010841D405064090740C02480A0340
1001
ACAD
1000
AcDbSavedByObjectVersion
1070
     0
  0
ACAD_PROXY_OBJECT
  5
35
102
{ACAD_REACTORS
330
2A
102
}
330
2A
100
AcDbProxyObject
 90
      499
 91
      501
 93
      412
310
40D11A5B50B409028333333333333E3BF0000000000000FB010790141107004050150841D405064090741402480A02677FFFFFD0
1001
ACAD
1000
AcDbSavedByObjectVersion
1070
     0
  0
ACAD_PROXY_OBJECT
  5
39
102
{ACAD_REACTORS
330
2A
102
}
330
2A
100
AcDbProxyObject
 90
      499
 91
      501
 93
      444
310
42D19858D95C185D1D195C9B90F409028333333333333E3BF0000000000000FB010790141107004050150841D405064090741402480A0350
1001
ACAD
1000
AcDbSavedByObjectVersion
1070
     0
  0
ACAD_PROXY_OBJECT
  5
2B
102
{ACAD_REACTORS
330
2A
102
}
330
2A
100
AcDbProxyObject
 90
      499
 91
      501
 93
      388
310
41119B185D240901404333333333333E3BF0000000000000F9010740A41107004050150841D405064090741402480A1B50
1001
ACAD
1000
AcDbSavedByObjectVersion
1070
     0
  0
ACAD_PROXY_OBJECT
  5
2C
102
{ACAD_REACTORS
330
2A
102
}
330
2A
100
AcDbProxyObject
 90
      499
 91
      501
 93
      476
310
43519B185D15DA5D1A115919D95CD0140901404333333333333E3BF0000000000000F9010740901411070040501600405405064090741402480A1B50
1001
ACAD
1000
AcDbSavedByObjectVersion
1070
     0
  0
ACAD_PROXY_OBJECT
  5
2D
102
{ACAD_REACTORS
330
2A
102
}
330
2A
100
AcDbProxyObject
 90
      499
 91
      501
 93
      412
310
41D1DBDD5C985D5910240902404333333333333E3BF0000000000000F9010740A411070040501641D405064090741402480A1B50
1001
ACAD
1000
AcDbSavedByObjectVersion
1070
     0
  0
ACAD_PROXY_OBJECT
  5
2E
102
{ACAD_REACTORS
330
2A
102
}
330
2A
100
AcDbProxyObject
 90
      499
 91
      501
 93
      500
310
4411DBDD5C985D5915DA5D1A115919D95CD0340902404333333333333E3BF0000000000000F9010740901411070040501600405405064090741402480A1B50
1001
ACAD
1000
AcDbSavedByObjectVersion
1070
     0
  0
ACAD_PROXY_OBJECT
  5
38
102
{ACAD_REACTORS
330
2A
102
}
330
2A
100
AcDbProxyObject
 90
      499
 91
      501
 93
      444
310
42D31A5B995C185D1D195C9B90E409028333333333333E3BF0000000000000FB010790141107004050750841D405064090741402483A0350
1001
ACAD
1000
AcDbSavedByObjectVersion
1070
     0
  0
ACAD_PROXY_OBJECT
  5
33
102
{ACAD_REACTORS
330
2A
102
}
330
2A
100
AcDbProxyObject
 90
      499
 91
      501
 93
      420
310
425499585B1A5CDD1A58D08409028333333333333E3BF0000000000000FB01079019070040501508421405064090741402480A1B40
1001
ACAD
1000
AcDbSavedByObjectVersion
1070
     0
  0
ACAD_PROXY_OBJECT
  5
37
102
{ACAD_REACTORS
330
2A
102
}
330
2A
100
AcDbProxyObject
 90
      499
 91
      501
 93
      412
310
41D51A1A58DAD95B90D409028333333333333E3BF0000000000000FB010790141107004050150C41D405064090741402480A0350
1001
ACAD
1000
AcDbSavedByObjectVersion
1070
     0
  0
XRECORD
  5
4C2
102
{ACAD_REACTORS
330
4B9
102
}
330
4B9
100
AcDbXrecord
 90
        0
  0
XRECORD
  5
4D8
102
{ACAD_REACTORS
330
4B9
102
}
330
4B9
100
AcDbXrecord
1000
DSTYLE
1002
{
1070
   171
 70
     2
1070
   143
 40
25.4
1070
   274
 70
     2
1070
    41
 40
0.18
1070
   141
 40
0.09
1070
   271
 70
     4
1070
    43
 40
0.38
1070
   278
 70
    46
1070
    44
 40
0.18
1070
    42
 40
0.0625
1070
   147
 40
0.09
1070
    77
 70
     0
1070
   272
 70
     4
1070
    73
 70
     1
1070
   172
 70
     0
1070
    74
 70
     1
1070
   283
 70
     1
1070
   340
340
11
1070
   140
 40
0.18
1070
   284
 70
     0
1070
    78
 70
     0
1002
}
  0
XRECORD
  5
4C3
102
{ACAD_REACTORS
330
4B9
102
}
330
4B9
100
AcDbXrecord
  1
{967C99F4-BC6E-4FCF-8F39-D4932A0C74E3}
  0
XRECORD
  5
4BC
102
{ACAD_REACTORS
330
4B9
102
}
330
4B9
100
AcDbXrecord
  1

  0
XRECORD
  5
4C1
102
{ACAD_REACTORS
330
4B9
102
}
330
4B9
100
AcDbXrecord
 90
        4
  0
XRECORD
  5
4BE
102
{ACAD_REACTORS
330
4B9
102
}
330
4B9
100
AcDbXrecord
340
1A
  0
XRECORD
  5
4C0
102
{ACAD_REACTORS
330
4B9
102
}
330
4B9
100
AcDbXrecord
 90
    10781
  0
XRECORD
  5
4BF
102
{ACAD_REACTORS
330
4B9
102
}
330
4B9
100
AcDbXrecord
340
19
  0
XRECORD
  5
4C5
102
{ACAD_REACTORS
330
4B9
102
}
330
4B9
100
AcDbXrecord
 40
0.0
  0
XRECORD
  5
4C8
102
{ACAD_REACTORS
330
4B9
102
}
330
4B9
100
AcDbXrecord
340
0
  0
XRECORD
  5
4CE
102
{ACAD_REACTORS
330
4B9
102
}
330
4B9
100
AcDbXrecord
 10
0.0
 20
0.0
 30
0.0
  0
XRECORD
  5
4CA
102
{ACAD_REACTORS
330
4B9
102
}
330
4B9
100
AcDbXrecord
 10
0.0
 20
0.0
 30
0.0
  0
XRECORD
  5
4CD
102
{ACAD_REACTORS
330
4B9
102
}
330
4B9
100
AcDbXrecord
 10
0.0
 20
0.0
 30
0.0
  0
XRECORD
  5
4CB
102
{ACAD_REACTORS
330
4B9
102
}
330
4B9
100
AcDbXrecord
 10
0.0
 20
0.0
 30
0.0
  0
XRECORD
  5
4CC
102
{ACAD_REACTORS
330
4B9
102
}
330
4B9
100
AcDbXrecord
 10
0.0
 20
0.0
 30
0.0
  0
XRECORD
  5
4C9
102
{ACAD_REACTORS
330
4B9
102
}
330
4B9
100
AcDbXrecord
 10
0.0
 20
0.0
 30
0.0
  0
XRECORD
  5
4C6
102
{ACAD_REACTORS
330
4B9
102
}
330
4B9
100
AcDbXrecord
340
0
  0
XRECORD
  5
4C7
102
{ACAD_REACTORS
330
4B9
102
}
330
4B9
100
AcDbXrecord
 70
     0
  0
XRECORD
  5
4BD
102
{ACAD_REACTORS
330
4B9
102
}
330
4B9
100
AcDbXrecord
  1

  0
XRECORD
  5
4BA
102
{ACAD_REACTORS
330
4B9
102
}
330
4B9
100
AcDbXrecord
 90
        1
  0
XRECORD
  5
4BB
102
{ACAD_REACTORS
330
4B9
102
}
330
4B9
100
AcDbXrecord
 90
       70
  0
XRECORD
  5
4D1
102
{ACAD_REACTORS
330
4B9
102
}
330
4B9
100
AcDbXrecord
340
0
  0
XRECORD
  5
4D7
102
{ACAD_REACTORS
330
4B9
102
}
330
4B9
100
AcDbXrecord
 10
0.0
 20
0.0
 30
0.0
  0
XRECORD
  5
4D3
102
{ACAD_REACTORS
330
4B9
102
}
330
4B9
100
AcDbXrecord
 10
0.0
 20
0.0
 30
0.0
  0
XRECORD
  5
4D6
102
{ACAD_REACTORS
330
4B9
102
}
330
4B9
100
AcDbXrecord
 10
0.0
 20
0.0
 30
0.0
  0
XRECORD
  5
4D4
102
{ACAD_REACTORS
330
4B9
102
}
330
4B9
100
AcDbXrecord
 10
0.0
 20
0.0
 30
0.0
  0
XRECORD
  5
4D5
102
{ACAD_REACTORS
330
4B9
102
}
330
4B9
100
AcDbXrecord
 10
0.0
 20
0.0
 30
0.0
  0
XRECORD
  5
4D2
102
{ACAD_REACTORS
330
4B9
102
}
330
4B9
100
AcDbXrecord
 10
0.0
 20
0.0
 30
0.0
  0
XRECORD
  5
4CF
102
{ACAD_REACTORS
330
4B9
102
}
330
4B9
100
AcDbXrecord
340
0
  0
XRECORD
  5
4D0
102
{ACAD_REACTORS
330
4B9
102
}
330
4B9
100
AcDbXrecord
 70
     0
  0
XRECORD
  5
4C4
102
{ACAD_REACTORS
330
4B9
102
}
330
4B9
100
AcDbXrecord
  1
{FAEB1C32-E019-11D5-929B-00C0DF256EC4}
  0
DICTIONARYVAR
  5
4DC
102
{ACAD_REACTORS
330
4D9
102
}
330
4D9
100
DictionaryVariables
280
     0
  1
2
  0
DICTIONARYVAR
  5
4DD
102
{ACAD_REACTORS
330
4D9
102
}
330
4D9
100
DictionaryVariables
280
     0
  1
1
  0
DICTIONARY
  5
4E0
330
3D
100
AcDbDictionary
280
     1
  3
ACAD_XREC_ROUNDTRIP
360
4E1
  0
DICTIONARY
  5
4DE
330
3C
100
AcDbDictionary
280
     1
  3
ACAD_XREC_ROUNDTRIP
360
4DF
  0
DICTIONARY
  5
4E2
330
3E
100
AcDbDictionary
280
     1
  3
ACAD_XREC_ROUNDTRIP
360
4E3
  0
XRECORD
  5
4E1
102
{ACAD_REACTORS
330
4E0
102
}
330
4E0
100
AcDbXrecord
102
MATERIAL
148
0.0
149
0.0
149
0.0
 93
        0
 94
      127
282
     0
 72
     1
 77
     1
171
     1
175
     1
179
     1
273
     0
  0
XRECORD
  5
4DF
102
{ACAD_REACTORS
330
4DE
102
}
330
4DE
100
AcDbXrecord
102
MATERIAL
148
0.0
149
0.0
149
0.0
 93
        0
 94
      127
282
     0
 72
     1
 77
     1
171
     1
175
     1
179
     1
273
     0
  0
XRECORD
  5
4E3
102
{ACAD_REACTORS
330
4E2
102
}
330
4E2
100
AcDbXrecord
102
MATERIAL
148
0.0
149
0.0
149
0.0
 93
        0
 94
      127
282
     0
 72
     1
 77
     1
171
     1
175
     1
179
     1
273
     0
  0
ENDSEC
  0
EOF
