  0
SECTION
  2
HEADER
  9
$ACADVER
  1
AC1014
  9
$ACADMAINTVER
 70
     9
  9
$DWGCODEPAGE
  3
ANSI_932
  9
$INSBASE
 10
0.0
 20
0.0
 30
0.0
  9
$EXTMIN
 10
-0.5
 20
-0.5
 30
-0.5
  9
$EXTMAX
 10
5.0
 20
5.0
 30
5.0
  9
$LIMMIN
 10
-0.5
 20
-0.5
  9
$LIMMAX
 10
5.0
 20
5.0
  9
$ORTHOMODE
 70
     0
  9
$REGENMODE
 70
     1
  9
$FILLMODE
 70
     1
  9
$QTEXTMODE
 70
     0
  9
$MIRRTEXT
 70
     1
  9
$DRAGMODE
 70
     2
  9
$LTSCALE
 40
1.0
  9
$OSMODE
 70
    37
  9
$ATTMODE
 70
     1
  9
$TEXTSIZE
 40
0.2
  9
$TRACEWID
 40
0.05
  9
$TEXTSTYLE
  7
STANDARD
  9
$CLAYER
  8
0
  9
$CELTYPE
  6
BYLAYER
  9
$CECOLOR
 62
   256
  9
$CELTSCALE
 40
1.0
  9
$DELOBJ
 70
     1
  9
$DISPSILH
 70
     0
  9
$DIMSCALE
 40
1.0
  9
$DIMASZ
 40
0.18
  9
$DIMEXO
 40
0.0625
  9
$DIMDLI
 40
0.38
  9
$DIMRND
 40
0.0
  9
$DIMDLE
 40
0.0
  9
$DIMEXE
 40
0.18
  9
$DIMTP
 40
0.0
  9
$DIMTM
 40
0.0
  9
$DIMTXT
 40
0.18
  9
$DIMCEN
 40
0.09
  9
$DIMTSZ
 40
0.0
  9
$DIMTOL
 70
     0
  9
$DIMLIM
 70
     0
  9
$DIMTIH
 70
     1
  9
$DIMTOH
 70
     1
  9
$DIMSE1
 70
     0
  9
$DIMSE2
 70
     0
  9
$DIMTAD
 70
     0
  9
$DIMZIN
 70
     0
  9
$DIMBLK
  1

  9
$DIMASO
 70
     1
  9
$DIMSHO
 70
     1
  9
$DIMPOST
  1

  9
$DIMAPOST
  1

  9
$DIMALT
 70
     0
  9
$DIMALTD
 70
     2
  9
$DIMALTF
 40
25.4
  9
$DIMLFAC
 40
1.0
  9
$DIMTOFL
 70
     0
  9
$DIMTVP
 40
0.0
  9
$DIMTIX
 70
     0
  9
$DIMSOXD
 70
     0
  9
$DIMSAH
 70
     0
  9
$DIMBLK1
  1

  9
$DIMBLK2
  1

  9
$DIMSTYLE
  2
STANDARD
  9
$DIMCLRD
 70
     0
  9
$DIMCLRE
 70
     0
  9
$DIMCLRT
 70
     0
  9
$DIMTFAC
 40
1.0
  9
$DIMGAP
 40
0.09
  9
$DIMJUST
 70
     0
  9
$DIMSD1
 70
     0
  9
$DIMSD2
 70
     0
  9
$DIMTOLJ
 70
     1
  9
$DIMTZIN
 70
     0
  9
$DIMALTZ
 70
     0
  9
$DIMALTTZ
 70
     0
  9
$DIMFIT
 70
     3
  9
$DIMUPT
 70
     0
  9
$DIMUNIT
 70
     2
  9
$DIMDEC
 70
     4
  9
$DIMTDEC
 70
     4
  9
$DIMALTU
 70
     2
  9
$DIMALTTD
 70
     2
  9
$DIMTXSTY
  7
STANDARD
  9
$DIMAUNIT
 70
     0
  9
$LUNITS
 70
     2
  9
$LUPREC
 70
     4
  9
$SKETCHINC
 40
0.1
  9
$FILLETRAD
 40
0.5
  9
$AUNITS
 70
     0
  9
$AUPREC
 70
     0
  9
$MENU
  1
.
  9
$ELEVATION
 40
0.0
  9
$PELEVATION
 40
0.0
  9
$THICKNESS
 40
0.0
  9
$LIMCHECK
 70
     0
  9
$CHAMFERA
 40
0.5
  9
$CHAMFERB
 40
0.5
  9
$CHAMFERC
 40
1.0
  9
$CHAMFERD
 40
0.0
  9
$SKPOLY
 70
     0
  9
$TDCREATE
 40
2457913.457979201
  9
$TDUPDATE
 40
2457913.457979213
  9
$TDINDWG
 40
0.0000000116
  9
$TDUSRTIMER
 40
0.0000000116
  9
$USRTIMER
 70
     1
  9
$ANGBASE
 50
0.0
  9
$ANGDIR
 70
     0
  9
$PDMODE
 70
     0
  9
$PDSIZE
 40
0.0
  9
$PLINEWID
 40
0.0
  9
$COORDS
 70
     1
  9
$SPLFRAME
 70
     0
  9
$SPLINETYPE
 70
     6
  9
$SPLINESEGS
 70
     8
  9
$ATTDIA
 70
     0
  9
$ATTREQ
 70
     1
  9
$HANDLING
 70
     1
  9
$HANDSEED
  5
459
  9
$SURFTAB1
 70
     6
  9
$SURFTAB2
 70
     6
  9
$SURFTYPE
 70
     6
  9
$SURFU
 70
     6
  9
$SURFV
 70
     6
  9
$UCSNAME
  2

  9
$UCSORG
 10
0.0
 20
0.0
 30
0.0
  9
$UCSXDIR
 10
1.0
 20
0.0
 30
0.0
  9
$UCSYDIR
 10
0.0
 20
1.0
 30
0.0
  9
$PUCSNAME
  2

  9
$PUCSORG
 10
0.0
 20
0.0
 30
0.0
  9
$PUCSXDIR
 10
1.0
 20
0.0
 30
0.0
  9
$PUCSYDIR
 10
0.0
 20
1.0
 30
0.0
  9
$USERI1
 70
     0
  9
$USERI2
 70
     0
  9
$USERI3
 70
     0
  9
$USERI4
 70
     0
  9
$USERI5
 70
     0
  9
$USERR1
 40
0.0
  9
$USERR2
 40
0.0
  9
$USERR3
 40
0.0
  9
$USERR4
 40
0.0
  9
$USERR5
 40
0.0
  9
$WORLDVIEW
 70
     1
  9
$SHADEDGE
 70
     3
  9
$SHADEDIF
 70
    70
  9
$TILEMODE
 70
     1
  9
$MAXACTVP
 70
    64
  9
$PINSBASE
 10
0.0
 20
0.0
 30
0.0
  9
$PLIMCHECK
 70
     0
  9
$PEXTMIN
 10
-0.5
 20
-0.5
 30
-0.5
  9
$PEXTMAX
 10
5.0
 20
5.0
 30
5.0
  9
$PLIMMIN
 10
-0.5
 20
-0.5
  9
$PLIMMAX
 10
5.0
 20
5.0
  9
$UNITMODE
 70
     0
  9
$VISRETAIN
 70
     1
  9
$PLINEGEN
 70
     0
  9
$PSLTSCALE
 70
     1
  9
$TREEDEPTH
 70
  3020
  9
$PICKSTYLE
 70
     1
  9
$CMLSTYLE
  2
STANDARD
  9
$CMLJUST
 70
     0
  9
$CMLSCALE
 40
1.0
  9
$PROXYGRAPHICS
 70
     1
  9
$MEASUREMENT
 70
     1
  0
ENDSEC
  0
SECTION
  2
CLASSES
  0
CLASS
  1
ACDBDICTIONARYWDFLT
  2
AcDbDictionaryWithDefault
  3
ObjectDBX Classes
 90
        0
280
     0
281
     0
  0
CLASS
  1
VISUALSTYLE
  2
AcDbVisualStyle
  3
ObjectDBX Classes
 90
     4095
280
     0
281
     0
  0
CLASS
  1
MATERIAL
  2
AcDbMaterial
  3
ObjectDBX Classes
 90
     1153
280
     0
281
     0
  0
CLASS
  1
DICTIONARYVAR
  2
AcDbDictionaryVar
  3
ObjectDBX Classes
 90
        0
280
     0
281
     0
  0
CLASS
  1
XRECORD
  2
AcDbXrecord
  3
AutoCAD 2000
 90
        0
280
     0
281
     0
  0
CLASS
  1
LWPOLYLINE
  2
AcDbPolyline
  3
AutoCAD 2000
 90
        0
280
     0
281
     1
  0
CLASS
  1
HATCH
  2
AcDbHatch
  3
AutoCAD 2000
 90
        0
280
     0
281
     1
  0
CLASS
  1
ACDBPLACEHOLDER
  2
AcDbPlaceHolder
  3
ObjectDBX Classes
 90
        0
280
     0
281
     0
  0
CLASS
  1
LAYOUT
  2
AcDbLayout
  3
ObjectDBX Classes
 90
        0
280
     0
281
     0
  0
ENDSEC
  0
SECTION
  2
TABLES
  0
TABLE
  2
VPORT
  5
8
330
0
100
AcDbSymbolTable
 70
    17
  0
VPORT
  5
29
330
8
100
AcDbSymbolTableRecord
100
AcDbViewportTableRecord
  2
DUMMY
 70
     0
 10
0.0
 20
0.0
 11
1.0
 21
1.0
 12
10.429907
 22
4.5
 13
0.0
 23
0.0
 14
0.5
 24
0.5
 15
0.5
 25
0.5
 16
0.0
 26
0.0
 36
1.0
 17
0.0
 27
0.0
 37
0.0
 40
9.0
 41
1.972973
 42
50.0
 43
0.0
 44
0.0
 50
0.0
 51
0.0
 71
     0
 72
   100
 73
     1
 74
     3
 75
     0
 76
     0
 77
     0
 78
     0
  0
VPORT
  5
41E
330
8
100
AcDbSymbolTableRecord
100
AcDbViewportTableRecord
  2
*ACTIVE
 70
     0
 10
0.0
 20
0.0
 11
1.0
 21
1.0
 12
287.390019
 22
252.909586
 13
0.0
 23
0.0
 14
0.5
 24
0.5
 15
0.5
 25
0.5
 16
0.0
 26
0.0
 36
1.0
 17
0.0
 27
0.0
 37
0.0
 40
254.0
 41
0.069908
 42
50.0
 43
953.960511
 44
-953.960511
 50
0.0
 51
0.0
 71
     0
 72
   100
 73
     1
 74
     3
 75
     0
 76
     0
 77
     0
 78
     0
  0
VPORT
  5
41F
330
8
100
AcDbSymbolTableRecord
100
AcDbViewportTableRecord
  2
L1
 70
     0
 10
0.0
 20
0.0
 11
1.0
 21
1.0
 12
287.390019
 22
252.909586
 13
0.0
 23
0.0
 14
0.5
 24
0.5
 15
0.5
 25
0.5
 16
0.0
 26
0.0
 36
1.0
 17
0.0
 27
0.0
 37
0.0
 40
254.0
 41
0.069908
 42
50.0
 43
953.960511
 44
-953.960511
 50
0.0
 51
0.0
 71
     0
 72
   100
 73
     1
 74
     3
 75
     0
 76
     0
 77
     0
 78
     0
  0
VPORT
  5
420
330
8
100
AcDbSymbolTableRecord
100
AcDbViewportTableRecord
  2
L2
 70
     0
 10
0.0
 20
0.0
 11
0.5
 21
1.0
 12
0.0
 22
0.0
 13
0.0
 23
0.0
 14
0.5
 24
0.5
 15
0.5
 25
0.5
 16
0.0
 26
-1.0
 36
0.0
 17
0.0
 27
0.0
 37
0.0
 40
1319.822715
 41
0.013454
 42
50.0
 43
672.020833
 44
-672.020833
 50
0.0
 51
0.0
 71
     0
 72
   100
 73
     1
 74
     3
 75
     0
 76
     0
 77
     0
 78
     0
  0
VPORT
  5
421
330
8
100
AcDbSymbolTableRecord
100
AcDbViewportTableRecord
  2
L2
 70
     0
 10
0.5
 20
0.0
 11
1.0
 21
1.0
 12
0.0
 22
0.0
 13
0.0
 23
0.0
 14
0.5
 24
0.5
 15
0.5
 25
0.5
 16
1.0
 26
0.0
 36
0.0
 17
0.0
 27
0.0
 37
0.0
 40
1319.822715
 41
0.013454
 42
50.0
 43
672.020833
 44
-672.020833
 50
0.0
 51
0.0
 71
     0
 72
   100
 73
     1
 74
     3
 75
     0
 76
     0
 77
     0
 78
     0
  0
VPORT
  5
422
330
8
100
AcDbSymbolTableRecord
100
AcDbViewportTableRecord
  2
L3
 70
     0
 10
0.0
 20
0.5
 11
1.0
 21
1.0
 12
287.390019
 22
252.909586
 13
0.0
 23
0.0
 14
0.5
 24
0.5
 15
0.5
 25
0.5
 16
0.0
 26
0.0
 36
1.0
 17
0.0
 27
0.0
 37
0.0
 40
254.0
 41
0.069908
 42
50.0
 43
953.960511
 44
-953.960511
 50
0.0
 51
0.0
 71
     0
 72
   100
 73
     1
 74
     3
 75
     0
 76
     0
 77
     0
 78
     0
  0
VPORT
  5
423
330
8
100
AcDbSymbolTableRecord
100
AcDbViewportTableRecord
  2
L3
 70
     0
 10
0.0
 20
0.0
 11
1.0
 21
0.5
 12
0.0
 22
0.0
 13
0.0
 23
0.0
 14
0.5
 24
0.5
 15
0.5
 25
0.5
 16
0.0
 26
-1.0
 36
0.0
 17
0.0
 27
0.0
 37
0.0
 40
1319.822715
 41
0.013454
 42
50.0
 43
672.020833
 44
-672.020833
 50
0.0
 51
0.0
 71
     0
 72
   100
 73
     1
 74
     3
 75
     0
 76
     0
 77
     0
 78
     0
  0
VPORT
  5
424
330
8
100
AcDbSymbolTableRecord
100
AcDbViewportTableRecord
  2
L4
 70
     0
 10
0.0
 20
0.5
 11
0.5
 21
1.0
 12
287.390019
 22
252.909586
 13
0.0
 23
0.0
 14
0.5
 24
0.5
 15
0.5
 25
0.5
 16
0.0
 26
0.0
 36
1.0
 17
0.0
 27
0.0
 37
0.0
 40
254.0
 41
0.069908
 42
50.0
 43
953.960511
 44
-953.960511
 50
0.0
 51
0.0
 71
     0
 72
   100
 73
     1
 74
     3
 75
     0
 76
     0
 77
     0
 78
     0
  0
VPORT
  5
425
330
8
100
AcDbSymbolTableRecord
100
AcDbViewportTableRecord
  2
L4
 70
     0
 10
0.0
 20
0.0
 11
0.5
 21
0.5
 12
0.0
 22
0.0
 13
0.0
 23
0.0
 14
0.5
 24
0.5
 15
0.5
 25
0.5
 16
0.0
 26
-1.0
 36
0.0
 17
0.0
 27
0.0
 37
0.0
 40
1319.822715
 41
0.013454
 42
50.0
 43
672.020833
 44
-672.020833
 50
0.0
 51
0.0
 71
     0
 72
   100
 73
     1
 74
     3
 75
     0
 76
     0
 77
     0
 78
     0
  0
VPORT
  5
426
330
8
100
AcDbSymbolTableRecord
100
AcDbViewportTableRecord
  2
L4
 70
     0
 10
0.5
 20
0.0
 11
1.0
 21
0.5
 12
0.0
 22
0.0
 13
0.0
 23
0.0
 14
0.5
 24
0.5
 15
0.5
 25
0.5
 16
1.0
 26
0.0
 36
0.0
 17
0.0
 27
0.0
 37
0.0
 40
1319.822715
 41
0.013454
 42
50.0
 43
672.020833
 44
-672.020833
 50
0.0
 51
0.0
 71
     0
 72
   100
 73
     1
 74
     3
 75
     0
 76
     0
 77
     0
 78
     0
  0
VPORT
  5
427
330
8
100
AcDbSymbolTableRecord
100
AcDbViewportTableRecord
  2
L4
 70
     0
 10
0.5
 20
0.5
 11
1.0
 21
1.0
 12
0.0
 22
0.0
 13
0.0
 23
0.0
 14
0.5
 24
0.5
 15
0.5
 25
0.5
 16
0.5773502691896258
 26
-0.5773502691896258
 36
0.5773502691896258
 17
0.0
 27
0.0
 37
0.0
 40
1285.020866
 41
0.013818
 42
50.0
 43
667.141407
 44
-667.141407
 50
0.0
 51
0.0
 71
     0
 72
   100
 73
     1
 74
     3
 75
     0
 76
     0
 77
     0
 78
     0
  0
VPORT
  5
428
330
8
100
AcDbSymbolTableRecord
100
AcDbViewportTableRecord
  2
L6
 70
     0
 10
0.0
 20
0.5
 11
0.333333
 21
1.0
 12
0.0
 22
0.0
 13
0.0
 23
0.0
 14
0.5
 24
0.5
 15
0.5
 25
0.5
 16
0.7188730927569433
 26
-0.5850486126764433
 36
0.3754192287502549
 17
0.0
 27
0.0
 37
0.0
 40
1357.434192
 41
0.013081
 42
50.0
 43
701.839477
 44
-701.839477
 50
0.0
 51
0.0
 71
     0
 72
   100
 73
     1
 74
     3
 75
     0
 76
     0
 77
     0
 78
     0
  0
VPORT
  5
429
330
8
100
AcDbSymbolTableRecord
100
AcDbViewportTableRecord
  2
L6
 70
     0
 10
0.0
 20
0.0
 11
0.333333
 21
0.5
 12
0.0
 22
0.0
 13
0.0
 23
0.0
 14
0.5
 24
0.5
 15
0.5
 25
0.5
 16
-1.0
 26
0.0
 36
0.0
 17
0.0
 27
0.0
 37
0.0
 40
1319.822715
 41
0.013454
 42
50.0
 43
672.020833
 44
-672.020833
 50
0.0
 51
0.0
 71
     0
 72
   100
 73
     1
 74
     3
 75
     0
 76
     0
 77
     0
 78
     0
  0
VPORT
  5
42A
330
8
100
AcDbSymbolTableRecord
100
AcDbViewportTableRecord
  2
L6
 70
     0
 10
0.333333
 20
0.5
 11
0.666667
 21
1.0
 12
287.390019
 22
252.909586
 13
0.0
 23
0.0
 14
0.5
 24
0.5
 15
0.5
 25
0.5
 16
0.0
 26
0.0
 36
1.0
 17
0.0
 27
0.0
 37
0.0
 40
254.0
 41
0.069908
 42
50.0
 43
953.960511
 44
-953.960511
 50
0.0
 51
0.0
 71
     0
 72
   100
 73
     1
 74
     3
 75
     0
 76
     0
 77
     0
 78
     0
  0
VPORT
  5
42B
330
8
100
AcDbSymbolTableRecord
100
AcDbViewportTableRecord
  2
L6
 70
     0
 10
0.333333
 20
0.0
 11
0.666667
 21
0.5
 12
0.0
 22
0.0
 13
0.0
 23
0.0
 14
0.5
 24
0.5
 15
0.5
 25
0.5
 16
0.0
 26
-1.0
 36
0.0
 17
0.0
 27
0.0
 37
0.0
 40
1319.822715
 41
0.013454
 42
50.0
 43
672.020833
 44
-672.020833
 50
0.0
 51
0.0
 71
     0
 72
   100
 73
     1
 74
     3
 75
     0
 76
     0
 77
     0
 78
     0
  0
VPORT
  5
42C
330
8
100
AcDbSymbolTableRecord
100
AcDbViewportTableRecord
  2
L6
 70
     0
 10
0.666667
 20
0.5
 11
1.0
 21
1.0
 12
0.0
 22
0.0
 13
0.0
 23
0.0
 14
0.5
 24
0.5
 15
0.5
 25
0.5
 16
0.5773502691896258
 26
-0.5773502691896258
 36
0.5773502691896258
 17
0.0
 27
0.0
 37
0.0
 40
1285.020866
 41
0.013818
 42
50.0
 43
667.141407
 44
-667.141407
 50
0.0
 51
0.0
 71
     0
 72
   100
 73
     1
 74
     3
 75
     0
 76
     0
 77
     0
 78
     0
  0
VPORT
  5
42D
330
8
100
AcDbSymbolTableRecord
100
AcDbViewportTableRecord
  2
L6
 70
     0
 10
0.666667
 20
0.0
 11
1.0
 21
0.5
 12
0.0
 22
0.0
 13
0.0
 23
0.0
 14
0.5
 24
0.5
 15
0.5
 25
0.5
 16
1.0
 26
0.0
 36
0.0
 17
0.0
 27
0.0
 37
0.0
 40
1319.822715
 41
0.013454
 42
50.0
 43
672.020833
 44
-672.020833
 50
0.0
 51
0.0
 71
     0
 72
   100
 73
     1
 74
     3
 75
     0
 76
     0
 77
     0
 78
     0
  0
ENDTAB
  0
TABLE
  2
LTYPE
  5
5
330
0
100
AcDbSymbolTable
 70
     7
  0
LTYPE
  5
14
330
5
100
AcDbSymbolTableRecord
100
AcDbLinetypeTableRecord
  2
BYBLOCK
 70
     0
  3

 72
    65
 73
     0
 40
0.0
  0
LTYPE
  5
15
330
5
100
AcDbSymbolTableRecord
100
AcDbLinetypeTableRecord
  2
BYLAYER
 70
     0
  3

 72
    65
 73
     0
 40
0.0
  0
LTYPE
  5
16
330
5
100
AcDbSymbolTableRecord
100
AcDbLinetypeTableRecord
  2
CONTINUOUS
 70
     0
  3
Solid line
 72
    65
 73
     0
 40
0.0
  0
LTYPE
  5
3F
330
5
100
AcDbSymbolTableRecord
100
AcDbLinetypeTableRecord
  2
DASHED
 70
     0
  3
__ __ __ __ __ __ __ __ __
 72
    65
 73
     2
 40
25.72
 49
12.86
 74
     4
 75
     0
340
0
 46
0.0
 50
0.0
 44
0.0
 45
0.0
 49
-12.86
 74
     4
 75
     0
340
0
 46
0.0
 50
0.0
 44
0.0
 45
0.0
  0
LTYPE
  5
40
330
5
100
AcDbSymbolTableRecord
100
AcDbLinetypeTableRecord
  2
HIDDEN
 70
     0
  3
_ _ _ _ _ _ _ _ _ _ _ _ _ _ _
 72
    65
 73
     2
 40
0.5
 49
0.25
 74
     4
 75
     0
340
0
 46
0.0
 50
0.0
 44
0.0
 45
0.0
 49
-0.25
 74
     4
 75
     0
340
0
 46
0.0
 50
0.0
 44
0.0
 45
0.0
  0
LTYPE
  5
41
330
5
100
AcDbSymbolTableRecord
100
AcDbLinetypeTableRecord
  2
PHANTOM
 70
     0
  3
____ _ _ ____ _ _ _____ _ _ ____
 72
    65
 73
     6
 40
50.5
 49
18.0
 74
     4
 75
     0
340
0
 46
0.0
 50
0.0
 44
0.0
 45
0.0
 49
-6.5
 74
     4
 75
     0
340
0
 46
0.0
 50
0.0
 44
0.0
 45
0.0
 49
6.5
 74
     4
 75
     0
340
0
 46
0.0
 50
0.0
 44
0.0
 45
0.0
 49
-6.5
 74
     4
 75
     0
340
0
 46
0.0
 50
0.0
 44
0.0
 45
0.0
 49
6.5
 74
     4
 75
     0
340
0
 46
0.0
 50
0.0
 44
0.0
 45
0.0
 49
-6.5
 74
     4
 75
     0
340
0
 46
0.0
 50
0.0
 44
0.0
 45
0.0
  0
LTYPE
  5
42
330
5
100
AcDbSymbolTableRecord
100
AcDbLinetypeTableRecord
  2
CENTER
 70
     0
  3
____ _ ____ _ ____ _ ____
 72
    65
 73
     4
 40
47.4
 49
22.0
 74
     4
 75
     0
340
0
 46
0.0
 50
0.0
 44
0.0
 45
0.0
 49
-8.5
 74
     4
 75
     0
340
0
 46
0.0
 50
0.0
 44
0.0
 45
0.0
 49
8.5
 74
     4
 75
     0
340
0
 46
0.0
 50
0.0
 44
0.0
 45
0.0
 49
-8.5
 74
     4
 75
     0
340
0
 46
0.0
 50
0.0
 44
0.0
 45
0.0
  0
LTYPE
  5
43
330
5
100
AcDbSymbolTableRecord
100
AcDbLinetypeTableRecord
  2
DOT
 70
     0
  3
.........................
 72
    65
 73
     2
 40
10.0
 49
0.0
 74
     4
 75
     0
340
0
 46
0.0
 50
0.0
 44
0.0
 45
0.0
 49
-10.0
 74
     4
 75
     0
340
0
 46
0.0
 50
0.0
 44
0.0
 45
0.0
  0
LTYPE
  5
44
330
5
100
AcDbSymbolTableRecord
100
AcDbLinetypeTableRecord
  2
DASHDOT
 70
     0
  3
_._._._._._._._._._._._._._._._.
 72
    65
 73
     4
 40
70.0
 49
31.0
 74
     4
 75
     0
340
0
 46
0.0
 50
0.0
 44
0.0
 45
0.0
 49
-13.0
 74
     4
 75
     0
340
0
 46
0.0
 50
0.0
 44
0.0
 45
0.0
 49
13.0
 74
     4
 75
     0
340
0
 46
0.0
 50
0.0
 44
0.0
 45
0.0
 49
-13.0
 74
     4
 75
     0
340
0
 46
0.0
 50
0.0
 44
0.0
 45
0.0
  0
ENDTAB
  0
TABLE
  2
LAYER
  5
2
330
0
100
AcDbSymbolTable
 70
     2
  0
LAYER
  5
10
330
2
100
AcDbSymbolTableRecord
100
AcDbLayerTableRecord
  2
0
 70
     0
 62
     7
  6
CONTINUOUS
  0
LAYER
  5
46
330
2
100
AcDbSymbolTableRecord
100
AcDbLayerTableRecord
  2
1
 70
     0
 62
     7
  6
CONTINUOUS
  0
ENDTAB
  0
TABLE
  2
STYLE
  5
3
330
0
100
AcDbSymbolTable
 70
     4
  0
STYLE
  5
11
330
3
100
AcDbSymbolTableRecord
100
AcDbTextStyleTableRecord
  2
STANDARD
 70
     0
 40
0.0
 41
1.0
 50
0.0
 71
     0
 42
0.2
  3
txt
  4

  0
STYLE
  5
3E0
330
3
100
AcDbSymbolTableRecord
100
AcDbTextStyleTableRecord
  2
IDEAS_KANJI
 70
     0
 40
0.0
 41
1.0
 50
0.0
 71
     0
 42
0.2
  3
simplex.shx
  4
bigfont.shx
  0
STYLE
  5
3E2
330
3
100
AcDbSymbolTableRecord
100
AcDbTextStyleTableRecord
  2
DWGDIRECTTEXTSTYLE
 70
     0
 40
0.0
 41
1.0
 50
0.0
 71
     0
 42
0.2
  3
simplex
  4

  0
STYLE
  5
3EC
330
3
100
AcDbSymbolTableRecord
100
AcDbTextStyleTableRecord
  2
IDEAS_SIMPLEX
 70
     0
 40
0.0
 41
1.0
 50
0.0
 71
     0
 42
0.2
  3
simplex.shx
  4

  0
ENDTAB
  0
TABLE
  2
VIEW
  5
6
330
0
100
AcDbSymbolTable
 70
     8
  0
VIEW
  5
413
330
6
100
AcDbSymbolTableRecord
100
AcDbViewTableRecord
  2
TOP
 70
     0
 40
254.0
 10
287.390019
 20
252.909586
 41
254.0
 11
0.0
 21
0.0
 31
1.0
 12
0.0
 22
0.0
 32
0.0
 42
50.0
 43
953.960511
 44
-953.960511
 50
0.0
 71
     0
  0
VIEW
  5
414
330
6
100
AcDbSymbolTableRecord
100
AcDbViewTableRecord
  2
FRONT
 70
     0
 40
1319.822715
 10
0.0
 20
0.0
 41
254.0
 11
0.0
 21
-1.0
 31
0.0
 12
0.0
 22
0.0
 32
0.0
 42
50.0
 43
672.020833
 44
-672.020833
 50
0.0
 71
     0
  0
VIEW
  5
415
330
6
100
AcDbSymbolTableRecord
100
AcDbViewTableRecord
  2
RIGHT
 70
     0
 40
1319.822715
 10
0.0
 20
0.0
 41
254.0
 11
1.0
 21
0.0
 31
0.0
 12
0.0
 22
0.0
 32
0.0
 42
50.0
 43
672.020833
 44
-672.020833
 50
0.0
 71
     0
  0
VIEW
  5
416
330
6
100
AcDbSymbolTableRecord
100
AcDbViewTableRecord
  2
BACK
 70
     0
 40
1319.822715
 10
0.0
 20
0.0
 41
254.0
 11
0.0
 21
1.0
 31
0.0
 12
0.0
 22
0.0
 32
0.0
 42
50.0
 43
672.020833
 44
-672.020833
 50
0.0
 71
     0
  0
VIEW
  5
417
330
6
100
AcDbSymbolTableRecord
100
AcDbViewTableRecord
  2
BOTTOM
 70
     0
 40
254.0
 10
0.0
 20
0.0
 41
254.0
 11
0.0
 21
0.0
 31
-1.0
 12
0.0
 22
0.0
 32
0.0
 42
50.0
 43
659.911358
 44
-659.911358
 50
180.0
 71
     0
  0
VIEW
  5
418
330
6
100
AcDbSymbolTableRecord
100
AcDbViewTableRecord
  2
LEFT
 70
     0
 40
1319.822715
 10
0.0
 20
0.0
 41
254.0
 11
-1.0
 21
0.0
 31
0.0
 12
0.0
 22
0.0
 32
0.0
 42
50.0
 43
672.020833
 44
-672.020833
 50
0.0
 71
     0
  0
VIEW
  5
419
330
6
100
AcDbSymbolTableRecord
100
AcDbViewTableRecord
  2
TFR-ISO
 70
     0
 40
1285.020866
 10
0.0
 20
0.0
 41
359.210245
 11
0.5773502691896258
 21
-0.5773502691896258
 31
0.5773502691896258
 12
0.0
 22
0.0
 32
0.0
 42
50.0
 43
667.141407
 44
-667.141407
 50
0.0
 71
     0
  0
VIEW
  5
41A
330
6
100
AcDbSymbolTableRecord
100
AcDbViewTableRecord
  2
TFR-TRI
 70
     0
 40
1357.434192
 10
0.0
 20
0.0
 41
357.33321
 11
0.7188730927569433
 21
-0.5850486126764433
 31
0.3754192287502549
 12
0.0
 22
0.0
 32
0.0
 42
50.0
 43
701.839477
 44
-701.839477
 50
0.0
 71
     0
  0
ENDTAB
  0
TABLE
  2
UCS
  5
7
330
0
100
AcDbSymbolTable
 70
     0
  0
ENDTAB
  0
TABLE
  2
APPID
  5
9
330
0
100
AcDbSymbolTable
 70
     1
  0
APPID
  5
12
330
9
100
AcDbSymbolTableRecord
100
AcDbRegAppTableRecord
  2
ACAD
 70
     0
  0
ENDTAB
  0
TABLE
  2
DIMSTYLE
  5
A
330
0
100
AcDbSymbolTable
 70
     1
  0
DIMSTYLE
105
27
102
{ACAD_REACTORS
330
3E3
330
3FA
330
406
330
412
102
}
330
A
100
AcDbSymbolTableRecord
100
AcDbDimStyleTableRecord
  2
STANDARD
 70
     0
  3

  4

  5

  6

  7

 40
1.0
 41
0.18
 42
0.0625
 43
0.38
 44
0.18
 45
0.0
 46
0.0
 47
0.0
 48
0.0
140
0.18
141
0.09
142
0.0
143
25.4
144
1.0
145
0.0
146
1.0
147
0.09
 71
     0
 72
     0
 73
     1
 74
     1
 75
     0
 76
     0
 77
     0
 78
     0
170
     0
171
     2
172
     0
173
     0
174
     0
175
     0
176
     0
177
     0
178
     0
270
     2
271
     4
272
     4
273
     2
274
     2
340
11
275
     0
280
     0
281
     0
282
     0
283
     1
284
     0
285
     0
286
     0
287
     3
288
     0
  0
ENDTAB
  0
TABLE
  2
BLOCK_RECORD
  5
1
330
0
100
AcDbSymbolTable
 70
     7
  0
BLOCK_RECORD
  5
1F
330
1
100
AcDbSymbolTableRecord
100
AcDbBlockTableRecord
  2
*MODEL_SPACE
  0
BLOCK_RECORD
  5
1B
330
1
100
AcDbSymbolTableRecord
100
AcDbBlockTableRecord
  2
*PAPER_SPACE
  0
BLOCK_RECORD
  5
3C4
330
1
100
AcDbSymbolTableRecord
100
AcDbBlockTableRecord
  2
CENTERLINE1
  0
BLOCK_RECORD
  5
3CE
330
1
100
AcDbSymbolTableRecord
100
AcDbBlockTableRecord
  2
CENTERLINE2
  0
BLOCK_RECORD
  5
3E4
330
1
100
AcDbSymbolTableRecord
100
AcDbBlockTableRecord
  2
_OPEN
  0
BLOCK_RECORD
  5
3EF
330
1
100
AcDbSymbolTableRecord
100
AcDbBlockTableRecord
  2
DIMNDRAFT3D1
  0
BLOCK_RECORD
  5
3FB
330
1
100
AcDbSymbolTableRecord
100
AcDbBlockTableRecord
  2
DIMNDRAFT3D2
  0
BLOCK_RECORD
  5
407
330
1
100
AcDbSymbolTableRecord
100
AcDbBlockTableRecord
  2
DIMNDRAFT3D3
  0
ENDTAB
  0
ENDSEC
  0
SECTION
  2
BLOCKS
  0
BLOCK
  5
20
330
1F
100
AcDbEntity
  8
0
100
AcDbBlockBegin
  2
*MODEL_SPACE
 70
     0
 10
0.0
 20
0.0
 30
0.0
  3
*MODEL_SPACE
  1

  0
ENDBLK
  5
21
330
1F
100
AcDbEntity
  8
0
100
AcDbBlockEnd
  0
BLOCK
  5
1C
330
1B
100
AcDbEntity
 67
     1
  8
0
100
AcDbBlockBegin
  2
*PAPER_SPACE
 70
     0
 10
0.0
 20
0.0
 30
0.0
  3
*PAPER_SPACE
  1

  0
ENDBLK
  5
1D
330
1B
100
AcDbEntity
 67
     1
  8
0
100
AcDbBlockEnd
  0
BLOCK
  5
3CC
330
3C4
100
AcDbEntity
  8
0
100
AcDbBlockBegin
  2
CENTERLINE1
 70
     0
 10
0.0
 20
0.0
 30
0.0
  3
CENTERLINE1
  1

  0
LINE
  5
3C5
330
3C4
100
AcDbEntity
  8
0
  6
CONTINUOUS
 62
     2
100
AcDbLine
 10
228.353323
 20
325.621252
 30
0.0
 11
228.353323
 21
328.121252
 31
0.0
  0
LINE
  5
3C6
330
3C4
100
AcDbEntity
  8
0
  6
CONTINUOUS
 62
     2
100
AcDbLine
 10
228.353323
 20
324.121252
 30
0.0
 11
228.353323
 21
319.621252
 31
0.0
  0
LINE
  5
3C7
330
3C4
100
AcDbEntity
  8
0
  6
CONTINUOUS
 62
     2
100
AcDbLine
 10
228.353323
 20
329.621252
 30
0.0
 11
228.353323
 21
334.121252
 31
0.0
  0
LINE
  5
3C8
330
3C4
100
AcDbEntity
  8
0
  6
CONTINUOUS
 62
     2
100
AcDbLine
 10
225.603323
 20
326.871252
 30
0.0
 11
221.103323
 21
326.871252
 31
0.0
  0
LINE
  5
3C9
330
3C4
100
AcDbEntity
  8
0
  6
CONTINUOUS
 62
     2
100
AcDbLine
 10
227.103323
 20
326.871252
 30
0.0
 11
229.603323
 21
326.871252
 31
0.0
  0
LINE
  5
3CA
330
3C4
100
AcDbEntity
  8
0
  6
CONTINUOUS
 62
     2
100
AcDbLine
 10
231.103323
 20
326.871252
 30
0.0
 11
235.603323
 21
326.871252
 31
0.0
  0
ENDBLK
  5
3CD
330
3C4
100
AcDbEntity
  8
0
100
AcDbBlockEnd
  0
BLOCK
  5
3DE
330
3CE
100
AcDbEntity
  8
0
100
AcDbBlockBegin
  2
CENTERLINE2
 70
     0
 10
0.0
 20
0.0
 30
0.0
  3
CENTERLINE2
  1

  0
LINE
  5
3CF
330
3CE
100
AcDbEntity
  8
0
  6
CONTINUOUS
 62
     2
100
AcDbLine
 10
87.008835
 20
229.398359
 30
0.0
 11
87.008835
 21
231.898359
 31
0.0
  0
LINE
  5
3D0
330
3CE
100
AcDbEntity
  8
0
  6
CONTINUOUS
 62
     2
100
AcDbLine
 10
87.008835
 20
209.773359
 30
0.0
 11
87.008835
 21
197.148359
 31
0.0
  0
LINE
  5
3D1
330
3CE
100
AcDbEntity
  8
0
  6
CONTINUOUS
 62
     2
100
AcDbLine
 10
87.008835
 20
227.898359
 30
0.0
 11
87.008835
 21
215.273359
 31
0.0
  0
LINE
  5
3D2
330
3CE
100
AcDbEntity
  8
0
  6
CONTINUOUS
 62
     2
100
AcDbLine
 10
87.008835
 20
213.773359
 30
0.0
 11
87.008835
 21
211.273359
 31
0.0
  0
LINE
  5
3D3
330
3CE
100
AcDbEntity
  8
0
  6
CONTINUOUS
 62
     2
100
AcDbLine
 10
87.008835
 20
233.398359
 30
0.0
 11
87.008835
 21
246.023359
 31
0.0
  0
LINE
  5
3D4
330
3CE
100
AcDbEntity
  8
0
  6
CONTINUOUS
 62
     2
100
AcDbLine
 10
87.008835
 20
247.523359
 30
0.0
 11
87.008835
 21
250.023359
 31
0.0
  0
LINE
  5
3D5
330
3CE
100
AcDbEntity
  8
0
  6
CONTINUOUS
 62
     2
100
AcDbLine
 10
87.008835
 20
251.523359
 30
0.0
 11
87.008835
 21
264.148359
 31
0.0
  0
LINE
  5
3D6
330
3CE
100
AcDbEntity
  8
0
  6
CONTINUOUS
 62
     2
100
AcDbLine
 10
72.633835
 20
230.648359
 30
0.0
 11
66.508835
 21
230.648359
 31
0.0
  0
LINE
  5
3D7
330
3CE
100
AcDbEntity
  8
0
  6
CONTINUOUS
 62
     2
100
AcDbLine
 10
84.258835
 20
230.648359
 30
0.0
 11
78.133835
 21
230.648359
 31
0.0
  0
LINE
  5
3D8
330
3CE
100
AcDbEntity
  8
0
  6
CONTINUOUS
 62
     2
100
AcDbLine
 10
76.633835
 20
230.648359
 30
0.0
 11
74.133835
 21
230.648359
 31
0.0
  0
LINE
  5
3D9
330
3CE
100
AcDbEntity
  8
0
  6
CONTINUOUS
 62
     2
100
AcDbLine
 10
85.758835
 20
230.648359
 30
0.0
 11
88.258835
 21
230.648359
 31
0.0
  0
LINE
  5
3DA
330
3CE
100
AcDbEntity
  8
0
  6
CONTINUOUS
 62
     2
100
AcDbLine
 10
89.758835
 20
230.648359
 30
0.0
 11
95.883835
 21
230.648359
 31
0.0
  0
LINE
  5
3DB
330
3CE
100
AcDbEntity
  8
0
  6
CONTINUOUS
 62
     2
100
AcDbLine
 10
97.383835
 20
230.648359
 30
0.0
 11
99.883835
 21
230.648359
 31
0.0
  0
LINE
  5
3DC
330
3CE
100
AcDbEntity
  8
0
  6
CONTINUOUS
 62
     2
100
AcDbLine
 10
101.383835
 20
230.648359
 30
0.0
 11
107.508835
 21
230.648359
 31
0.0
  0
ENDBLK
  5
3DF
330
3CE
100
AcDbEntity
  8
0
100
AcDbBlockEnd
  0
BLOCK
  5
3E5
330
3E4
100
AcDbEntity
  8
0
100
AcDbBlockBegin
  2
_OPEN
 70
     0
 10
0.0
 20
0.0
 30
0.0
  3
_OPEN
  1

  0
LINE
  5
3E7
330
3E4
100
AcDbEntity
  8
0
  6
BYBLOCK
 62
     0
100
AcDbLine
 10
-1.0
 20
0.166667
 30
0.0
 11
0.0
 21
0.0
 31
0.0
  0
LINE
  5
3E8
330
3E4
100
AcDbEntity
  8
0
  6
BYBLOCK
 62
     0
100
AcDbLine
 10
-1.0
 20
-0.166667
 30
0.0
 11
0.0
 21
0.0
 31
0.0
  0
LINE
  5
3E9
330
3E4
100
AcDbEntity
  8
0
  6
BYBLOCK
 62
     0
100
AcDbLine
 10
0.0
 20
0.0
 30
0.0
 11
-1.0
 21
0.0
 31
0.0
  0
ENDBLK
  5
3E6
330
3E4
100
AcDbEntity
  8
0
100
AcDbBlockEnd
  0
BLOCK
  5
3F8
330
3EF
100
AcDbEntity
  8
0
100
AcDbBlockBegin
  2
DIMNDRAFT3D1
 70
     0
 10
0.0
 20
0.0
 30
0.0
  3
DIMNDRAFT3D1
  1

  0
MTEXT
  5
3F0
330
3EF
100
AcDbEntity
  8
1
  6
CONTINUOUS
 62
     4
100
AcDbMText
 10
83.984835
 20
277.806712
 30
0.0
 40
5.4
 41
0.0
 71
     7
 72
     5
  1
\W01.000;\W00.860;32 
  7
IDEAS_SIMPLEX
1001
ACAD
1000
MTEXTBEGIN
1070
    73
1070
     2
1070
    44
1040
0.722892
1000
MTEXTEND
1000
ACAD_MTEXT_DEFINED_HEIGHT_BEGIN
1070
    46
1040
0.2
1000
ACAD_MTEXT_DEFINED_HEIGHT_END
  0
LINE
  5
3F1
330
3EF
100
AcDbEntity
  8
1
  6
CONTINUOUS
 62
     4
100
AcDbLine
 10
70.899116
 20
249.648359
 30
0.0
 11
70.899116
 21
279.756712
 31
0.0
  0
LINE
  5
3F2
330
3EF
100
AcDbEntity
  8
1
  6
CONTINUOUS
 62
     4
100
AcDbLine
 10
103.118554
 20
249.648359
 30
0.0
 11
103.118554
 21
279.756712
 31
0.0
  0
LINE
  5
3F3
330
3EF
100
AcDbEntity
  8
1
  6
CONTINUOUS
 62
     4
100
AcDbLine
 10
70.899116
 20
278.256712
 30
0.0
 11
103.118554
 21
278.256712
 31
0.0
  0
LINE
  5
3F4
330
3EF
100
AcDbEntity
  8
1
  6
CONTINUOUS
 62
     4
100
AcDbLine
 10
70.899116
 20
278.256712
 30
0.0
 11
72.899114
 21
278.792611
 31
0.0
  0
LINE
  5
3F5
330
3EF
100
AcDbEntity
  8
1
  6
CONTINUOUS
 62
     4
100
AcDbLine
 10
70.899116
 20
278.256712
 30
0.0
 11
72.899118
 21
277.720814
 31
0.0
  0
LINE
  5
3F6
330
3EF
100
AcDbEntity
  8
1
  6
CONTINUOUS
 62
     4
100
AcDbLine
 10
103.118554
 20
278.256712
 30
0.0
 11
101.118556
 21
277.720814
 31
0.0
  0
LINE
  5
3F7
330
3EF
100
AcDbEntity
  8
1
  6
CONTINUOUS
 62
     4
100
AcDbLine
 10
103.118554
 20
278.256712
 30
0.0
 11
101.118552
 21
278.792611
 31
0.0
  0
ENDBLK
  5
3F9
330
3EF
100
AcDbEntity
  8
0
100
AcDbBlockEnd
  0
BLOCK
  5
404
330
3FB
100
AcDbEntity
  8
0
100
AcDbBlockBegin
  2
DIMNDRAFT3D2
 70
     0
 10
0.0
 20
0.0
 30
0.0
  3
DIMNDRAFT3D2
  1

  0
MTEXT
  5
3FC
330
3FB
100
AcDbEntity
  8
1
  6
CONTINUOUS
 62
     4
100
AcDbMText
 10
213.142323
 20
277.644671
 30
0.0
 40
5.4
 41
0.0
 71
     7
 72
     5
  1
\W01.000;\W00.843;114 
  7
IDEAS_SIMPLEX
1001
ACAD
1000
MTEXTBEGIN
1070
    73
1070
     2
1070
    44
1040
0.722892
1000
MTEXTEND
1000
ACAD_MTEXT_DEFINED_HEIGHT_BEGIN
1070
    46
1040
0.2
1000
ACAD_MTEXT_DEFINED_HEIGHT_END
  0
LINE
  5
3FD
330
3FB
100
AcDbEntity
  8
1
  6
CONTINUOUS
 62
     4
100
AcDbLine
 10
161.353323
 20
257.178006
 30
0.0
 11
161.353323
 21
279.594671
 31
0.0
  0
LINE
  5
3FE
330
3FB
100
AcDbEntity
  8
1
  6
CONTINUOUS
 62
     4
100
AcDbLine
 10
275.353323
 20
257.178006
 30
0.0
 11
275.353323
 21
279.594671
 31
0.0
  0
LINE
  5
3FF
330
3FB
100
AcDbEntity
  8
1
  6
CONTINUOUS
 62
     4
100
AcDbLine
 10
161.353323
 20
278.094671
 30
0.0
 11
275.353323
 21
278.094671
 31
0.0
  0
LINE
  5
400
330
3FB
100
AcDbEntity
  8
1
  6
CONTINUOUS
 62
     4
100
AcDbLine
 10
161.353323
 20
278.094671
 30
0.0
 11
163.353321
 21
278.630569
 31
0.0
  0
LINE
  5
401
330
3FB
100
AcDbEntity
  8
1
  6
CONTINUOUS
 62
     4
100
AcDbLine
 10
161.353323
 20
278.094671
 30
0.0
 11
163.353325
 21
277.558772
 31
0.0
  0
LINE
  5
402
330
3FB
100
AcDbEntity
  8
1
  6
CONTINUOUS
 62
     4
100
AcDbLine
 10
275.353323
 20
278.094671
 30
0.0
 11
273.353325
 21
277.558772
 31
0.0
  0
LINE
  5
403
330
3FB
100
AcDbEntity
  8
1
  6
CONTINUOUS
 62
     4
100
AcDbLine
 10
275.353323
 20
278.094671
 30
0.0
 11
273.353321
 21
278.630569
 31
0.0
  0
ENDBLK
  5
405
330
3FB
100
AcDbEntity
  8
0
100
AcDbBlockEnd
  0
BLOCK
  5
410
330
407
100
AcDbEntity
  8
0
100
AcDbBlockBegin
  2
DIMNDRAFT3D3
 70
     0
 10
0.0
 20
0.0
 30
0.0
  3
DIMNDRAFT3D3
  1

  0
MTEXT
  5
408
330
407
100
AcDbEntity
  8
1
  6
CONTINUOUS
 62
     4
100
AcDbMText
 10
55.374346
 20
227.624359
 30
0.0
 40
5.4
 41
0.0
 71
     7
 72
     5
  1
\W01.000;\W00.838;54 
  7
IDEAS_SIMPLEX
 11
6.123233995736766E-17
 21
1.0
 31
0.0
1001
ACAD
1000
MTEXTBEGIN
1070
    73
1070
     2
1070
    44
1040
0.722892
1000
MTEXTEND
1000
ACAD_MTEXT_DEFINED_HEIGHT_BEGIN
1070
    46
1040
0.2
1000
ACAD_MTEXT_DEFINED_HEIGHT_END
  0
LINE
  5
409
330
407
100
AcDbEntity
  8
1
  6
CONTINUOUS
 62
     4
100
AcDbLine
 10
79.008835
 20
257.758078
 30
0.0
 11
53.424346
 21
257.758078
 31
0.0
  0
LINE
  5
40A
330
407
100
AcDbEntity
  8
1
  6
CONTINUOUS
 62
     4
100
AcDbLine
 10
79.008835
 20
203.53864
 30
0.0
 11
53.424346
 21
203.53864
 31
0.0
  0
LINE
  5
40B
330
407
100
AcDbEntity
  8
1
  6
CONTINUOUS
 62
     4
100
AcDbLine
 10
54.924346
 20
257.758078
 30
0.0
 11
54.924346
 21
203.53864
 31
0.0
  0
LINE
  5
40C
330
407
100
AcDbEntity
  8
1
  6
CONTINUOUS
 62
     4
100
AcDbLine
 10
54.924346
 20
257.758078
 30
0.0
 11
55.460244
 21
255.75808
 31
0.0
  0
LINE
  5
40D
330
407
100
AcDbEntity
  8
1
  6
CONTINUOUS
 62
     4
100
AcDbLine
 10
54.924346
 20
257.758078
 30
0.0
 11
54.388447
 21
255.758076
 31
0.0
  0
LINE
  5
40E
330
407
100
AcDbEntity
  8
1
  6
CONTINUOUS
 62
     4
100
AcDbLine
 10
54.924346
 20
203.53864
 30
0.0
 11
54.388447
 21
205.538638
 31
0.0
  0
LINE
  5
40F
330
407
100
AcDbEntity
  8
1
  6
CONTINUOUS
 62
     4
100
AcDbLine
 10
54.924346
 20
203.53864
 30
0.0
 11
55.460244
 21
205.538642
 31
0.0
  0
ENDBLK
  5
411
330
407
100
AcDbEntity
  8
0
100
AcDbBlockEnd
  0
ENDSEC
  0
SECTION
  2
ENTITIES
  0
LINE
  5
45
330
1F
100
AcDbEntity
  8
1
  6
CONTINUOUS
 62
   251
100
AcDbLine
 10
155.003323
 20
197.18864
 30
0.0
 11
155.003323
 21
264.198384
 31
0.0
  0
LINE
  5
47
330
1F
100
AcDbEntity
  8
1
  6
CONTINUOUS
 62
   251
100
AcDbLine
 10
282.003323
 20
264.198384
 30
0.0
 11
155.003323
 21
264.198384
 31
0.0
  0
LINE
  5
48
330
1F
100
AcDbEntity
  8
1
  6
CONTINUOUS
 62
   251
100
AcDbLine
 10
282.003323
 20
264.198384
 30
0.0
 11
282.003323
 21
197.18864
 31
0.0
  0
LINE
  5
49
330
1F
100
AcDbEntity
  8
1
  6
CONTINUOUS
 62
   251
100
AcDbLine
 10
155.003323
 20
197.18864
 30
0.0
 11
282.003323
 21
197.18864
 31
0.0
  0
LINE
  5
4A
330
1F
100
AcDbEntity
  8
1
  6
CONTINUOUS
 62
   251
100
AcDbLine
 10
155.003323
 20
304.411533
 30
0.0
 11
155.003323
 21
349.330971
 31
0.0
  0
LINE
  5
4B
330
1F
100
AcDbEntity
  8
1
  6
CONTINUOUS
 62
   251
100
AcDbLine
 10
282.003323
 20
349.330971
 30
0.0
 11
155.003323
 21
349.330971
 31
0.0
  0
LINE
  5
4C
330
1F
100
AcDbEntity
  8
1
  6
CONTINUOUS
 62
   251
100
AcDbLine
 10
282.003323
 20
349.330971
 30
0.0
 11
282.003323
 21
304.411533
 31
0.0
  0
LINE
  5
4D
330
1F
100
AcDbEntity
  8
1
  6
CONTINUOUS
 62
   251
100
AcDbLine
 10
155.003323
 20
304.411533
 30
0.0
 11
282.003323
 21
304.411533
 31
0.0
  0
LINE
  5
4E
330
1F
100
AcDbEntity
  8
1
  6
CONTINUOUS
 62
   251
100
AcDbLine
 10
155.003323
 20
104.574269
 30
0.0
 11
155.003323
 21
149.493707
 31
0.0
  0
LINE
  5
4F
330
1F
100
AcDbEntity
  8
1
  6
CONTINUOUS
 62
   251
100
AcDbLine
 10
282.003323
 20
149.493707
 30
0.0
 11
155.003323
 21
149.493707
 31
0.0
  0
LINE
  5
50
330
1F
100
AcDbEntity
  8
1
  6
CONTINUOUS
 62
   251
100
AcDbLine
 10
282.003323
 20
149.493707
 30
0.0
 11
282.003323
 21
104.574269
 31
0.0
  0
LINE
  5
51
330
1F
100
AcDbEntity
  8
1
  6
CONTINUOUS
 62
   251
100
AcDbLine
 10
155.003323
 20
104.574269
 30
0.0
 11
282.003323
 21
104.574269
 31
0.0
  0
LINE
  5
52
330
1F
100
AcDbEntity
  8
1
  6
CONTINUOUS
 62
   251
100
AcDbLine
 10
64.549116
 20
197.18864
 30
0.0
 11
64.549116
 21
264.198384
 31
0.0
  0
LINE
  5
53
330
1F
100
AcDbEntity
  8
1
  6
CONTINUOUS
 62
   251
100
AcDbLine
 10
109.468554
 20
264.198384
 30
0.0
 11
64.549116
 21
264.198384
 31
0.0
  0
LINE
  5
54
330
1F
100
AcDbEntity
  8
1
  6
CONTINUOUS
 62
   251
100
AcDbLine
 10
109.468554
 20
264.198384
 30
0.0
 11
109.468554
 21
197.18864
 31
0.0
  0
LINE
  5
55
330
1F
100
AcDbEntity
  8
1
  6
CONTINUOUS
 62
   251
100
AcDbLine
 10
64.549116
 20
197.18864
 30
0.0
 11
109.468554
 21
197.18864
 31
0.0
  0
LINE
  5
56
330
1F
100
AcDbEntity
  8
1
  6
CONTINUOUS
 62
   251
100
AcDbLine
 10
322.884207
 20
197.18864
 30
0.0
 11
322.884207
 21
264.198384
 31
0.0
  0
LINE
  5
57
330
1F
100
AcDbEntity
  8
1
  6
CONTINUOUS
 62
   251
100
AcDbLine
 10
367.803645
 20
264.198384
 30
0.0
 11
322.884207
 21
264.198384
 31
0.0
  0
LINE
  5
58
330
1F
100
AcDbEntity
  8
1
  6
CONTINUOUS
 62
   251
100
AcDbLine
 10
367.803645
 20
264.198384
 30
0.0
 11
367.803645
 21
197.18864
 31
0.0
  0
LINE
  5
59
330
1F
100
AcDbEntity
  8
1
  6
CONTINUOUS
 62
   251
100
AcDbLine
 10
322.884207
 20
197.18864
 30
0.0
 11
367.803645
 21
197.18864
 31
0.0
  0
LINE
  5
5A
330
1F
100
AcDbEntity
  8
1
  6
CONTINUOUS
 62
   251
100
AcDbLine
 10
424.212692
 20
197.18864
 30
0.0
 11
424.212692
 21
264.198384
 31
0.0
  0
LINE
  5
5B
330
1F
100
AcDbEntity
  8
1
  6
CONTINUOUS
 62
   251
100
AcDbLine
 10
551.212692
 20
264.198384
 30
0.0
 11
424.212692
 21
264.198384
 31
0.0
  0
LINE
  5
5C
330
1F
100
AcDbEntity
  8
1
  6
CONTINUOUS
 62
   251
100
AcDbLine
 10
551.212692
 20
264.198384
 30
0.0
 11
551.212692
 21
197.18864
 31
0.0
  0
LINE
  5
5D
330
1F
100
AcDbEntity
  8
1
  6
CONTINUOUS
 62
   251
100
AcDbLine
 10
424.212692
 20
197.18864
 30
0.0
 11
551.212692
 21
197.18864
 31
0.0
  0
LINE
  5
5E
330
1F
100
AcDbEntity
  8
1
  6
CONTINUOUS
 62
   251
 60
     1
100
AcDbLine
 10
0.0
 20
0.0
 30
0.0
 11
0.0
 21
420.0
 31
0.0
  0
LINE
  5
5F
330
1F
100
AcDbEntity
  8
1
  6
CONTINUOUS
 62
   251
 60
     1
100
AcDbLine
 10
594.0
 20
420.0
 30
0.0
 11
0.0
 21
420.0
 31
0.0
  0
LINE
  5
60
330
1F
100
AcDbEntity
  8
1
  6
CONTINUOUS
 62
   251
 60
     1
100
AcDbLine
 10
594.0
 20
420.0
 30
0.0
 11
594.0
 21
0.0
 31
0.0
  0
LINE
  5
61
330
1F
100
AcDbEntity
  8
1
  6
CONTINUOUS
 62
   251
 60
     1
100
AcDbLine
 10
0.0
 20
0.0
 30
0.0
 11
594.0
 21
0.0
 31
0.0
  0
LINE
  5
62
330
1F
100
AcDbEntity
  8
1
  6
CONTINUOUS
 62
   151
100
AcDbLine
 10
275.353309
 20
254.098359
 30
0.0
 11
275.453323
 21
254.098359
 31
0.0
  0
LINE
  5
63
330
1F
100
AcDbEntity
  8
1
  6
CONTINUOUS
 62
   151
100
AcDbLine
 10
275.353309
 20
238.098359
 30
0.0
 11
275.453323
 21
238.098359
 31
0.0
  0
LINE
  5
64
330
1F
100
AcDbEntity
  8
1
  6
CONTINUOUS
 62
   250
100
AcDbLine
 10
163.353323
 20
212.748578
 30
0.0
 11
163.353323
 21
211.648359
 31
0.0
  0
LINE
  5
65
330
1F
100
AcDbEntity
  8
1
  6
CONTINUOUS
 62
   250
100
AcDbLine
 10
163.141113
 20
203.539013
 30
0.0
 11
161.822799
 21
203.619645
 31
0.0
  0
LINE
  5
66
330
1F
100
AcDbEntity
  8
1
  6
CONTINUOUS
 62
   250
100
AcDbLine
 10
161.822799
 20
257.677073
 30
0.0
 11
163.141113
 21
257.757705
 31
0.0
  0
LINE
  5
67
330
1F
100
AcDbEntity
  8
1
  6
CONTINUOUS
 62
   151
100
AcDbLine
 10
232.586557
 20
257.665125
 30
0.0
 11
232.503323
 21
257.748359
 31
0.0
  0
LINE
  5
68
330
1F
100
AcDbEntity
  8
1
  6
CONTINUOUS
 62
   151
100
AcDbLine
 10
224.203323
 20
257.748359
 30
0.0
 11
224.120089
 21
257.665125
 31
0.0
  0
LINE
  5
69
330
1F
100
AcDbEntity
  8
1
  6
CONTINUOUS
 62
     7
100
AcDbLine
 10
178.103323
 20
215.648359
 30
0.0
 11
178.603323
 21
215.648359
 31
0.0
  0
LINE
  5
6A
330
1F
100
AcDbEntity
  8
1
  6
CONTINUOUS
 62
     7
100
AcDbLine
 10
178.603323
 20
215.648359
 30
0.0
 11
178.603323
 21
215.398359
 31
0.0
  0
LINE
  5
6B
330
1F
100
AcDbEntity
  8
1
  6
CONTINUOUS
 62
     9
100
AcDbLine
 10
273.053323
 20
212.448359
 30
0.0
 11
163.653323
 21
212.448359
 31
0.0
  0
LINE
  5
6C
330
1F
100
AcDbEntity
  8
1
  6
CONTINUOUS
 62
     9
100
AcDbLine
 10
273.353323
 20
257.648359
 30
0.0
 11
163.353323
 21
257.648359
 31
0.0
  0
LINE
  5
6D
330
1F
100
AcDbEntity
  8
1
  6
CONTINUOUS
 62
     9
100
AcDbLine
 10
221.674639
 20
257.848359
 30
0.0
 11
221.674639
 21
257.648359
 31
0.0
  0
LINE
  5
6E
330
1F
100
AcDbEntity
  8
1
  6
CONTINUOUS
 62
     9
100
AcDbLine
 10
235.032007
 20
257.648359
 30
0.0
 11
235.032007
 21
257.848359
 31
0.0
  0
LINE
  5
6F
330
1F
100
AcDbEntity
  8
1
  6
CONTINUOUS
 62
     9
100
AcDbLine
 10
224.120087
 20
257.648359
 30
0.0
 11
224.120087
 21
257.848359
 31
0.0
  0
LINE
  5
70
330
1F
100
AcDbEntity
  8
1
  6
CONTINUOUS
 62
     9
100
AcDbLine
 10
232.586559
 20
257.848359
 30
0.0
 11
232.586559
 21
257.648359
 31
0.0
  0
LINE
  5
71
330
1F
100
AcDbEntity
  8
1
  6
CONTINUOUS
 62
    53
100
AcDbLine
 10
273.353323
 20
211.648359
 30
0.0
 11
273.353323
 21
212.748411
 31
0.0
  0
LINE
  5
72
330
1F
100
AcDbEntity
  8
1
  6
CONTINUOUS
 62
    53
100
AcDbLine
 10
274.883847
 20
203.619645
 30
0.0
 11
273.565533
 21
203.539013
 31
0.0
  0
LINE
  5
73
330
1F
100
AcDbEntity
  8
1
  6
CONTINUOUS
 62
    53
100
AcDbLine
 10
274.883847
 20
257.677073
 30
0.0
 11
273.565533
 21
257.757705
 31
0.0
  0
LINE
  5
74
330
1F
100
AcDbEntity
  8
1
  6
CONTINUOUS
 62
     7
100
AcDbLine
 10
258.103323
 20
215.398359
 30
0.0
 11
258.103323
 21
215.648359
 31
0.0
  0
LINE
  5
75
330
1F
100
AcDbEntity
  8
1
  6
CONTINUOUS
 62
     7
100
AcDbLine
 10
257.853323
 20
215.398359
 30
0.0
 11
258.103323
 21
215.398359
 31
0.0
  0
LINE
  5
76
330
1F
100
AcDbEntity
  8
1
  6
CONTINUOUS
 62
     7
100
AcDbLine
 10
257.853323
 20
214.898359
 30
0.0
 11
257.853323
 21
215.398359
 31
0.0
  0
LINE
  5
77
330
1F
100
AcDbEntity
  8
1
  6
CONTINUOUS
 62
     7
100
AcDbLine
 10
258.103323
 20
214.898359
 30
0.0
 11
257.853323
 21
214.898359
 31
0.0
  0
LINE
  5
78
330
1F
100
AcDbEntity
  8
1
  6
CONTINUOUS
 62
     7
100
AcDbLine
 10
258.103323
 20
214.648359
 30
0.0
 11
258.103323
 21
214.898359
 31
0.0
  0
LINE
  5
79
330
1F
100
AcDbEntity
  8
1
  6
CONTINUOUS
 62
     7
100
AcDbLine
 10
258.603323
 20
214.648359
 30
0.0
 11
258.103323
 21
214.648359
 31
0.0
  0
LINE
  5
7A
330
1F
100
AcDbEntity
  8
1
  6
CONTINUOUS
 62
     7
100
AcDbLine
 10
258.603323
 20
214.898359
 30
0.0
 11
258.603323
 21
214.648359
 31
0.0
  0
LINE
  5
7B
330
1F
100
AcDbEntity
  8
1
  6
CONTINUOUS
 62
     7
100
AcDbLine
 10
258.853323
 20
214.898359
 30
0.0
 11
258.603323
 21
214.898359
 31
0.0
  0
LINE
  5
7C
330
1F
100
AcDbEntity
  8
1
  6
CONTINUOUS
 62
     7
100
AcDbLine
 10
258.853323
 20
215.398359
 30
0.0
 11
258.853323
 21
214.898359
 31
0.0
  0
LINE
  5
7D
330
1F
100
AcDbEntity
  8
1
  6
CONTINUOUS
 62
     7
100
AcDbLine
 10
258.603323
 20
215.398359
 30
0.0
 11
258.853323
 21
215.398359
 31
0.0
  0
LINE
  5
7E
330
1F
100
AcDbEntity
  8
1
  6
CONTINUOUS
 62
     7
100
AcDbLine
 10
258.603323
 20
215.648359
 30
0.0
 11
258.603323
 21
215.398359
 31
0.0
  0
LINE
  5
7F
330
1F
100
AcDbEntity
  8
1
  6
CONTINUOUS
 62
     7
100
AcDbLine
 10
258.103323
 20
215.648359
 30
0.0
 11
258.603323
 21
215.648359
 31
0.0
  0
LINE
  5
80
330
1F
100
AcDbEntity
  8
1
  6
CONTINUOUS
 62
     7
100
AcDbLine
 10
273.353323
 20
212.248359
 30
0.0
 11
163.353323
 21
212.248359
 31
0.0
  0
LINE
  5
81
330
1F
100
AcDbEntity
  8
1
  6
CONTINUOUS
 62
     7
100
AcDbLine
 10
273.353323
 20
203.648359
 30
0.0
 11
163.353323
 21
203.648359
 31
0.0
  0
LINE
  5
82
330
1F
100
AcDbEntity
  8
1
  6
CONTINUOUS
 62
   150
100
AcDbLine
 10
275.353323
 20
229.998359
 30
0.0
 11
275.353323
 21
227.598359
 31
0.0
  0
LINE
  5
83
330
1F
100
AcDbEntity
  8
1
  6
CONTINUOUS
 62
   150
100
AcDbLine
 10
274.883847
 20
227.598359
 30
0.0
 11
274.883847
 21
229.998359
 31
0.0
  0
LINE
  5
84
330
1F
100
AcDbEntity
  8
1
  6
CONTINUOUS
 62
     7
100
AcDbLine
 10
178.103323
 20
215.398359
 30
0.0
 11
178.103323
 21
215.648359
 31
0.0
  0
LINE
  5
85
330
1F
100
AcDbEntity
  8
1
  6
CONTINUOUS
 62
     7
100
AcDbLine
 10
177.853323
 20
215.398359
 30
0.0
 11
178.103323
 21
215.398359
 31
0.0
  0
LINE
  5
86
330
1F
100
AcDbEntity
  8
1
  6
CONTINUOUS
 62
     7
100
AcDbLine
 10
177.853323
 20
214.898359
 30
0.0
 11
177.853323
 21
215.398359
 31
0.0
  0
LINE
  5
87
330
1F
100
AcDbEntity
  8
1
  6
CONTINUOUS
 62
     7
100
AcDbLine
 10
178.103323
 20
214.898359
 30
0.0
 11
177.853323
 21
214.898359
 31
0.0
  0
LINE
  5
88
330
1F
100
AcDbEntity
  8
1
  6
CONTINUOUS
 62
     7
100
AcDbLine
 10
178.103323
 20
214.648359
 30
0.0
 11
178.103323
 21
214.898359
 31
0.0
  0
LINE
  5
89
330
1F
100
AcDbEntity
  8
1
  6
CONTINUOUS
 62
     7
100
AcDbLine
 10
178.603323
 20
214.648359
 30
0.0
 11
178.103323
 21
214.648359
 31
0.0
  0
LINE
  5
8A
330
1F
100
AcDbEntity
  8
1
  6
CONTINUOUS
 62
     7
100
AcDbLine
 10
178.603323
 20
214.898359
 30
0.0
 11
178.603323
 21
214.648359
 31
0.0
  0
LINE
  5
8B
330
1F
100
AcDbEntity
  8
1
  6
CONTINUOUS
 62
     7
100
AcDbLine
 10
178.853323
 20
214.898359
 30
0.0
 11
178.603323
 21
214.898359
 31
0.0
  0
LINE
  5
8C
330
1F
100
AcDbEntity
  8
1
  6
CONTINUOUS
 62
     7
100
AcDbLine
 10
178.853323
 20
215.398359
 30
0.0
 11
178.853323
 21
214.898359
 31
0.0
  0
LINE
  5
8D
330
1F
100
AcDbEntity
  8
1
  6
CONTINUOUS
 62
     7
100
AcDbLine
 10
178.603323
 20
215.398359
 30
0.0
 11
178.853323
 21
215.398359
 31
0.0
  0
LINE
  5
8E
330
1F
100
AcDbEntity
  8
1
  6
CONTINUOUS
 62
   150
100
AcDbLine
 10
273.565533
 20
229.998359
 30
0.0
 11
273.565533
 21
227.598359
 31
0.0
  0
LINE
  5
8F
330
1F
100
AcDbEntity
  8
1
  6
CONTINUOUS
 62
     9
100
AcDbLine
 10
273.353323
 20
249.648359
 30
0.0
 11
163.353323
 21
249.648359
 31
0.0
  0
LINE
  5
90
330
1F
100
AcDbEntity
  8
1
  6
CONTINUOUS
 62
     9
100
AcDbLine
 10
222.274639
 20
257.648359
 30
0.0
 11
222.274639
 21
257.848359
 31
0.0
  0
LINE
  5
91
330
1F
100
AcDbEntity
  8
1
  6
CONTINUOUS
 62
     9
100
AcDbLine
 10
234.432007
 20
257.648359
 30
0.0
 11
234.432007
 21
257.848359
 31
0.0
  0
LINE
  5
92
330
1F
100
AcDbEntity
  8
1
  6
CONTINUOUS
 62
     9
100
AcDbLine
 10
232.786559
 20
257.648359
 30
0.0
 11
232.786559
 21
257.848359
 31
0.0
  0
LINE
  5
93
330
1F
100
AcDbEntity
  8
1
  6
CONTINUOUS
 62
     9
100
AcDbLine
 10
223.920087
 20
257.648359
 30
0.0
 11
223.920087
 21
257.848359
 31
0.0
  0
LINE
  5
94
330
1F
100
AcDbEntity
  8
1
  6
CONTINUOUS
 62
     7
100
AcDbLine
 10
273.353323
 20
211.648359
 30
0.0
 11
163.353323
 21
211.648359
 31
0.0
  0
LINE
  5
95
330
1F
100
AcDbEntity
  8
1
  6
CONTINUOUS
 62
     7
100
AcDbLine
 10
235.903323
 20
327.121252
 30
0.0
 11
235.903323
 21
327.371252
 31
0.0
  0
LINE
  5
96
330
1F
100
AcDbEntity
  8
1
  6
CONTINUOUS
 62
     7
100
AcDbLine
 10
235.653323
 20
327.121252
 30
0.0
 11
235.903323
 21
327.121252
 31
0.0
  0
LINE
  5
97
330
1F
100
AcDbEntity
  8
1
  6
CONTINUOUS
 62
     7
100
AcDbLine
 10
235.653323
 20
326.621252
 30
0.0
 11
235.653323
 21
327.121252
 31
0.0
  0
LINE
  5
98
330
1F
100
AcDbEntity
  8
1
  6
CONTINUOUS
 62
     7
100
AcDbLine
 10
235.903323
 20
326.621252
 30
0.0
 11
235.653323
 21
326.621252
 31
0.0
  0
LINE
  5
99
330
1F
100
AcDbEntity
  8
1
  6
CONTINUOUS
 62
     7
100
AcDbLine
 10
235.903323
 20
326.371252
 30
0.0
 11
235.903323
 21
326.621252
 31
0.0
  0
LINE
  5
9A
330
1F
100
AcDbEntity
  8
1
  6
CONTINUOUS
 62
     7
100
AcDbLine
 10
236.403323
 20
326.371252
 30
0.0
 11
235.903323
 21
326.371252
 31
0.0
  0
LINE
  5
9B
330
1F
100
AcDbEntity
  8
1
  6
CONTINUOUS
 62
     7
100
AcDbLine
 10
236.403323
 20
326.621252
 30
0.0
 11
236.403323
 21
326.371252
 31
0.0
  0
LINE
  5
9C
330
1F
100
AcDbEntity
  8
1
  6
CONTINUOUS
 62
     7
100
AcDbLine
 10
236.653323
 20
326.621252
 30
0.0
 11
236.403323
 21
326.621252
 31
0.0
  0
LINE
  5
9D
330
1F
100
AcDbEntity
  8
1
  6
CONTINUOUS
 62
     7
100
AcDbLine
 10
236.653323
 20
327.121252
 30
0.0
 11
236.653323
 21
326.621252
 31
0.0
  0
LINE
  5
9E
330
1F
100
AcDbEntity
  8
1
  6
CONTINUOUS
 62
     7
100
AcDbLine
 10
236.403323
 20
327.121252
 30
0.0
 11
236.653323
 21
327.121252
 31
0.0
  0
LINE
  5
9F
330
1F
100
AcDbEntity
  8
1
  6
CONTINUOUS
 62
     7
100
AcDbLine
 10
236.403323
 20
327.371252
 30
0.0
 11
236.403323
 21
327.121252
 31
0.0
  0
LINE
  5
A0
330
1F
100
AcDbEntity
  8
1
  6
CONTINUOUS
 62
     7
100
AcDbLine
 10
235.903323
 20
327.371252
 30
0.0
 11
236.403323
 21
327.371252
 31
0.0
  0
LINE
  5
A1
330
1F
100
AcDbEntity
  8
1
  6
CONTINUOUS
 62
   151
100
AcDbLine
 10
275.353309
 20
314.621252
 30
0.0
 11
275.453323
 21
314.621252
 31
0.0
  0
LINE
  5
A2
330
1F
100
AcDbEntity
  8
1
  6
CONTINUOUS
 62
   151
100
AcDbLine
 10
275.353309
 20
322.021252
 30
0.0
 11
275.453323
 21
322.021252
 31
0.0
  0
LINE
  5
A3
330
1F
100
AcDbEntity
  8
1
  6
CONTINUOUS
 62
   250
100
AcDbLine
 10
163.353323
 20
329.471002
 30
0.0
 11
163.353323
 21
324.271252
 31
0.0
  0
LINE
  5
A4
330
1F
100
AcDbEntity
  8
1
  6
CONTINUOUS
 62
   250
100
AcDbLine
 10
163.141113
 20
310.761906
 30
0.0
 11
161.822799
 21
310.842538
 31
0.0
  0
LINE
  5
A5
330
1F
100
AcDbEntity
  8
1
  6
CONTINUOUS
 62
   250
100
AcDbLine
 10
161.822799
 20
342.899966
 30
0.0
 11
163.141113
 21
342.980598
 31
0.0
  0
LINE
  5
A6
330
1F
100
AcDbEntity
  8
1
  6
CONTINUOUS
 62
   250
100
AcDbLine
 10
164.353323
 20
329.471252
 30
0.0
 11
164.353323
 21
329.171252
 31
0.0
  0
LINE
  5
A7
330
1F
100
AcDbEntity
  8
1
  6
CONTINUOUS
 62
   250
100
AcDbLine
 10
164.353323
 20
329.171252
 30
0.0
 11
163.553323
 21
329.171252
 31
0.0
  0
LINE
  5
A8
330
1F
100
AcDbEntity
  8
1
  6
CONTINUOUS
 62
   250
100
AcDbLine
 10
163.553323
 20
324.571252
 30
0.0
 11
164.353323
 21
324.571252
 31
0.0
  0
LINE
  5
A9
330
1F
100
AcDbEntity
  8
1
  6
CONTINUOUS
 62
   250
100
AcDbLine
 10
164.353323
 20
324.571252
 30
0.0
 11
164.353323
 21
324.271252
 31
0.0
  0
LINE
  5
AA
330
1F
100
AcDbEntity
  8
1
  6
CONTINUOUS
 62
   250
100
AcDbLine
 10
164.353323
 20
328.871251
 30
0.0
 11
164.353323
 21
328.971252
 31
0.0
  0
LINE
  5
AB
330
1F
100
AcDbEntity
  8
1
  6
CONTINUOUS
 62
   250
100
AcDbLine
 10
164.353323
 20
324.771252
 30
0.0
 11
164.353323
 21
324.871253
 31
0.0
  0
LINE
  5
AC
330
1F
100
AcDbEntity
  8
1
  6
CONTINUOUS
 62
     9
100
AcDbLine
 10
234.432007
 20
330.842662
 30
0.0
 11
232.786559
 21
329.892662
 31
0.0
  0
LINE
  5
AD
330
1F
100
AcDbEntity
  8
1
  6
CONTINUOUS
 62
     9
100
AcDbLine
 10
233.186559
 20
329.199842
 30
0.0
 11
234.832007
 21
330.149842
 31
0.0
  0
LINE
  5
AE
330
1F
100
AcDbEntity
  8
1
  6
CONTINUOUS
 62
     9
100
AcDbLine
 10
221.874639
 20
323.592662
 30
0.0
 11
223.520087
 21
324.542662
 31
0.0
  0
LINE
  5
AF
330
1F
100
AcDbEntity
  8
1
  6
CONTINUOUS
 62
     9
100
AcDbLine
 10
223.920087
 20
323.849842
 30
0.0
 11
222.274639
 21
322.899842
 31
0.0
  0
LINE
  5
B0
330
1F
100
AcDbEntity
  8
1
  6
CONTINUOUS
 62
     9
100
AcDbLine
 10
234.432007
 20
322.899842
 30
0.0
 11
232.786559
 21
323.849842
 31
0.0
  0
LINE
  5
B1
330
1F
100
AcDbEntity
  8
1
  6
CONTINUOUS
 62
     9
100
AcDbLine
 10
233.186559
 20
324.542662
 30
0.0
 11
234.832007
 21
323.592662
 31
0.0
  0
LINE
  5
B2
330
1F
100
AcDbEntity
  8
1
  6
CONTINUOUS
 62
     9
100
AcDbLine
 10
221.874639
 20
330.149842
 30
0.0
 11
223.520087
 21
329.199842
 31
0.0
  0
LINE
  5
B3
330
1F
100
AcDbEntity
  8
1
  6
CONTINUOUS
 62
     9
100
AcDbLine
 10
223.920087
 20
329.892662
 30
0.0
 11
222.274639
 21
330.842662
 31
0.0
  0
LINE
  5
B4
330
1F
100
AcDbEntity
  8
1
  6
CONTINUOUS
 62
     9
100
AcDbLine
 10
272.253323
 20
324.271252
 30
0.0
 11
273.353323
 21
324.271252
 31
0.0
  0
LINE
  5
B5
330
1F
100
AcDbEntity
  8
1
  6
CONTINUOUS
 62
     9
100
AcDbLine
 10
273.353323
 20
318.871252
 30
0.0
 11
163.353323
 21
318.871252
 31
0.0
  0
LINE
  5
B6
330
1F
100
AcDbEntity
  8
1
  6
CONTINUOUS
 62
     9
100
AcDbLine
 10
163.353323
 20
324.271252
 30
0.0
 11
164.453323
 21
324.271252
 31
0.0
  0
LINE
  5
B7
330
1F
100
AcDbEntity
  8
1
  6
CONTINUOUS
 62
     9
100
AcDbLine
 10
164.453323
 20
324.271252
 30
0.0
 11
164.453323
 21
324.871252
 31
0.0
  0
LINE
  5
B8
330
1F
100
AcDbEntity
  8
1
  6
CONTINUOUS
 62
     9
100
AcDbLine
 10
163.953323
 20
328.871252
 30
0.0
 11
163.953323
 21
324.871252
 31
0.0
  0
LINE
  5
B9
330
1F
100
AcDbEntity
  8
1
  6
CONTINUOUS
 62
     9
100
AcDbLine
 10
164.453323
 20
328.871252
 30
0.0
 11
164.453323
 21
329.471252
 31
0.0
  0
LINE
  5
BA
330
1F
100
AcDbEntity
  8
1
  6
CONTINUOUS
 62
     9
100
AcDbLine
 10
164.453323
 20
329.471252
 30
0.0
 11
163.353323
 21
329.471252
 31
0.0
  0
LINE
  5
BB
330
1F
100
AcDbEntity
  8
1
  6
CONTINUOUS
 62
     9
100
AcDbLine
 10
273.353323
 20
334.871252
 30
0.0
 11
163.353323
 21
334.871252
 31
0.0
  0
LINE
  5
BC
330
1F
100
AcDbEntity
  8
1
  6
CONTINUOUS
 62
     9
100
AcDbLine
 10
273.353323
 20
329.471252
 30
0.0
 11
272.253323
 21
329.471252
 31
0.0
  0
LINE
  5
BD
330
1F
100
AcDbEntity
  8
1
  6
CONTINUOUS
 62
     9
100
AcDbLine
 10
272.253323
 20
329.471252
 30
0.0
 11
272.253323
 21
328.871252
 31
0.0
  0
LINE
  5
BE
330
1F
100
AcDbEntity
  8
1
  6
CONTINUOUS
 62
     9
100
AcDbLine
 10
272.753323
 20
328.871252
 30
0.0
 11
272.753323
 21
324.871252
 31
0.0
  0
LINE
  5
BF
330
1F
100
AcDbEntity
  8
1
  6
CONTINUOUS
 62
     9
100
AcDbLine
 10
272.253323
 20
324.871252
 30
0.0
 11
272.253323
 21
324.271252
 31
0.0
  0
LINE
  5
C0
330
1F
100
AcDbEntity
  8
1
  6
CONTINUOUS
 62
     9
100
AcDbLine
 10
273.353323
 20
342.871252
 30
0.0
 11
163.353323
 21
342.871252
 31
0.0
  0
LINE
  5
C1
330
1F
100
AcDbEntity
  8
1
  6
CONTINUOUS
 62
     9
100
AcDbLine
 10
273.353323
 20
310.871252
 30
0.0
 11
163.353323
 21
310.871252
 31
0.0
  0
LINE
  5
C2
330
1F
100
AcDbEntity
  8
1
  6
CONTINUOUS
 62
    53
100
AcDbLine
 10
273.353323
 20
324.271502
 30
0.0
 11
273.353323
 21
329.471252
 31
0.0
  0
LINE
  5
C3
330
1F
100
AcDbEntity
  8
1
  6
CONTINUOUS
 62
    53
100
AcDbLine
 10
274.883847
 20
342.899966
 30
0.0
 11
273.565533
 21
342.980598
 31
0.0
  0
LINE
  5
C4
330
1F
100
AcDbEntity
  8
1
  6
CONTINUOUS
 62
    53
100
AcDbLine
 10
274.883847
 20
310.842538
 30
0.0
 11
273.565533
 21
310.761906
 31
0.0
  0
LINE
  5
C5
330
1F
100
AcDbEntity
  8
1
  6
CONTINUOUS
 62
    53
100
AcDbLine
 10
273.153323
 20
329.171252
 30
0.0
 11
272.253331
 21
329.171252
 31
0.0
  0
LINE
  5
C6
330
1F
100
AcDbEntity
  8
1
  6
CONTINUOUS
 62
    53
100
AcDbLine
 10
272.253331
 20
324.571252
 30
0.0
 11
273.153323
 21
324.571252
 31
0.0
  0
LINE
  5
C7
330
1F
100
AcDbEntity
  8
1
  6
CONTINUOUS
 62
    53
100
AcDbLine
 10
272.353323
 20
328.971252
 30
0.0
 11
272.353323
 21
328.871251
 31
0.0
  0
LINE
  5
C8
330
1F
100
AcDbEntity
  8
1
  6
CONTINUOUS
 62
    53
100
AcDbLine
 10
272.353323
 20
324.871253
 30
0.0
 11
272.353323
 21
324.771252
 31
0.0
  0
LINE
  5
C9
330
1F
100
AcDbEntity
  8
1
  6
CONTINUOUS
 62
     7
100
AcDbLine
 10
220.303323
 20
327.121252
 30
0.0
 11
220.303323
 21
327.371252
 31
0.0
  0
LINE
  5
CA
330
1F
100
AcDbEntity
  8
1
  6
CONTINUOUS
 62
     7
100
AcDbLine
 10
220.053323
 20
327.121252
 30
0.0
 11
220.303323
 21
327.121252
 31
0.0
  0
LINE
  5
CB
330
1F
100
AcDbEntity
  8
1
  6
CONTINUOUS
 62
     7
100
AcDbLine
 10
220.053323
 20
326.621252
 30
0.0
 11
220.053323
 21
327.121252
 31
0.0
  0
LINE
  5
CC
330
1F
100
AcDbEntity
  8
1
  6
CONTINUOUS
 62
     7
100
AcDbLine
 10
220.303323
 20
326.621252
 30
0.0
 11
220.053323
 21
326.621252
 31
0.0
  0
LINE
  5
CD
330
1F
100
AcDbEntity
  8
1
  6
CONTINUOUS
 62
     7
100
AcDbLine
 10
220.303323
 20
326.371252
 30
0.0
 11
220.303323
 21
326.621252
 31
0.0
  0
LINE
  5
CE
330
1F
100
AcDbEntity
  8
1
  6
CONTINUOUS
 62
     7
100
AcDbLine
 10
220.803323
 20
326.371252
 30
0.0
 11
220.303323
 21
326.371252
 31
0.0
  0
LINE
  5
CF
330
1F
100
AcDbEntity
  8
1
  6
CONTINUOUS
 62
     7
100
AcDbLine
 10
220.803323
 20
326.621252
 30
0.0
 11
220.803323
 21
326.371252
 31
0.0
  0
LINE
  5
D0
330
1F
100
AcDbEntity
  8
1
  6
CONTINUOUS
 62
     7
100
AcDbLine
 10
221.053323
 20
326.621252
 30
0.0
 11
220.803323
 21
326.621252
 31
0.0
  0
LINE
  5
D1
330
1F
100
AcDbEntity
  8
1
  6
CONTINUOUS
 62
     7
100
AcDbLine
 10
221.053323
 20
327.121252
 30
0.0
 11
221.053323
 21
326.621252
 31
0.0
  0
LINE
  5
D2
330
1F
100
AcDbEntity
  8
1
  6
CONTINUOUS
 62
     7
100
AcDbLine
 10
220.803323
 20
327.121252
 30
0.0
 11
221.053323
 21
327.121252
 31
0.0
  0
LINE
  5
D3
330
1F
100
AcDbEntity
  8
1
  6
CONTINUOUS
 62
     7
100
AcDbLine
 10
220.803323
 20
327.371252
 30
0.0
 11
220.803323
 21
327.121252
 31
0.0
  0
LINE
  5
D4
330
1F
100
AcDbEntity
  8
1
  6
CONTINUOUS
 62
     7
100
AcDbLine
 10
220.303323
 20
327.371252
 30
0.0
 11
220.803323
 21
327.371252
 31
0.0
  0
LINE
  5
D5
330
1F
100
AcDbEntity
  8
1
  6
CONTINUOUS
 62
   151
100
AcDbLine
 10
275.353309
 20
131.883988
 30
0.0
 11
275.453323
 21
131.883988
 31
0.0
  0
LINE
  5
D6
330
1F
100
AcDbEntity
  8
1
  6
CONTINUOUS
 62
   151
100
AcDbLine
 10
275.353309
 20
139.283988
 30
0.0
 11
275.453323
 21
139.283988
 31
0.0
  0
LINE
  5
D7
330
1F
100
AcDbEntity
  8
1
  6
CONTINUOUS
 62
   250
100
AcDbLine
 10
163.353323
 20
129.633738
 30
0.0
 11
163.353323
 21
124.433988
 31
0.0
  0
LINE
  5
D8
330
1F
100
AcDbEntity
  8
1
  6
CONTINUOUS
 62
   250
100
AcDbLine
 10
161.822799
 20
143.062703
 30
0.0
 11
163.141113
 21
143.143334
 31
0.0
  0
LINE
  5
D9
330
1F
100
AcDbEntity
  8
1
  6
CONTINUOUS
 62
   250
100
AcDbLine
 10
163.141113
 20
110.924642
 30
0.0
 11
161.822799
 21
111.005274
 31
0.0
  0
LINE
  5
DA
330
1F
100
AcDbEntity
  8
1
  6
CONTINUOUS
 62
   250
100
AcDbLine
 10
164.153323
 20
124.533988
 30
0.0
 11
163.553323
 21
124.533988
 31
0.0
  0
LINE
  5
DB
330
1F
100
AcDbEntity
  8
1
  6
CONTINUOUS
 62
   250
100
AcDbLine
 10
163.553323
 20
129.533988
 30
0.0
 11
164.153323
 21
129.533988
 31
0.0
  0
LINE
  5
DC
330
1F
100
AcDbEntity
  8
1
  6
CONTINUOUS
 62
   250
100
AcDbLine
 10
164.153323
 20
129.333988
 30
0.0
 11
163.553323
 21
129.333988
 31
0.0
  0
LINE
  5
DD
330
1F
100
AcDbEntity
  8
1
  6
CONTINUOUS
 62
   250
100
AcDbLine
 10
164.353323
 20
129.033988
 30
0.0
 11
164.353323
 21
129.133988
 31
0.0
  0
LINE
  5
DE
330
1F
100
AcDbEntity
  8
1
  6
CONTINUOUS
 62
   250
100
AcDbLine
 10
164.353323
 20
124.933988
 30
0.0
 11
164.353323
 21
125.033989
 31
0.0
  0
LINE
  5
DF
330
1F
100
AcDbEntity
  8
1
  6
CONTINUOUS
 62
   250
100
AcDbLine
 10
163.553323
 20
124.733988
 30
0.0
 11
164.153323
 21
124.733988
 31
0.0
  0
LINE
  5
E0
330
1F
100
AcDbEntity
  8
1
  6
CONTINUOUS
 62
    53
100
AcDbLine
 10
273.353323
 20
124.433988
 30
0.0
 11
273.353323
 21
129.633738
 31
0.0
  0
LINE
  5
E1
330
1F
100
AcDbEntity
  8
1
  6
CONTINUOUS
 62
    53
100
AcDbLine
 10
274.883847
 20
143.062703
 30
0.0
 11
273.565533
 21
143.143334
 31
0.0
  0
LINE
  5
E2
330
1F
100
AcDbEntity
  8
1
  6
CONTINUOUS
 62
    53
100
AcDbLine
 10
274.883847
 20
111.005274
 30
0.0
 11
273.565533
 21
110.924642
 31
0.0
  0
LINE
  5
E3
330
1F
100
AcDbEntity
  8
1
  6
CONTINUOUS
 62
    53
100
AcDbLine
 10
272.553323
 20
129.533988
 30
0.0
 11
273.153323
 21
129.533988
 31
0.0
  0
LINE
  5
E4
330
1F
100
AcDbEntity
  8
1
  6
CONTINUOUS
 62
    53
100
AcDbLine
 10
273.153323
 20
124.533988
 30
0.0
 11
272.553323
 21
124.533988
 31
0.0
  0
LINE
  5
E5
330
1F
100
AcDbEntity
  8
1
  6
CONTINUOUS
 62
    53
100
AcDbLine
 10
273.153323
 20
129.333988
 30
0.0
 11
272.553323
 21
129.333988
 31
0.0
  0
LINE
  5
E6
330
1F
100
AcDbEntity
  8
1
  6
CONTINUOUS
 62
    53
100
AcDbLine
 10
272.353323
 20
129.133988
 30
0.0
 11
272.353323
 21
129.033988
 31
0.0
  0
LINE
  5
E7
330
1F
100
AcDbEntity
  8
1
  6
CONTINUOUS
 62
    53
100
AcDbLine
 10
272.353323
 20
125.033989
 30
0.0
 11
272.353323
 21
124.933988
 31
0.0
  0
LINE
  5
E8
330
1F
100
AcDbEntity
  8
1
  6
CONTINUOUS
 62
    53
100
AcDbLine
 10
272.553323
 20
124.733988
 30
0.0
 11
273.153323
 21
124.733988
 31
0.0
  0
LINE
  5
E9
330
1F
100
AcDbEntity
  8
1
  6
CONTINUOUS
 62
     7
100
AcDbLine
 10
272.253323
 20
124.433988
 30
0.0
 11
273.353323
 21
124.433988
 31
0.0
  0
LINE
  5
EA
330
1F
100
AcDbEntity
  8
1
  6
CONTINUOUS
 62
     7
100
AcDbLine
 10
273.353323
 20
119.033988
 30
0.0
 11
163.353323
 21
119.033988
 31
0.0
  0
LINE
  5
EB
330
1F
100
AcDbEntity
  8
1
  6
CONTINUOUS
 62
     7
100
AcDbLine
 10
163.353323
 20
124.433988
 30
0.0
 11
164.453323
 21
124.433988
 31
0.0
  0
LINE
  5
EC
330
1F
100
AcDbEntity
  8
1
  6
CONTINUOUS
 62
     7
100
AcDbLine
 10
163.953323
 20
125.033988
 30
0.0
 11
163.953323
 21
129.033988
 31
0.0
  0
LINE
  5
ED
330
1F
100
AcDbEntity
  8
1
  6
CONTINUOUS
 62
     7
100
AcDbLine
 10
164.453323
 20
129.033988
 30
0.0
 11
164.453323
 21
129.633988
 31
0.0
  0
LINE
  5
EE
330
1F
100
AcDbEntity
  8
1
  6
CONTINUOUS
 62
     7
100
AcDbLine
 10
164.453323
 20
129.633988
 30
0.0
 11
163.353323
 21
129.633988
 31
0.0
  0
LINE
  5
EF
330
1F
100
AcDbEntity
  8
1
  6
CONTINUOUS
 62
     7
100
AcDbLine
 10
273.353323
 20
135.033988
 30
0.0
 11
163.353323
 21
135.033988
 31
0.0
  0
LINE
  5
F0
330
1F
100
AcDbEntity
  8
1
  6
CONTINUOUS
 62
     7
100
AcDbLine
 10
273.353323
 20
129.633988
 30
0.0
 11
272.253323
 21
129.633988
 31
0.0
  0
LINE
  5
F1
330
1F
100
AcDbEntity
  8
1
  6
CONTINUOUS
 62
     7
100
AcDbLine
 10
272.253323
 20
129.633988
 30
0.0
 11
272.253323
 21
129.033988
 31
0.0
  0
LINE
  5
F2
330
1F
100
AcDbEntity
  8
1
  6
CONTINUOUS
 62
     7
100
AcDbLine
 10
272.753323
 20
125.033988
 30
0.0
 11
272.753323
 21
129.033988
 31
0.0
  0
LINE
  5
F3
330
1F
100
AcDbEntity
  8
1
  6
CONTINUOUS
 62
     7
100
AcDbLine
 10
272.253323
 20
125.033988
 30
0.0
 11
272.253323
 21
124.433988
 31
0.0
  0
LINE
  5
F4
330
1F
100
AcDbEntity
  8
1
  6
CONTINUOUS
 62
     7
100
AcDbLine
 10
164.453323
 20
124.433988
 30
0.0
 11
164.453323
 21
125.033988
 31
0.0
  0
LINE
  5
F5
330
1F
100
AcDbEntity
  8
1
  6
CONTINUOUS
 62
     7
100
AcDbLine
 10
273.353323
 20
143.033988
 30
0.0
 11
163.353323
 21
143.033988
 31
0.0
  0
LINE
  5
F6
330
1F
100
AcDbEntity
  8
1
  6
CONTINUOUS
 62
     7
100
AcDbLine
 10
273.353323
 20
111.033988
 30
0.0
 11
163.353323
 21
111.033988
 31
0.0
  0
LINE
  5
F7
330
1F
100
AcDbEntity
  8
1
  6
CONTINUOUS
 62
   250
100
AcDbLine
 10
95.008835
 20
257.758078
 30
0.0
 11
79.008835
 21
257.758078
 31
0.0
  0
LINE
  5
F8
330
1F
100
AcDbEntity
  8
1
  6
CONTINUOUS
 62
   250
100
AcDbLine
 10
79.008835
 20
203.53864
 30
0.0
 11
95.008835
 21
203.53864
 31
0.0
  0
LINE
  5
F9
330
1F
100
AcDbEntity
  8
1
  6
CONTINUOUS
 62
     6
100
AcDbLine
 10
87.308835
 20
223.190465
 30
0.0
 11
87.308835
 21
222.46096
 31
0.0
  0
LINE
  5
FA
330
1F
100
AcDbEntity
  8
1
  6
CONTINUOUS
 62
     6
100
AcDbLine
 10
87.308835
 20
238.835758
 30
0.0
 11
87.308835
 21
238.106253
 31
0.0
  0
LINE
  5
FB
330
1F
100
AcDbEntity
  8
1
  6
CONTINUOUS
 62
     6
100
AcDbLine
 10
86.708835
 20
238.106253
 30
0.0
 11
86.708835
 21
238.835758
 31
0.0
  0
LINE
  5
FC
330
1F
100
AcDbEntity
  8
1
  6
CONTINUOUS
 62
     6
100
AcDbLine
 10
86.708835
 20
222.46096
 30
0.0
 11
86.708835
 21
223.190465
 31
0.0
  0
LINE
  5
FD
330
1F
100
AcDbEntity
  8
1
  6
CONTINUOUS
 62
   250
100
AcDbLine
 10
71.479188
 20
249.648359
 30
0.0
 11
71.479188
 21
211.648359
 31
0.0
  0
LINE
  5
FE
330
1F
100
AcDbEntity
  8
1
  6
CONTINUOUS
 62
   250
100
AcDbLine
 10
70.980121
 20
211.648359
 30
0.0
 11
70.980121
 21
249.648359
 31
0.0
  0
LINE
  5
FF
330
1F
100
AcDbEntity
  8
1
  6
CONTINUOUS
 62
   250
100
AcDbLine
 10
103.037549
 20
249.648359
 30
0.0
 11
103.037549
 21
211.648359
 31
0.0
  0
LINE
  5
100
330
1F
100
AcDbEntity
  8
1
  6
CONTINUOUS
 62
   250
100
AcDbLine
 10
102.538482
 20
211.648359
 30
0.0
 11
102.538482
 21
249.648359
 31
0.0
  0
LINE
  5
101
330
1F
100
AcDbEntity
  8
1
  6
CONTINUOUS
 62
   250
100
AcDbLine
 10
95.008835
 20
257.178006
 30
0.0
 11
79.008835
 21
257.178006
 31
0.0
  0
LINE
  5
102
330
1F
100
AcDbEntity
  8
1
  6
CONTINUOUS
 62
   250
100
AcDbLine
 10
79.008835
 20
204.118712
 30
0.0
 11
95.008835
 21
204.118712
 31
0.0
  0
LINE
  5
103
330
1F
100
AcDbEntity
  8
1
  6
CONTINUOUS
 62
   250
100
AcDbLine
 10
79.008835
 20
257.677073
 30
0.0
 11
95.008835
 21
257.677073
 31
0.0
  0
LINE
  5
104
330
1F
100
AcDbEntity
  8
1
  6
CONTINUOUS
 62
   250
100
AcDbLine
 10
95.008835
 20
203.619645
 30
0.0
 11
79.008835
 21
203.619645
 31
0.0
  0
LINE
  5
105
330
1F
100
AcDbEntity
  8
1
  6
CONTINUOUS
 62
   250
100
AcDbLine
 10
70.899489
 20
249.648359
 30
0.0
 11
70.899489
 21
211.648359
 31
0.0
  0
LINE
  5
106
330
1F
100
AcDbEntity
  8
1
  6
CONTINUOUS
 62
   250
100
AcDbLine
 10
103.118181
 20
211.648359
 30
0.0
 11
103.118181
 21
249.648359
 31
0.0
  0
LINE
  5
107
330
1F
100
AcDbEntity
  8
1
  6
CONTINUOUS
 62
   250
100
AcDbLine
 10
95.008835
 20
257.757705
 30
0.0
 11
79.008835
 21
257.757705
 31
0.0
  0
LINE
  5
108
330
1F
100
AcDbEntity
  8
1
  6
CONTINUOUS
 62
   250
100
AcDbLine
 10
79.008835
 20
203.539013
 30
0.0
 11
95.008835
 21
203.539013
 31
0.0
  0
LINE
  5
109
330
1F
100
AcDbEntity
  8
1
  6
CONTINUOUS
 62
   250
100
AcDbLine
 10
70.899116
 20
249.648359
 30
0.0
 11
70.899116
 21
211.648359
 31
0.0
  0
LINE
  5
10A
330
1F
100
AcDbEntity
  8
1
  6
CONTINUOUS
 62
   250
100
AcDbLine
 10
103.118554
 20
211.648359
 30
0.0
 11
103.118554
 21
249.648359
 31
0.0
  0
LINE
  5
10B
330
1F
100
AcDbEntity
  8
1
  6
CONTINUOUS
 62
     9
100
AcDbLine
 10
91.033835
 20
257.758078
 30
0.0
 11
91.033835
 21
257.848359
 31
0.0
  0
LINE
  5
10C
330
1F
100
AcDbEntity
  8
1
  6
CONTINUOUS
 62
     9
100
AcDbLine
 10
90.287425
 20
257.758078
 30
0.0
 11
90.287425
 21
257.848359
 31
0.0
  0
LINE
  5
10D
330
1F
100
AcDbEntity
  8
1
  6
CONTINUOUS
 62
     9
100
AcDbLine
 10
82.983835
 20
257.848359
 30
0.0
 11
82.983835
 21
257.758078
 31
0.0
  0
LINE
  5
10E
330
1F
100
AcDbEntity
  8
1
  6
CONTINUOUS
 62
     9
100
AcDbLine
 10
83.730245
 20
257.758078
 30
0.0
 11
83.730245
 21
257.848359
 31
0.0
  0
LINE
  5
10F
330
1F
100
AcDbEntity
  8
1
  6
CONTINUOUS
 62
     9
100
AcDbLine
 10
84.680245
 20
257.758078
 30
0.0
 11
84.680245
 21
257.848359
 31
0.0
  0
LINE
  5
110
330
1F
100
AcDbEntity
  8
1
  6
CONTINUOUS
 62
     9
100
AcDbLine
 10
89.337425
 20
257.758078
 30
0.0
 11
89.337425
 21
257.848359
 31
0.0
  0
LINE
  5
111
330
1F
100
AcDbEntity
  8
1
  6
CONTINUOUS
 62
     9
100
AcDbLine
 10
89.283835
 20
257.848359
 30
0.0
 11
89.283835
 21
257.758078
 31
0.0
  0
LINE
  5
112
330
1F
100
AcDbEntity
  8
1
  6
CONTINUOUS
 62
     9
100
AcDbLine
 10
84.733835
 20
257.758078
 30
0.0
 11
84.733835
 21
257.848359
 31
0.0
  0
LINE
  5
113
330
1F
100
AcDbEntity
  8
1
  6
CONTINUOUS
 62
     1
100
AcDbLine
 10
341.863324
 20
231.148359
 30
0.0
 11
341.863324
 21
229.348359
 31
0.0
  0
LINE
  5
114
330
1F
100
AcDbEntity
  8
1
  6
CONTINUOUS
 62
     1
100
AcDbLine
 10
342.243983
 20
229.348359
 30
0.0
 11
341.863324
 21
229.348359
 31
0.0
  0
LINE
  5
115
330
1F
100
AcDbEntity
  8
1
  6
CONTINUOUS
 62
     1
100
AcDbLine
 10
342.243983
 20
231.148359
 30
0.0
 11
341.863324
 21
231.148359
 31
0.0
  0
LINE
  5
116
330
1F
100
AcDbEntity
  8
1
  6
CONTINUOUS
 62
   150
100
AcDbLine
 10
329.315211
 20
227.598359
 30
0.0
 11
329.315211
 21
229.998359
 31
0.0
  0
LINE
  5
117
330
1F
100
AcDbEntity
  8
1
  6
CONTINUOUS
 62
   150
100
AcDbLine
 10
329.814279
 20
229.998359
 30
0.0
 11
329.814279
 21
227.598359
 31
0.0
  0
LINE
  5
118
330
1F
100
AcDbEntity
  8
1
  6
CONTINUOUS
 62
   150
100
AcDbLine
 10
330.429712
 20
227.598359
 30
0.0
 11
330.429712
 21
229.998359
 31
0.0
  0
LINE
  5
119
330
1F
100
AcDbEntity
  8
1
  6
CONTINUOUS
 62
   150
100
AcDbLine
 10
330.901117
 20
229.998359
 30
0.0
 11
330.901117
 21
227.598359
 31
0.0
  0
LINE
  5
11A
330
1F
100
AcDbEntity
  8
1
  6
CONTINUOUS
 62
    30
100
AcDbLine
 10
346.243926
 20
226.068359
 30
0.0
 11
346.243926
 21
224.268359
 31
0.0
  0
LINE
  5
11B
330
1F
100
AcDbEntity
  8
1
  6
CONTINUOUS
 62
    30
100
AcDbLine
 10
346.243926
 20
224.268359
 30
0.0
 11
342.243926
 21
224.268359
 31
0.0
  0
LINE
  5
11C
330
1F
100
AcDbEntity
  8
1
  6
CONTINUOUS
 62
    30
100
AcDbLine
 10
342.243926
 20
226.068359
 30
0.0
 11
342.243926
 21
224.268359
 31
0.0
  0
LINE
  5
11D
330
1F
100
AcDbEntity
  8
1
  6
CONTINUOUS
 62
    30
100
AcDbLine
 10
346.243926
 20
226.068359
 30
0.0
 11
342.243926
 21
226.068359
 31
0.0
  0
LINE
  5
11E
330
1F
100
AcDbEntity
  8
1
  6
CONTINUOUS
 62
    53
100
AcDbLine
 10
353.343926
 20
257.758078
 30
0.0
 11
337.343926
 21
257.758078
 31
0.0
  0
LINE
  5
11F
330
1F
100
AcDbEntity
  8
1
  6
CONTINUOUS
 62
   150
100
AcDbLine
 10
329.23458
 20
229.998359
 30
0.0
 11
329.23458
 21
227.598359
 31
0.0
  0
LINE
  5
120
330
1F
100
AcDbEntity
  8
1
  6
CONTINUOUS
 62
   150
100
AcDbLine
 10
329.234207
 20
229.998359
 30
0.0
 11
329.234207
 21
227.598359
 31
0.0
  0
LINE
  5
121
330
1F
100
AcDbEntity
  8
1
  6
CONTINUOUS
 62
   152
100
AcDbLine
 10
348.443926
 20
215.248359
 30
0.0
 11
353.943926
 21
215.248359
 31
0.0
  0
LINE
  5
122
330
1F
100
AcDbEntity
  8
1
  6
CONTINUOUS
 62
   152
100
AcDbLine
 10
355.443926
 20
213.748359
 30
0.0
 11
355.443926
 21
207.548359
 31
0.0
  0
LINE
  5
123
330
1F
100
AcDbEntity
  8
1
  6
CONTINUOUS
 62
   152
100
AcDbLine
 10
353.943926
 20
206.048359
 30
0.0
 11
348.443926
 21
206.048359
 31
0.0
  0
LINE
  5
124
330
1F
100
AcDbEntity
  8
1
  6
CONTINUOUS
 62
   152
100
AcDbLine
 10
346.943926
 20
207.548359
 30
0.0
 11
346.943926
 21
213.748359
 31
0.0
  0
LINE
  5
125
330
1F
100
AcDbEntity
  8
1
  6
CONTINUOUS
 62
    30
100
AcDbLine
 10
346.243926
 20
231.148359
 30
0.0
 11
342.243926
 21
231.148359
 31
0.0
  0
LINE
  5
126
330
1F
100
AcDbEntity
  8
1
  6
CONTINUOUS
 62
    30
100
AcDbLine
 10
346.243926
 20
229.348359
 30
0.0
 11
342.243926
 21
229.348359
 31
0.0
  0
LINE
  5
127
330
1F
100
AcDbEntity
  8
1
  6
CONTINUOUS
 62
    30
100
AcDbLine
 10
342.243926
 20
231.148359
 30
0.0
 11
342.243926
 21
229.348359
 31
0.0
  0
LINE
  5
128
330
1F
100
AcDbEntity
  8
1
  6
CONTINUOUS
 62
    30
100
AcDbLine
 10
346.243926
 20
231.148359
 30
0.0
 11
346.243926
 21
229.348359
 31
0.0
  0
LINE
  5
129
330
1F
100
AcDbEntity
  8
1
  6
CONTINUOUS
 62
     1
100
AcDbLine
 10
346.243927
 20
229.593459
 30
0.0
 11
346.343924
 21
230.215378
 31
0.0
  0
LINE
  5
12A
330
1F
100
AcDbEntity
  8
1
  6
CONTINUOUS
 62
     7
100
AcDbLine
 10
354.743926
 20
234.048359
 30
0.0
 11
354.843926
 21
234.048359
 31
0.0
  0
LINE
  5
12B
330
1F
100
AcDbEntity
  8
1
  6
CONTINUOUS
 62
     7
100
AcDbLine
 10
351.843926
 20
223.148359
 30
0.0
 11
354.843926
 21
223.148359
 31
0.0
  0
LINE
  5
12C
330
1F
100
AcDbEntity
  8
1
  6
CONTINUOUS
 62
     7
100
AcDbLine
 10
346.333926
 20
233.688297
 30
0.0
 11
346.333926
 21
234.178328
 31
0.0
  0
LINE
  5
12D
330
1F
100
AcDbEntity
  8
1
  6
CONTINUOUS
 62
     7
100
AcDbLine
 10
349.748962
 20
219.658359
 30
0.0
 11
349.844035
 21
219.658359
 31
0.0
  0
LINE
  5
12E
330
1F
100
AcDbEntity
  8
1
  6
CONTINUOUS
 62
     7
100
AcDbLine
 10
346.333926
 20
223.018359
 30
0.0
 11
346.333926
 21
223.528265
 31
0.0
  0
LINE
  5
12F
330
1F
100
AcDbEntity
  8
1
  6
CONTINUOUS
 62
     7
100
AcDbLine
 10
349.603228
 20
218.973359
 30
0.0
 11
349.844035
 21
218.973359
 31
0.0
  0
LINE
  5
130
330
1F
100
AcDbEntity
  8
1
  6
CONTINUOUS
 62
     7
100
AcDbLine
 10
348.613926
 20
236.148424
 30
0.0
 11
348.613926
 21
236.648398
 31
0.0
  0
LINE
  5
131
330
1F
100
AcDbEntity
  8
1
  6
CONTINUOUS
 62
     7
100
AcDbLine
 10
354.643915
 20
228.648359
 30
0.0
 11
354.843926
 21
228.648359
 31
0.0
  0
LINE
  5
132
330
1F
100
AcDbEntity
  8
1
  6
CONTINUOUS
 62
     8
100
AcDbLine
 10
353.343926
 20
250.148359
 30
0.0
 11
353.343926
 21
238.148359
 31
0.0
  0
LINE
  5
133
330
1F
100
AcDbEntity
  8
1
  6
CONTINUOUS
 62
     8
100
AcDbLine
 10
346.743926
 20
250.148359
 30
0.0
 11
353.343926
 21
250.148359
 31
0.0
  0
LINE
  5
134
330
1F
100
AcDbEntity
  8
1
  6
CONTINUOUS
 62
     8
100
AcDbLine
 10
346.743926
 20
248.148359
 30
0.0
 11
346.743926
 21
250.148359
 31
0.0
  0
LINE
  5
135
330
1F
100
AcDbEntity
  8
1
  6
CONTINUOUS
 62
     8
100
AcDbLine
 10
343.843926
 20
241.898359
 30
0.0
 11
343.343926
 21
241.898359
 31
0.0
  0
LINE
  5
136
330
1F
100
AcDbEntity
  8
1
  6
CONTINUOUS
 62
     8
100
AcDbLine
 10
343.843926
 20
246.398359
 30
0.0
 11
343.343926
 21
246.398359
 31
0.0
  0
LINE
  5
137
330
1F
100
AcDbEntity
  8
1
  6
CONTINUOUS
 62
     8
100
AcDbLine
 10
343.843926
 20
248.148359
 30
0.0
 11
346.743926
 21
248.148359
 31
0.0
  0
LINE
  5
138
330
1F
100
AcDbEntity
  8
1
  6
CONTINUOUS
 62
     8
100
AcDbLine
 10
346.743926
 20
238.148359
 30
0.0
 11
346.743926
 21
240.148359
 31
0.0
  0
LINE
  5
139
330
1F
100
AcDbEntity
  8
1
  6
CONTINUOUS
 62
     8
100
AcDbLine
 10
346.743926
 20
240.148359
 30
0.0
 11
343.843926
 21
240.148359
 31
0.0
  0
LINE
  5
13A
330
1F
100
AcDbEntity
  8
1
  6
CONTINUOUS
 62
     8
100
AcDbLine
 10
353.343926
 20
238.148359
 30
0.0
 11
346.743926
 21
238.148359
 31
0.0
  0
LINE
  5
13B
330
1F
100
AcDbEntity
  8
1
  6
CONTINUOUS
 62
     8
100
AcDbLine
 10
355.343923
 20
251.148359
 30
0.0
 11
354.843926
 21
251.148359
 31
0.0
  0
LINE
  5
13C
330
1F
100
AcDbEntity
  8
1
  6
CONTINUOUS
 62
     8
100
AcDbLine
 10
354.843926
 20
249.148359
 30
0.0
 11
355.343923
 21
249.148359
 31
0.0
  0
LINE
  5
13D
330
1F
100
AcDbEntity
  8
1
  6
CONTINUOUS
 62
     8
100
AcDbLine
 10
343.343926
 20
237.148359
 30
0.0
 11
342.843926
 21
237.148359
 31
0.0
  0
LINE
  5
13E
330
1F
100
AcDbEntity
  8
1
  6
CONTINUOUS
 62
     8
100
AcDbLine
 10
342.843926
 20
239.148359
 30
0.0
 11
343.343926
 21
239.148359
 31
0.0
  0
LINE
  5
13F
330
1F
100
AcDbEntity
  8
1
  6
CONTINUOUS
 62
   250
100
AcDbLine
 10
342.844035
 20
247.048359
 30
0.0
 11
343.343957
 21
247.048359
 31
0.0
  0
LINE
  5
140
330
1F
100
AcDbEntity
  8
1
  6
CONTINUOUS
 62
    94
100
AcDbLine
 10
354.843926
 20
217.602559
 30
0.0
 11
354.843926
 21
219.893842
 31
0.0
  0
LINE
  5
141
330
1F
100
AcDbEntity
  8
1
  6
CONTINUOUS
 62
    94
100
AcDbLine
 10
354.843926
 20
223.087699
 30
0.0
 11
355.097957
 21
223.087699
 31
0.0
  0
LINE
  5
142
330
1F
100
AcDbEntity
  8
1
  6
CONTINUOUS
 62
    94
100
AcDbLine
 10
355.236754
 20
223.209019
 30
0.0
 11
354.843926
 21
223.209019
 31
0.0
  0
LINE
  5
143
330
1F
100
AcDbEntity
  8
1
  6
CONTINUOUS
 62
    94
100
AcDbLine
 10
354.843926
 20
224.269679
 30
0.0
 11
355.343926
 21
224.269679
 31
0.0
  0
LINE
  5
144
330
1F
100
AcDbEntity
  8
1
  6
CONTINUOUS
 62
    94
100
AcDbLine
 10
354.843926
 20
226.018644
 30
0.0
 11
354.843926
 21
226.118366
 31
0.0
  0
LINE
  5
145
330
1F
100
AcDbEntity
  8
1
  6
CONTINUOUS
 62
    94
100
AcDbLine
 10
354.843926
 20
228.558615
 30
0.0
 11
354.843926
 21
228.658788
 31
0.0
  0
LINE
  5
146
330
1F
100
AcDbEntity
  8
1
  6
CONTINUOUS
 62
    94
100
AcDbLine
 10
354.843926
 20
231.098585
 30
0.0
 11
354.843926
 21
231.198758
 31
0.0
  0
LINE
  5
147
330
1F
100
AcDbEntity
  8
1
  6
CONTINUOUS
 62
    94
100
AcDbLine
 10
354.843926
 20
233.688641
 30
0.0
 11
354.843926
 21
234.178676
 31
0.0
  0
LINE
  5
148
330
1F
100
AcDbEntity
  8
1
  6
CONTINUOUS
 62
    94
100
AcDbLine
 10
354.843926
 20
236.148744
 30
0.0
 11
354.843926
 21
236.648706
 31
0.0
  0
LINE
  5
149
330
1F
100
AcDbEntity
  8
1
  6
CONTINUOUS
 62
    94
100
AcDbLine
 10
354.843926
 20
251.648021
 30
0.0
 11
354.843926
 21
252.147984
 31
0.0
  0
LINE
  5
14A
330
1F
100
AcDbEntity
  8
1
  6
CONTINUOUS
 62
   151
100
AcDbLine
 10
349.693926
 20
251.648384
 30
0.0
 11
349.693926
 21
252.148334
 31
0.0
  0
LINE
  5
14B
330
1F
100
AcDbEntity
  8
1
  6
CONTINUOUS
 62
     9
100
AcDbLine
 10
349.368926
 20
257.758078
 30
0.0
 11
349.368926
 21
257.848359
 31
0.0
  0
LINE
  5
14C
330
1F
100
AcDbEntity
  8
1
  6
CONTINUOUS
 62
     9
100
AcDbLine
 10
348.622516
 20
257.758078
 30
0.0
 11
348.622516
 21
257.848359
 31
0.0
  0
LINE
  5
14D
330
1F
100
AcDbEntity
  8
1
  6
CONTINUOUS
 62
     9
100
AcDbLine
 10
341.318926
 20
257.848359
 30
0.0
 11
341.318926
 21
257.758078
 31
0.0
  0
LINE
  5
14E
330
1F
100
AcDbEntity
  8
1
  6
CONTINUOUS
 62
     9
100
AcDbLine
 10
342.065336
 20
257.758078
 30
0.0
 11
342.065336
 21
257.848359
 31
0.0
  0
LINE
  5
14F
330
1F
100
AcDbEntity
  8
1
  6
CONTINUOUS
 62
     9
100
AcDbLine
 10
343.015336
 20
257.758078
 30
0.0
 11
343.015336
 21
257.848359
 31
0.0
  0
LINE
  5
150
330
1F
100
AcDbEntity
  8
1
  6
CONTINUOUS
 62
     9
100
AcDbLine
 10
347.672516
 20
257.758078
 30
0.0
 11
347.672516
 21
257.848359
 31
0.0
  0
LINE
  5
151
330
1F
100
AcDbEntity
  8
1
  6
CONTINUOUS
 62
     9
100
AcDbLine
 10
347.618926
 20
257.848359
 30
0.0
 11
347.618926
 21
257.758078
 31
0.0
  0
LINE
  5
152
330
1F
100
AcDbEntity
  8
1
  6
CONTINUOUS
 62
     9
100
AcDbLine
 10
343.068926
 20
257.758078
 30
0.0
 11
343.068926
 21
257.848359
 31
0.0
  0
LINE
  5
153
330
1F
100
AcDbEntity
  8
1
  6
CONTINUOUS
 62
    63
100
AcDbLine
 10
354.843926
 20
226.018359
 30
0.0
 11
346.343926
 21
226.018359
 31
0.0
  0
LINE
  5
154
330
1F
100
AcDbEntity
  8
1
  6
CONTINUOUS
 62
    63
100
AcDbLine
 10
354.843926
 20
226.018359
 30
0.0
 11
354.843926
 21
223.528359
 31
0.0
  0
LINE
  5
155
330
1F
100
AcDbEntity
  8
1
  6
CONTINUOUS
 62
    63
100
AcDbLine
 10
346.343926
 20
224.168359
 30
0.0
 11
344.843926
 21
224.168359
 31
0.0
  0
LINE
  5
156
330
1F
100
AcDbEntity
  8
1
  6
CONTINUOUS
 62
    63
100
AcDbLine
 10
347.093926
 20
223.798359
 30
0.0
 11
348.593926
 21
223.798359
 31
0.0
  0
LINE
  5
157
330
1F
100
AcDbEntity
  8
1
  6
CONTINUOUS
 62
    63
100
AcDbLine
 10
348.593926
 20
225.798359
 30
0.0
 11
347.093926
 21
225.798359
 31
0.0
  0
LINE
  5
158
330
1F
100
AcDbEntity
  8
1
  6
CONTINUOUS
 62
    63
100
AcDbLine
 10
354.843926
 20
228.558359
 30
0.0
 11
346.343926
 21
228.558359
 31
0.0
  0
LINE
  5
159
330
1F
100
AcDbEntity
  8
1
  6
CONTINUOUS
 62
    63
100
AcDbLine
 10
354.843926
 20
228.558359
 30
0.0
 11
354.843926
 21
226.118359
 31
0.0
  0
LINE
  5
15A
330
1F
100
AcDbEntity
  8
1
  6
CONTINUOUS
 62
    63
100
AcDbLine
 10
346.343926
 20
226.708359
 30
0.0
 11
344.843926
 21
226.708359
 31
0.0
  0
LINE
  5
15B
330
1F
100
AcDbEntity
  8
1
  6
CONTINUOUS
 62
    63
100
AcDbLine
 10
347.093926
 20
226.338359
 30
0.0
 11
348.593926
 21
226.338359
 31
0.0
  0
LINE
  5
15C
330
1F
100
AcDbEntity
  8
1
  6
CONTINUOUS
 62
    63
100
AcDbLine
 10
348.593926
 20
228.338359
 30
0.0
 11
347.093926
 21
228.338359
 31
0.0
  0
LINE
  5
15D
330
1F
100
AcDbEntity
  8
1
  6
CONTINUOUS
 62
    63
100
AcDbLine
 10
354.843926
 20
231.098359
 30
0.0
 11
346.343926
 21
231.098359
 31
0.0
  0
LINE
  5
15E
330
1F
100
AcDbEntity
  8
1
  6
CONTINUOUS
 62
    63
100
AcDbLine
 10
354.843926
 20
231.098359
 30
0.0
 11
354.843926
 21
228.658359
 31
0.0
  0
LINE
  5
15F
330
1F
100
AcDbEntity
  8
1
  6
CONTINUOUS
 62
    63
100
AcDbLine
 10
347.093926
 20
228.878359
 30
0.0
 11
348.593926
 21
228.878359
 31
0.0
  0
LINE
  5
160
330
1F
100
AcDbEntity
  8
1
  6
CONTINUOUS
 62
    63
100
AcDbLine
 10
348.593926
 20
230.878359
 30
0.0
 11
347.093926
 21
230.878359
 31
0.0
  0
LINE
  5
161
330
1F
100
AcDbEntity
  8
1
  6
CONTINUOUS
 62
    63
100
AcDbLine
 10
346.343926
 20
229.248359
 30
0.0
 11
344.843926
 21
229.248359
 31
0.0
  0
LINE
  5
162
330
1F
100
AcDbEntity
  8
1
  6
CONTINUOUS
 62
    63
100
AcDbLine
 10
354.843926
 20
233.688359
 30
0.0
 11
354.843926
 21
231.198359
 31
0.0
  0
LINE
  5
163
330
1F
100
AcDbEntity
  8
1
  6
CONTINUOUS
 62
    63
100
AcDbLine
 10
344.843926
 20
233.688359
 30
0.0
 11
344.843926
 21
231.198359
 31
0.0
  0
LINE
  5
164
330
1F
100
AcDbEntity
  8
1
  6
CONTINUOUS
 62
    63
100
AcDbLine
 10
354.643926
 20
231.098359
 30
0.0
 11
354.643926
 21
231.198359
 31
0.0
  0
LINE
  5
165
330
1F
100
AcDbEntity
  8
1
  6
CONTINUOUS
 62
    63
100
AcDbLine
 10
346.243907
 20
231.148359
 30
0.0
 11
346.343926
 21
231.148359
 31
0.0
  0
LINE
  5
166
330
1F
100
AcDbEntity
  8
1
  6
CONTINUOUS
 62
    63
100
AcDbLine
 10
345.043926
 20
231.148359
 30
0.0
 11
345.043926
 21
231.198359
 31
0.0
  0
LINE
  5
167
330
1F
100
AcDbEntity
  8
1
  6
CONTINUOUS
 62
    63
100
AcDbLine
 10
345.043926
 20
226.068359
 30
0.0
 11
345.043926
 21
226.118359
 31
0.0
  0
LINE
  5
168
330
1F
100
AcDbEntity
  8
1
  6
CONTINUOUS
 62
    63
100
AcDbLine
 10
346.243907
 20
226.068359
 30
0.0
 11
346.343926
 21
226.068359
 31
0.0
  0
LINE
  5
169
330
1F
100
AcDbEntity
  8
1
  6
CONTINUOUS
 62
    63
100
AcDbLine
 10
354.643926
 20
226.018359
 30
0.0
 11
354.643926
 21
226.118359
 31
0.0
  0
LINE
  5
16A
330
1F
100
AcDbEntity
  8
1
  6
CONTINUOUS
 62
    63
100
AcDbLine
 10
354.643926
 20
228.558359
 30
0.0
 11
354.643926
 21
228.658359
 31
0.0
  0
LINE
  5
16B
330
1F
100
AcDbEntity
  8
1
  6
CONTINUOUS
 62
    63
100
AcDbLine
 10
345.043926
 20
228.608359
 30
0.0
 11
345.043926
 21
228.658359
 31
0.0
  0
LINE
  5
16C
330
1F
100
AcDbEntity
  8
1
  6
CONTINUOUS
 62
    63
100
AcDbLine
 10
346.243907
 20
228.608359
 30
0.0
 11
346.343926
 21
228.608359
 31
0.0
  0
LINE
  5
16D
330
1F
100
AcDbEntity
  8
1
  6
CONTINUOUS
 62
    63
100
AcDbLine
 10
346.243926
 20
224.168359
 30
0.0
 11
346.243926
 21
224.268372
 31
0.0
  0
LINE
  5
16E
330
1F
100
AcDbEntity
  8
1
  6
CONTINUOUS
 62
    63
100
AcDbLine
 10
346.243926
 20
226.708359
 30
0.0
 11
346.243926
 21
226.808372
 31
0.0
  0
LINE
  5
16F
330
1F
100
AcDbEntity
  8
1
  6
CONTINUOUS
 62
    63
100
AcDbLine
 10
346.243926
 20
229.248359
 30
0.0
 11
346.243926
 21
229.348372
 31
0.0
  0
LINE
  5
170
330
1F
100
AcDbEntity
  8
1
  6
CONTINUOUS
 62
    63
100
AcDbLine
 10
343.843926
 20
229.348383
 30
0.0
 11
343.843926
 21
228.658359
 31
0.0
  0
LINE
  5
171
330
1F
100
AcDbEntity
  8
1
  6
CONTINUOUS
 62
    63
100
AcDbLine
 10
343.843926
 20
231.638389
 30
0.0
 11
343.843926
 21
231.198359
 31
0.0
  0
LINE
  5
172
330
1F
100
AcDbEntity
  8
1
  6
CONTINUOUS
 62
    63
100
AcDbLine
 10
343.843926
 20
226.808383
 30
0.0
 11
343.843926
 21
226.118359
 31
0.0
  0
LINE
  5
173
330
1F
100
AcDbEntity
  8
1
  6
CONTINUOUS
 62
    63
100
AcDbLine
 10
343.843926
 20
224.268395
 30
0.0
 11
343.843926
 21
223.528359
 31
0.0
  0
LINE
  5
174
330
1F
100
AcDbEntity
  8
1
  6
CONTINUOUS
 62
    63
100
AcDbLine
 10
344.043926
 20
226.068359
 30
0.0
 11
344.043926
 21
226.118359
 31
0.0
  0
LINE
  5
175
330
1F
100
AcDbEntity
  8
1
  6
CONTINUOUS
 62
    63
100
AcDbLine
 10
344.043926
 20
231.148359
 30
0.0
 11
344.043926
 21
231.198359
 31
0.0
  0
LINE
  5
176
330
1F
100
AcDbEntity
  8
1
  6
CONTINUOUS
 62
    63
100
AcDbLine
 10
344.043926
 20
228.608359
 30
0.0
 11
344.043926
 21
228.658359
 31
0.0
  0
LINE
  5
177
330
1F
100
AcDbEntity
  8
1
  6
CONTINUOUS
 62
    53
100
AcDbLine
 10
337.343926
 20
205.20555
 30
0.0
 11
353.343926
 21
205.20555
 31
0.0
  0
LINE
  5
178
330
1F
100
AcDbEntity
  8
1
  6
CONTINUOUS
 62
    53
100
AcDbLine
 10
353.343926
 20
204.734146
 30
0.0
 11
337.343926
 21
204.734146
 31
0.0
  0
LINE
  5
179
330
1F
100
AcDbEntity
  8
1
  6
CONTINUOUS
 62
    53
100
AcDbLine
 10
359.786735
 20
211.648359
 30
0.0
 11
359.786735
 21
249.648359
 31
0.0
  0
LINE
  5
17A
330
1F
100
AcDbEntity
  8
1
  6
CONTINUOUS
 62
    53
100
AcDbLine
 10
360.258139
 20
249.648359
 30
0.0
 11
360.258139
 21
211.648359
 31
0.0
  0
LINE
  5
17B
330
1F
100
AcDbEntity
  8
1
  6
CONTINUOUS
 62
    53
100
AcDbLine
 10
329.814279
 20
227.598359
 30
0.0
 11
329.814279
 21
211.648359
 31
0.0
  0
LINE
  5
17C
330
1F
100
AcDbEntity
  8
1
  6
CONTINUOUS
 62
    53
100
AcDbLine
 10
329.315211
 20
211.648359
 30
0.0
 11
329.315211
 21
227.598359
 31
0.0
  0
LINE
  5
17D
330
1F
100
AcDbEntity
  8
1
  6
CONTINUOUS
 62
    53
100
AcDbLine
 10
353.343926
 20
257.178006
 30
0.0
 11
337.343926
 21
257.178006
 31
0.0
  0
LINE
  5
17E
330
1F
100
AcDbEntity
  8
1
  6
CONTINUOUS
 62
    53
100
AcDbLine
 10
360.873573
 20
211.648359
 30
0.0
 11
360.873573
 21
249.648359
 31
0.0
  0
LINE
  5
17F
330
1F
100
AcDbEntity
  8
1
  6
CONTINUOUS
 62
    53
100
AcDbLine
 10
337.343926
 20
204.118712
 30
0.0
 11
353.343926
 21
204.118712
 31
0.0
  0
LINE
  5
180
330
1F
100
AcDbEntity
  8
1
  6
CONTINUOUS
 62
    53
100
AcDbLine
 10
330.429712
 20
211.648359
 30
0.0
 11
330.429712
 21
227.598359
 31
0.0
  0
LINE
  5
181
330
1F
100
AcDbEntity
  8
1
  6
CONTINUOUS
 62
    53
100
AcDbLine
 10
337.343926
 20
256.562573
 30
0.0
 11
353.343926
 21
256.562573
 31
0.0
  0
LINE
  5
182
330
1F
100
AcDbEntity
  8
1
  6
CONTINUOUS
 62
    53
100
AcDbLine
 10
330.429712
 20
229.998359
 30
0.0
 11
330.429712
 21
249.648359
 31
0.0
  0
LINE
  5
183
330
1F
100
AcDbEntity
  8
1
  6
CONTINUOUS
 62
    53
100
AcDbLine
 10
329.814279
 20
249.648359
 30
0.0
 11
329.814279
 21
229.998359
 31
0.0
  0
LINE
  5
184
330
1F
100
AcDbEntity
  8
1
  6
CONTINUOUS
 62
    53
100
AcDbLine
 10
361.37264
 20
249.648359
 30
0.0
 11
361.37264
 21
211.648359
 31
0.0
  0
LINE
  5
185
330
1F
100
AcDbEntity
  8
1
  6
CONTINUOUS
 62
    53
100
AcDbLine
 10
353.343926
 20
256.091168
 30
0.0
 11
337.343926
 21
256.091168
 31
0.0
  0
LINE
  5
186
330
1F
100
AcDbEntity
  8
1
  6
CONTINUOUS
 62
    53
100
AcDbLine
 10
337.343926
 20
257.677073
 30
0.0
 11
353.343926
 21
257.677073
 31
0.0
  0
LINE
  5
187
330
1F
100
AcDbEntity
  8
1
  6
CONTINUOUS
 62
    53
100
AcDbLine
 10
330.901117
 20
249.648359
 30
0.0
 11
330.901117
 21
229.998359
 31
0.0
  0
LINE
  5
188
330
1F
100
AcDbEntity
  8
1
  6
CONTINUOUS
 62
    53
100
AcDbLine
 10
353.343926
 20
203.619645
 30
0.0
 11
337.343926
 21
203.619645
 31
0.0
  0
LINE
  5
189
330
1F
100
AcDbEntity
  8
1
  6
CONTINUOUS
 62
    53
100
AcDbLine
 10
329.315211
 20
229.998359
 30
0.0
 11
329.315211
 21
249.648359
 31
0.0
  0
LINE
  5
18A
330
1F
100
AcDbEntity
  8
1
  6
CONTINUOUS
 62
    53
100
AcDbLine
 10
330.901117
 20
227.598359
 30
0.0
 11
330.901117
 21
211.648359
 31
0.0
  0
LINE
  5
18B
330
1F
100
AcDbEntity
  8
1
  6
CONTINUOUS
 62
    53
100
AcDbLine
 10
347.905176
 20
206.148359
 30
0.0
 11
337.343926
 21
206.148359
 31
0.0
  0
LINE
  5
18C
330
1F
100
AcDbEntity
  8
1
  6
CONTINUOUS
 62
    53
100
AcDbLine
 10
331.843926
 20
229.998359
 30
0.0
 11
331.843926
 21
249.648359
 31
0.0
  0
LINE
  5
18D
330
1F
100
AcDbEntity
  8
1
  6
CONTINUOUS
 62
    53
100
AcDbLine
 10
331.843926
 20
211.648359
 30
0.0
 11
331.843926
 21
227.598359
 31
0.0
  0
LINE
  5
18E
330
1F
100
AcDbEntity
  8
1
  6
CONTINUOUS
 62
    53
100
AcDbLine
 10
337.343926
 20
255.148359
 30
0.0
 11
353.343926
 21
255.148359
 31
0.0
  0
LINE
  5
18F
330
1F
100
AcDbEntity
  8
1
  6
CONTINUOUS
 62
    53
100
AcDbLine
 10
358.843926
 20
249.648359
 30
0.0
 11
358.843926
 21
211.648359
 31
0.0
  0
LINE
  5
190
330
1F
100
AcDbEntity
  8
1
  6
CONTINUOUS
 62
    53
100
AcDbLine
 10
361.453272
 20
211.648359
 30
0.0
 11
361.453272
 21
249.648359
 31
0.0
  0
LINE
  5
191
330
1F
100
AcDbEntity
  8
1
  6
CONTINUOUS
 62
    53
100
AcDbLine
 10
353.343926
 20
257.757705
 30
0.0
 11
337.343926
 21
257.757705
 31
0.0
  0
LINE
  5
192
330
1F
100
AcDbEntity
  8
1
  6
CONTINUOUS
 62
    53
100
AcDbLine
 10
329.23458
 20
249.648359
 30
0.0
 11
329.23458
 21
229.998359
 31
0.0
  0
LINE
  5
193
330
1F
100
AcDbEntity
  8
1
  6
CONTINUOUS
 62
    53
100
AcDbLine
 10
337.343926
 20
203.539013
 30
0.0
 11
353.343926
 21
203.539013
 31
0.0
  0
LINE
  5
194
330
1F
100
AcDbEntity
  8
1
  6
CONTINUOUS
 62
    53
100
AcDbLine
 10
329.23458
 20
227.598359
 30
0.0
 11
329.23458
 21
211.648359
 31
0.0
  0
LINE
  5
195
330
1F
100
AcDbEntity
  8
1
  6
CONTINUOUS
 62
    53
100
AcDbLine
 10
355.343926
 20
223.518359
 30
0.0
 11
355.343926
 21
233.678359
 31
0.0
  0
LINE
  5
196
330
1F
100
AcDbEntity
  8
1
  6
CONTINUOUS
 62
    53
100
AcDbLine
 10
342.843926
 20
236.648359
 30
0.0
 11
342.843926
 21
251.648359
 31
0.0
  0
LINE
  5
197
330
1F
100
AcDbEntity
  8
1
  6
CONTINUOUS
 62
    53
100
AcDbLine
 10
354.843926
 20
236.148359
 30
0.0
 11
343.343926
 21
236.148359
 31
0.0
  0
LINE
  5
198
330
1F
100
AcDbEntity
  8
1
  6
CONTINUOUS
 62
    53
100
AcDbLine
 10
343.343926
 20
252.148359
 30
0.0
 11
354.843926
 21
252.148359
 31
0.0
  0
LINE
  5
199
330
1F
100
AcDbEntity
  8
1
  6
CONTINUOUS
 62
    53
100
AcDbLine
 10
331.843926
 20
227.598359
 30
0.0
 11
331.843926
 21
229.998359
 31
0.0
  0
LINE
  5
19A
330
1F
100
AcDbEntity
  8
1
  6
CONTINUOUS
 62
    53
100
AcDbLine
 10
331.998738
 20
243.398359
 30
0.0
 11
331.998738
 21
250.798359
 31
0.0
  0
LINE
  5
19B
330
1F
100
AcDbEntity
  8
1
  6
CONTINUOUS
 62
    53
100
AcDbLine
 10
341.743926
 20
223.018359
 30
0.0
 11
354.843926
 21
223.018359
 31
0.0
  0
LINE
  5
19C
330
1F
100
AcDbEntity
  8
1
  6
CONTINUOUS
 62
    53
100
AcDbLine
 10
341.243926
 20
231.138359
 30
0.0
 11
341.243926
 21
223.518359
 31
0.0
  0
LINE
  5
19D
330
1F
100
AcDbEntity
  8
1
  6
CONTINUOUS
 62
    53
100
AcDbLine
 10
355.343926
 20
251.648359
 30
0.0
 11
355.343926
 21
236.648359
 31
0.0
  0
LINE
  5
19E
330
1F
100
AcDbEntity
  8
1
  6
CONTINUOUS
 62
    53
100
AcDbLine
 10
344.343926
 20
233.678359
 30
0.0
 11
344.343926
 21
232.138359
 31
0.0
  0
LINE
  5
19F
330
1F
100
AcDbEntity
  8
1
  6
CONTINUOUS
 62
    53
100
AcDbLine
 10
354.843926
 20
234.178359
 30
0.0
 11
344.843926
 21
234.178359
 31
0.0
  0
LINE
  5
1A0
330
1F
100
AcDbEntity
  8
1
  6
CONTINUOUS
 62
    53
100
AcDbLine
 10
343.843926
 20
231.638359
 30
0.0
 11
341.743926
 21
231.638359
 31
0.0
  0
LINE
  5
1A1
330
1F
100
AcDbEntity
  8
1
  6
CONTINUOUS
 62
    53
100
AcDbLine
 10
332.186676
 20
250.798359
 30
0.0
 11
332.186676
 21
243.398359
 31
0.0
  0
LINE
  5
1A2
330
1F
100
AcDbEntity
  8
1
  6
CONTINUOUS
 62
    53
100
AcDbLine
 10
332.793926
 20
243.398359
 30
0.0
 11
332.793926
 21
250.798359
 31
0.0
  0
LINE
  5
1A3
330
1F
100
AcDbEntity
  8
1
  6
CONTINUOUS
 62
    53
100
AcDbLine
 10
329.234207
 20
227.598359
 30
0.0
 11
329.234207
 21
211.648359
 31
0.0
  0
LINE
  5
1A4
330
1F
100
AcDbEntity
  8
1
  6
CONTINUOUS
 62
    53
100
AcDbLine
 10
361.453645
 20
211.648359
 30
0.0
 11
361.453645
 21
249.648359
 31
0.0
  0
LINE
  5
1A5
330
1F
100
AcDbEntity
  8
1
  6
CONTINUOUS
 62
    53
100
AcDbLine
 10
337.343926
 20
203.53864
 30
0.0
 11
353.343926
 21
203.53864
 31
0.0
  0
LINE
  5
1A6
330
1F
100
AcDbEntity
  8
1
  6
CONTINUOUS
 62
    53
100
AcDbLine
 10
329.234207
 20
249.648359
 30
0.0
 11
329.234207
 21
229.998359
 31
0.0
  0
LINE
  5
1A7
330
1F
100
AcDbEntity
  8
1
  6
CONTINUOUS
 62
    30
100
AcDbLine
 10
346.243926
 20
228.608359
 30
0.0
 11
342.243926
 21
228.608359
 31
0.0
  0
LINE
  5
1A8
330
1F
100
AcDbEntity
  8
1
  6
CONTINUOUS
 62
    30
100
AcDbLine
 10
342.243926
 20
228.608359
 30
0.0
 11
342.243926
 21
226.808359
 31
0.0
  0
LINE
  5
1A9
330
1F
100
AcDbEntity
  8
1
  6
CONTINUOUS
 62
    30
100
AcDbLine
 10
346.243926
 20
228.608359
 30
0.0
 11
346.243926
 21
226.808359
 31
0.0
  0
LINE
  5
1AA
330
1F
100
AcDbEntity
  8
1
  6
CONTINUOUS
 62
    30
100
AcDbLine
 10
346.243926
 20
226.808359
 30
0.0
 11
342.243926
 21
226.808359
 31
0.0
  0
LINE
  5
1AB
330
1F
100
AcDbEntity
  8
1
  6
CONTINUOUS
 62
   151
100
AcDbLine
 10
340.293926
 20
239.798359
 30
0.0
 11
340.293926
 21
252.398359
 31
0.0
  0
LINE
  5
1AC
330
1F
100
AcDbEntity
  8
1
  6
CONTINUOUS
 62
   151
100
AcDbLine
 10
340.493926
 20
252.398359
 30
0.0
 11
340.493926
 21
239.798359
 31
0.0
  0
LINE
  5
1AD
330
1F
100
AcDbEntity
  8
1
  6
CONTINUOUS
 62
   151
100
AcDbLine
 10
338.793926
 20
253.898359
 30
0.0
 11
334.793926
 21
253.898359
 31
0.0
  0
LINE
  5
1AE
330
1F
100
AcDbEntity
  8
1
  6
CONTINUOUS
 62
   151
100
AcDbLine
 10
334.793926
 20
254.098359
 30
0.0
 11
338.793926
 21
254.098359
 31
0.0
  0
LINE
  5
1AF
330
1F
100
AcDbEntity
  8
1
  6
CONTINUOUS
 62
   151
100
AcDbLine
 10
338.793926
 20
238.098359
 30
0.0
 11
334.793926
 21
238.098359
 31
0.0
  0
LINE
  5
1B0
330
1F
100
AcDbEntity
  8
1
  6
CONTINUOUS
 62
   151
100
AcDbLine
 10
334.793926
 20
238.298359
 30
0.0
 11
338.793926
 21
238.298359
 31
0.0
  0
LINE
  5
1B1
330
1F
100
AcDbEntity
  8
1
  6
CONTINUOUS
 62
   151
100
AcDbLine
 10
333.293926
 20
252.398359
 30
0.0
 11
333.293926
 21
239.798359
 31
0.0
  0
LINE
  5
1B2
330
1F
100
AcDbEntity
  8
1
  6
CONTINUOUS
 62
   151
100
AcDbLine
 10
333.093926
 20
239.798359
 30
0.0
 11
333.093926
 21
252.398359
 31
0.0
  0
LINE
  5
1B3
330
1F
100
AcDbEntity
  8
1
  6
CONTINUOUS
 62
     8
100
AcDbLine
 10
352.593926
 20
252.148359
 30
0.0
 11
352.593926
 21
251.648359
 31
0.0
  0
LINE
  5
1B4
330
1F
100
AcDbEntity
  8
1
  6
CONTINUOUS
 62
     8
100
AcDbLine
 10
350.593926
 20
251.648359
 30
0.0
 11
350.593926
 21
252.148359
 31
0.0
  0
LINE
  5
1B5
330
1F
100
AcDbEntity
  8
1
  6
CONTINUOUS
 62
     8
100
AcDbLine
 10
352.593926
 20
236.648359
 30
0.0
 11
352.593926
 21
236.14837
 31
0.0
  0
LINE
  5
1B6
330
1F
100
AcDbEntity
  8
1
  6
CONTINUOUS
 62
     8
100
AcDbLine
 10
350.593926
 20
236.14837
 30
0.0
 11
350.593926
 21
236.648359
 31
0.0
  0
LINE
  5
1B7
330
1F
100
AcDbEntity
  8
1
  6
CONTINUOUS
 62
     8
100
AcDbLine
 10
355.343923
 20
239.148359
 30
0.0
 11
354.843926
 21
239.148359
 31
0.0
  0
LINE
  5
1B8
330
1F
100
AcDbEntity
  8
1
  6
CONTINUOUS
 62
     8
100
AcDbLine
 10
354.843926
 20
237.148359
 30
0.0
 11
355.343923
 21
237.148359
 31
0.0
  0
LINE
  5
1B9
330
1F
100
AcDbEntity
  8
1
  6
CONTINUOUS
 62
     8
100
AcDbLine
 10
347.593926
 20
236.648359
 30
0.0
 11
347.593926
 21
236.14837
 31
0.0
  0
LINE
  5
1BA
330
1F
100
AcDbEntity
  8
1
  6
CONTINUOUS
 62
     8
100
AcDbLine
 10
345.593926
 20
236.14837
 30
0.0
 11
345.593926
 21
236.648359
 31
0.0
  0
LINE
  5
1BB
330
1F
100
AcDbEntity
  8
1
  6
CONTINUOUS
 62
     8
100
AcDbLine
 10
342.843926
 20
251.148359
 30
0.0
 11
343.343926
 21
251.148359
 31
0.0
  0
LINE
  5
1BC
330
1F
100
AcDbEntity
  8
1
  6
CONTINUOUS
 62
     8
100
AcDbLine
 10
343.343926
 20
249.148359
 30
0.0
 11
342.843926
 21
249.148359
 31
0.0
  0
LINE
  5
1BD
330
1F
100
AcDbEntity
  8
1
  6
CONTINUOUS
 62
     8
100
AcDbLine
 10
345.593926
 20
251.648359
 30
0.0
 11
345.593926
 21
252.148359
 31
0.0
  0
LINE
  5
1BE
330
1F
100
AcDbEntity
  8
1
  6
CONTINUOUS
 62
     8
100
AcDbLine
 10
347.593926
 20
252.148359
 30
0.0
 11
347.593926
 21
251.648359
 31
0.0
  0
LINE
  5
1BF
330
1F
100
AcDbEntity
  8
1
  6
CONTINUOUS
 62
   151
100
AcDbLine
 10
333.093926
 20
239.798359
 30
0.0
 11
333.293926
 21
239.798359
 31
0.0
  0
LINE
  5
1C0
330
1F
100
AcDbEntity
  8
1
  6
CONTINUOUS
 62
   151
100
AcDbLine
 10
334.793926
 20
238.098359
 30
0.0
 11
334.793926
 21
238.298359
 31
0.0
  0
LINE
  5
1C1
330
1F
100
AcDbEntity
  8
1
  6
CONTINUOUS
 62
   151
100
AcDbLine
 10
340.293926
 20
252.398359
 30
0.0
 11
340.493926
 21
252.398359
 31
0.0
  0
LINE
  5
1C2
330
1F
100
AcDbEntity
  8
1
  6
CONTINUOUS
 62
   151
100
AcDbLine
 10
340.493926
 20
239.798359
 30
0.0
 11
340.293926
 21
239.798359
 31
0.0
  0
LINE
  5
1C3
330
1F
100
AcDbEntity
  8
1
  6
CONTINUOUS
 62
   151
100
AcDbLine
 10
338.793926
 20
253.898359
 30
0.0
 11
338.793926
 21
254.098359
 31
0.0
  0
LINE
  5
1C4
330
1F
100
AcDbEntity
  8
1
  6
CONTINUOUS
 62
   151
100
AcDbLine
 10
338.793926
 20
238.098359
 30
0.0
 11
338.793926
 21
238.298359
 31
0.0
  0
LINE
  5
1C5
330
1F
100
AcDbEntity
  8
1
  6
CONTINUOUS
 62
   151
100
AcDbLine
 10
334.793926
 20
253.898359
 30
0.0
 11
334.793926
 21
254.098359
 31
0.0
  0
LINE
  5
1C6
330
1F
100
AcDbEntity
  8
1
  6
CONTINUOUS
 62
   151
100
AcDbLine
 10
333.293926
 20
252.398359
 30
0.0
 11
333.093926
 21
252.398359
 31
0.0
  0
LINE
  5
1C7
330
1F
100
AcDbEntity
  8
1
  6
CONTINUOUS
 62
   250
100
AcDbLine
 10
343.343926
 20
246.048359
 30
0.0
 11
342.843926
 21
246.048359
 31
0.0
  0
LINE
  5
1C8
330
1F
100
AcDbEntity
  8
1
  6
CONTINUOUS
 62
   250
100
AcDbLine
 10
342.843926
 20
245.048359
 30
0.0
 11
343.343926
 21
245.048359
 31
0.0
  0
LINE
  5
1C9
330
1F
100
AcDbEntity
  8
1
  6
CONTINUOUS
 62
     7
100
AcDbLine
 10
354.743926
 20
234.178354
 30
0.0
 11
354.743926
 21
234.048359
 31
0.0
  0
LINE
  5
1CA
330
1F
100
AcDbEntity
  8
1
  6
CONTINUOUS
 62
    53
100
AcDbLine
 10
332.203252
 20
250.989229
 30
0.0
 11
332.018127
 21
251.021627
 31
0.0
  0
LINE
  5
1CB
330
1F
100
AcDbEntity
  8
1
  6
CONTINUOUS
 62
    53
100
AcDbLine
 10
332.265699
 20
251.209152
 30
0.0
 11
332.091173
 21
251.278878
 31
0.0
  0
LINE
  5
1CC
330
1F
100
AcDbEntity
  8
1
  6
CONTINUOUS
 62
     7
100
AcDbLine
 10
448.112692
 20
245.898359
 30
0.0
 11
448.112692
 21
245.648359
 31
0.0
  0
LINE
  5
1CD
330
1F
100
AcDbEntity
  8
1
  6
CONTINUOUS
 62
     7
100
AcDbLine
 10
528.362692
 20
246.398359
 30
0.0
 11
528.362692
 21
245.898359
 31
0.0
  0
LINE
  5
1CE
330
1F
100
AcDbEntity
  8
1
  6
CONTINUOUS
 62
     7
100
AcDbLine
 10
447.612692
 20
245.648359
 30
0.0
 11
447.612692
 21
245.898359
 31
0.0
  0
LINE
  5
1CF
330
1F
100
AcDbEntity
  8
1
  6
CONTINUOUS
 62
   151
100
AcDbLine
 10
482.095926
 20
257.665125
 30
0.0
 11
482.012692
 21
257.748359
 31
0.0
  0
LINE
  5
1D0
330
1F
100
AcDbEntity
  8
1
  6
CONTINUOUS
 62
   151
100
AcDbLine
 10
473.712692
 20
257.748359
 30
0.0
 11
473.629457
 21
257.665125
 31
0.0
  0
LINE
  5
1D1
330
1F
100
AcDbEntity
  8
1
  6
CONTINUOUS
 62
     9
100
AcDbLine
 10
432.862692
 20
249.048359
 30
0.0
 11
542.862692
 21
249.048359
 31
0.0
  0
LINE
  5
1D2
330
1F
100
AcDbEntity
  8
1
  6
CONTINUOUS
 62
   250
100
AcDbLine
 10
544.393216
 20
203.619645
 30
0.0
 11
543.074901
 21
203.539013
 31
0.0
  0
LINE
  5
1D3
330
1F
100
AcDbEntity
  8
1
  6
CONTINUOUS
 62
   250
100
AcDbLine
 10
543.074901
 20
257.757705
 30
0.0
 11
544.393216
 21
257.677073
 31
0.0
  0
LINE
  5
1D4
330
1F
100
AcDbEntity
  8
1
  6
CONTINUOUS
 62
   250
100
AcDbLine
 10
542.862692
 20
248.54814
 30
0.0
 11
542.862692
 21
249.648359
 31
0.0
  0
LINE
  5
1D5
330
1F
100
AcDbEntity
  8
1
  6
CONTINUOUS
 62
     7
100
AcDbLine
 10
448.112692
 20
245.648359
 30
0.0
 11
447.612692
 21
245.648359
 31
0.0
  0
LINE
  5
1D6
330
1F
100
AcDbEntity
  8
1
  6
CONTINUOUS
 62
   151
100
AcDbLine
 10
430.862706
 20
254.098359
 30
0.0
 11
430.762692
 21
254.098359
 31
0.0
  0
LINE
  5
1D7
330
1F
100
AcDbEntity
  8
1
  6
CONTINUOUS
 62
   151
100
AcDbLine
 10
430.862706
 20
238.098359
 30
0.0
 11
430.762692
 21
238.098359
 31
0.0
  0
LINE
  5
1D8
330
1F
100
AcDbEntity
  8
1
  6
CONTINUOUS
 62
     9
100
AcDbLine
 10
432.862692
 20
249.648359
 30
0.0
 11
542.862692
 21
249.648359
 31
0.0
  0
LINE
  5
1D9
330
1F
100
AcDbEntity
  8
1
  6
CONTINUOUS
 62
     7
100
AcDbLine
 10
528.362692
 20
245.898359
 30
0.0
 11
528.112692
 21
245.898359
 31
0.0
  0
LINE
  5
1DA
330
1F
100
AcDbEntity
  8
1
  6
CONTINUOUS
 62
     7
100
AcDbLine
 10
528.112692
 20
245.898359
 30
0.0
 11
528.112692
 21
245.648359
 31
0.0
  0
LINE
  5
1DB
330
1F
100
AcDbEntity
  8
1
  6
CONTINUOUS
 62
     7
100
AcDbLine
 10
448.362692
 20
245.898359
 30
0.0
 11
448.112692
 21
245.898359
 31
0.0
  0
LINE
  5
1DC
330
1F
100
AcDbEntity
  8
1
  6
CONTINUOUS
 62
     7
100
AcDbLine
 10
447.362692
 20
246.398359
 30
0.0
 11
447.612692
 21
246.398359
 31
0.0
  0
LINE
  5
1DD
330
1F
100
AcDbEntity
  8
1
  6
CONTINUOUS
 62
     7
100
AcDbLine
 10
448.112692
 20
246.648359
 30
0.0
 11
448.112692
 21
246.398359
 31
0.0
  0
LINE
  5
1DE
330
1F
100
AcDbEntity
  8
1
  6
CONTINUOUS
 62
     9
100
AcDbLine
 10
473.629456
 20
257.648359
 30
0.0
 11
473.629456
 21
257.848359
 31
0.0
  0
LINE
  5
1DF
330
1F
100
AcDbEntity
  8
1
  6
CONTINUOUS
 62
     9
100
AcDbLine
 10
482.095928
 20
257.848359
 30
0.0
 11
482.095928
 21
257.648359
 31
0.0
  0
LINE
  5
1E0
330
1F
100
AcDbEntity
  8
1
  6
CONTINUOUS
 62
     9
100
AcDbLine
 10
482.295928
 20
257.648359
 30
0.0
 11
482.295928
 21
257.848359
 31
0.0
  0
LINE
  5
1E1
330
1F
100
AcDbEntity
  8
1
  6
CONTINUOUS
 62
     7
100
AcDbLine
 10
447.612692
 20
245.898359
 30
0.0
 11
447.362692
 21
245.898359
 31
0.0
  0
LINE
  5
1E2
330
1F
100
AcDbEntity
  8
1
  6
CONTINUOUS
 62
     7
100
AcDbLine
 10
447.612692
 20
246.398359
 30
0.0
 11
447.612692
 21
246.648359
 31
0.0
  0
LINE
  5
1E3
330
1F
100
AcDbEntity
  8
1
  6
CONTINUOUS
 62
     7
100
AcDbLine
 10
448.112692
 20
246.398359
 30
0.0
 11
448.362692
 21
246.398359
 31
0.0
  0
LINE
  5
1E4
330
1F
100
AcDbEntity
  8
1
  6
CONTINUOUS
 62
     9
100
AcDbLine
 10
473.429456
 20
257.648359
 30
0.0
 11
473.429456
 21
257.848359
 31
0.0
  0
LINE
  5
1E5
330
1F
100
AcDbEntity
  8
1
  6
CONTINUOUS
 62
     9
100
AcDbLine
 10
483.941376
 20
257.648359
 30
0.0
 11
483.941376
 21
257.848359
 31
0.0
  0
LINE
  5
1E6
330
1F
100
AcDbEntity
  8
1
  6
CONTINUOUS
 62
     9
100
AcDbLine
 10
484.541376
 20
257.648359
 30
0.0
 11
484.541376
 21
257.848359
 31
0.0
  0
LINE
  5
1E7
330
1F
100
AcDbEntity
  8
1
  6
CONTINUOUS
 62
     7
100
AcDbLine
 10
447.362692
 20
245.898359
 30
0.0
 11
447.362692
 21
246.398359
 31
0.0
  0
LINE
  5
1E8
330
1F
100
AcDbEntity
  8
1
  6
CONTINUOUS
 62
     7
100
AcDbLine
 10
447.612692
 20
246.648359
 30
0.0
 11
448.112692
 21
246.648359
 31
0.0
  0
LINE
  5
1E9
330
1F
100
AcDbEntity
  8
1
  6
CONTINUOUS
 62
     7
100
AcDbLine
 10
448.362692
 20
246.398359
 30
0.0
 11
448.362692
 21
245.898359
 31
0.0
  0
LINE
  5
1EA
330
1F
100
AcDbEntity
  8
1
  6
CONTINUOUS
 62
     9
100
AcDbLine
 10
471.784007
 20
257.648359
 30
0.0
 11
471.784007
 21
257.848359
 31
0.0
  0
LINE
  5
1EB
330
1F
100
AcDbEntity
  8
1
  6
CONTINUOUS
 62
     9
100
AcDbLine
 10
471.184007
 20
257.848359
 30
0.0
 11
471.184007
 21
257.648359
 31
0.0
  0
LINE
  5
1EC
330
1F
100
AcDbEntity
  8
1
  6
CONTINUOUS
 62
     9
100
AcDbLine
 10
432.862692
 20
257.648359
 30
0.0
 11
542.862692
 21
257.648359
 31
0.0
  0
LINE
  5
1ED
330
1F
100
AcDbEntity
  8
1
  6
CONTINUOUS
 62
     7
100
AcDbLine
 10
528.112692
 20
246.398359
 30
0.0
 11
528.362692
 21
246.398359
 31
0.0
  0
LINE
  5
1EE
330
1F
100
AcDbEntity
  8
1
  6
CONTINUOUS
 62
     7
100
AcDbLine
 10
528.112692
 20
246.648359
 30
0.0
 11
528.112692
 21
246.398359
 31
0.0
  0
LINE
  5
1EF
330
1F
100
AcDbEntity
  8
1
  6
CONTINUOUS
 62
     7
100
AcDbLine
 10
527.612692
 20
246.648359
 30
0.0
 11
528.112692
 21
246.648359
 31
0.0
  0
LINE
  5
1F0
330
1F
100
AcDbEntity
  8
1
  6
CONTINUOUS
 62
     7
100
AcDbLine
 10
527.612692
 20
246.398359
 30
0.0
 11
527.612692
 21
246.648359
 31
0.0
  0
LINE
  5
1F1
330
1F
100
AcDbEntity
  8
1
  6
CONTINUOUS
 62
     7
100
AcDbLine
 10
527.362692
 20
246.398359
 30
0.0
 11
527.612692
 21
246.398359
 31
0.0
  0
LINE
  5
1F2
330
1F
100
AcDbEntity
  8
1
  6
CONTINUOUS
 62
     7
100
AcDbLine
 10
527.362692
 20
245.898359
 30
0.0
 11
527.362692
 21
246.398359
 31
0.0
  0
LINE
  5
1F3
330
1F
100
AcDbEntity
  8
1
  6
CONTINUOUS
 62
     7
100
AcDbLine
 10
527.612692
 20
245.898359
 30
0.0
 11
527.362692
 21
245.898359
 31
0.0
  0
LINE
  5
1F4
330
1F
100
AcDbEntity
  8
1
  6
CONTINUOUS
 62
     7
100
AcDbLine
 10
527.612692
 20
245.648359
 30
0.0
 11
527.612692
 21
245.898359
 31
0.0
  0
LINE
  5
1F5
330
1F
100
AcDbEntity
  8
1
  6
CONTINUOUS
 62
     7
100
AcDbLine
 10
528.112692
 20
245.648359
 30
0.0
 11
527.612692
 21
245.648359
 31
0.0
  0
LINE
  5
1F6
330
1F
100
AcDbEntity
  8
1
  6
CONTINUOUS
 62
    53
100
AcDbLine
 10
432.862692
 20
249.648359
 30
0.0
 11
432.862692
 21
248.54814
 31
0.0
  0
LINE
  5
1F7
330
1F
100
AcDbEntity
  8
1
  6
CONTINUOUS
 62
    53
100
AcDbLine
 10
431.332167
 20
203.619645
 30
0.0
 11
432.650482
 21
203.539013
 31
0.0
  0
LINE
  5
1F8
330
1F
100
AcDbEntity
  8
1
  6
CONTINUOUS
 62
    53
100
AcDbLine
 10
431.332167
 20
257.677073
 30
0.0
 11
432.650482
 21
257.757705
 31
0.0
  0
LINE
  5
1F9
330
1F
100
AcDbEntity
  8
1
  6
CONTINUOUS
 62
     7
100
AcDbLine
 10
432.862692
 20
211.648359
 30
0.0
 11
542.862692
 21
211.648359
 31
0.0
  0
LINE
  5
1FA
330
1F
100
AcDbEntity
  8
1
  6
CONTINUOUS
 62
     7
100
AcDbLine
 10
433.162692
 20
248.848359
 30
0.0
 11
542.562692
 21
248.848359
 31
0.0
  0
LINE
  5
1FB
330
1F
100
AcDbEntity
  8
1
  6
CONTINUOUS
 62
     7
100
AcDbLine
 10
432.862692
 20
203.648359
 30
0.0
 11
542.862692
 21
203.648359
 31
0.0
  0
LINE
  5
1FC
330
1F
100
AcDbEntity
  8
1
  6
CONTINUOUS
 62
   151
100
AcDbLine
 10
473.712692
 20
257.748359
 30
0.0
 11
482.012692
 21
257.748359
 31
0.0
  0
LINE
  5
1FD
102
{ACAD_REACTORS
330
41B
102
}
330
1F
100
AcDbEntity
  8
1
  6
CONTINUOUS
 62
     4
100
AcDbLine
 10
161.353323
 20
360.722319
 30
0.0
 11
228.353323
 21
360.722319
 31
0.0
  0
LINE
  5
1FE
102
{ACAD_REACTORS
330
41B
102
}
330
1F
100
AcDbEntity
  8
1
  6
CONTINUOUS
 62
     4
100
AcDbLine
 10
228.353323
 20
334.121252
 30
0.0
 11
228.353323
 21
362.222319
 31
0.0
  0
LINE
  5
1FF
102
{ACAD_REACTORS
330
41B
102
}
330
1F
100
AcDbEntity
  8
1
  6
CONTINUOUS
 62
     4
100
AcDbLine
 10
161.353323
 20
342.400899
 30
0.0
 11
161.353323
 21
362.222319
 31
0.0
  0
LINE
  5
200
102
{ACAD_REACTORS
330
41B
102
}
330
1F
100
AcDbEntity
  8
1
  6
CONTINUOUS
 62
     4
100
AcDbLine
 10
228.353323
 20
360.722319
 30
0.0
 11
226.353325
 21
360.18642
 31
0.0
  0
LINE
  5
201
102
{ACAD_REACTORS
330
41B
102
}
330
1F
100
AcDbEntity
  8
1
  6
CONTINUOUS
 62
     4
100
AcDbLine
 10
228.353323
 20
360.722319
 30
0.0
 11
226.353321
 21
361.258217
 31
0.0
  0
LINE
  5
202
102
{ACAD_REACTORS
330
41B
102
}
330
1F
100
AcDbEntity
  8
1
  6
CONTINUOUS
 62
     4
100
AcDbLine
 10
161.353323
 20
360.722319
 30
0.0
 11
163.353321
 21
361.258217
 31
0.0
  0
LINE
  5
203
102
{ACAD_REACTORS
330
41B
102
}
330
1F
100
AcDbEntity
  8
1
  6
CONTINUOUS
 62
     4
100
AcDbLine
 10
161.353323
 20
360.722319
 30
0.0
 11
163.353325
 21
360.18642
 31
0.0
  0
LINE
  5
204
102
{ACAD_REACTORS
330
41C
102
}
330
1F
100
AcDbEntity
  8
1
  6
CONTINUOUS
 62
     4
100
AcDbLine
 10
361.453645
 20
280.044555
 30
0.0
 11
329.240305
 21
280.044555
 31
0.0
  0
LINE
  5
205
102
{ACAD_REACTORS
330
41C
102
}
330
1F
100
AcDbEntity
  8
1
  6
CONTINUOUS
 62
     4
100
AcDbLine
 10
350.043926
 20
253.148359
 30
0.0
 11
350.043926
 21
281.544555
 31
0.0
  0
LINE
  5
206
102
{ACAD_REACTORS
330
41C
102
}
330
1F
100
AcDbEntity
  8
1
  6
CONTINUOUS
 62
     4
100
AcDbLine
 10
361.453645
 20
249.648359
 30
0.0
 11
361.453645
 21
281.544555
 31
0.0
  0
LINE
  5
207
102
{ACAD_REACTORS
330
41C
102
}
330
1F
100
AcDbEntity
  8
1
  6
CONTINUOUS
 62
     4
100
AcDbLine
 10
350.043926
 20
280.044555
 30
0.0
 11
352.043924
 21
280.580453
 31
0.0
  0
LINE
  5
208
102
{ACAD_REACTORS
330
41C
102
}
330
1F
100
AcDbEntity
  8
1
  6
CONTINUOUS
 62
     4
100
AcDbLine
 10
350.043926
 20
280.044555
 30
0.0
 11
352.043928
 21
279.508657
 31
0.0
  0
LINE
  5
209
102
{ACAD_REACTORS
330
41C
102
}
330
1F
100
AcDbEntity
  8
1
  6
CONTINUOUS
 62
     4
100
AcDbLine
 10
361.453645
 20
280.044555
 30
0.0
 11
359.453647
 21
279.508657
 31
0.0
  0
LINE
  5
20A
102
{ACAD_REACTORS
330
41C
102
}
330
1F
100
AcDbEntity
  8
1
  6
CONTINUOUS
 62
     4
100
AcDbLine
 10
361.453645
 20
280.044555
 30
0.0
 11
359.453643
 21
280.580453
 31
0.0
  0
LINE
  5
20B
102
{ACAD_REACTORS
330
41D
102
}
330
1F
100
AcDbEntity
  8
1
  6
CONTINUOUS
 62
     4
100
AcDbLine
 10
388.279527
 20
244.148359
 30
0.0
 11
388.279527
 21
286.938602
 31
0.0
  0
LINE
  5
20C
102
{ACAD_REACTORS
330
41D
102
}
330
1F
100
AcDbEntity
  8
1
  6
CONTINUOUS
 62
     4
100
AcDbLine
 10
356.843926
 20
244.148359
 30
0.0
 11
389.779527
 21
244.148359
 31
0.0
  0
LINE
  5
20D
102
{ACAD_REACTORS
330
41D
102
}
330
1F
100
AcDbEntity
  8
1
  6
CONTINUOUS
 62
     4
100
AcDbLine
 10
353.343926
 20
257.758078
 30
0.0
 11
389.779527
 21
257.758078
 31
0.0
  0
LINE
  5
20E
102
{ACAD_REACTORS
330
41D
102
}
330
1F
100
AcDbEntity
  8
1
  6
CONTINUOUS
 62
     4
100
AcDbLine
 10
388.279527
 20
244.148359
 30
0.0
 11
387.743628
 21
246.148357
 31
0.0
  0
LINE
  5
20F
102
{ACAD_REACTORS
330
41D
102
}
330
1F
100
AcDbEntity
  8
1
  6
CONTINUOUS
 62
     4
100
AcDbLine
 10
388.279527
 20
244.148359
 30
0.0
 11
388.815425
 21
246.148361
 31
0.0
  0
LINE
  5
210
102
{ACAD_REACTORS
330
41D
102
}
330
1F
100
AcDbEntity
  8
1
  6
CONTINUOUS
 62
     4
100
AcDbLine
 10
388.279527
 20
257.758078
 30
0.0
 11
388.815425
 21
255.75808
 31
0.0
  0
LINE
  5
211
102
{ACAD_REACTORS
330
41D
102
}
330
1F
100
AcDbEntity
  8
1
  6
CONTINUOUS
 62
     4
100
AcDbLine
 10
388.279527
 20
257.758078
 30
0.0
 11
387.743628
 21
255.758076
 31
0.0
  0
LINE
  5
212
330
1F
100
AcDbEntity
  8
1
  6
CONTINUOUS
 62
     9
100
AcDbLine
 10
273.353323
 20
212.748359
 30
0.0
 11
273.353323
 21
257.648359
 31
0.0
  0
LINE
  5
213
330
1F
100
AcDbEntity
  8
1
  6
CONTINUOUS
 62
     9
100
AcDbLine
 10
163.353323
 20
212.748359
 30
0.0
 11
163.353323
 21
257.648359
 31
0.0
  0
LINE
  5
214
330
1F
100
AcDbEntity
  8
1
  6
CONTINUOUS
 62
    53
100
AcDbLine
 10
275.353323
 20
227.598359
 30
0.0
 11
275.353323
 21
204.118712
 31
0.0
  0
LINE
  5
215
330
1F
100
AcDbEntity
  8
1
  6
CONTINUOUS
 62
    53
100
AcDbLine
 10
275.353323
 20
229.998359
 30
0.0
 11
275.353323
 21
257.178006
 31
0.0
  0
LINE
  5
216
330
1F
100
AcDbEntity
  8
1
  6
CONTINUOUS
 62
   151
100
AcDbLine
 10
275.353309
 20
252.398359
 30
0.0
 11
275.653323
 21
252.398359
 31
0.0
  0
LINE
  5
217
330
1F
100
AcDbEntity
  8
1
  6
CONTINUOUS
 62
   151
100
AcDbLine
 10
275.353309
 20
239.798359
 30
0.0
 11
275.653323
 21
239.798359
 31
0.0
  0
LINE
  5
218
330
1F
100
AcDbEntity
  8
1
  6
CONTINUOUS
 62
    53
100
AcDbLine
 10
273.565533
 20
227.598359
 30
0.0
 11
273.565533
 21
203.539013
 31
0.0
  0
LINE
  5
219
330
1F
100
AcDbEntity
  8
1
  6
CONTINUOUS
 62
    53
100
AcDbLine
 10
273.565533
 20
229.998359
 30
0.0
 11
273.565533
 21
257.757705
 31
0.0
  0
LINE
  5
21A
330
1F
100
AcDbEntity
  8
1
  6
CONTINUOUS
 62
    53
100
AcDbLine
 10
274.883847
 20
227.598359
 30
0.0
 11
274.883847
 21
203.619645
 31
0.0
  0
LINE
  5
21B
330
1F
100
AcDbEntity
  8
1
  6
CONTINUOUS
 62
    53
100
AcDbLine
 10
274.883847
 20
229.998359
 30
0.0
 11
274.883847
 21
257.677073
 31
0.0
  0
LINE
  5
21C
330
1F
100
AcDbEntity
  8
1
  6
CONTINUOUS
 62
     7
100
AcDbLine
 10
273.353323
 20
212.248359
 30
0.0
 11
273.353323
 21
203.648359
 31
0.0
  0
LINE
  5
21D
330
1F
100
AcDbEntity
  8
1
  6
CONTINUOUS
 62
     7
100
AcDbLine
 10
163.353323
 20
212.248359
 30
0.0
 11
163.353323
 21
203.648359
 31
0.0
  0
LINE
  5
21E
330
1F
100
AcDbEntity
  8
1
  6
CONTINUOUS
 62
   150
100
AcDbLine
 10
275.353323
 20
229.998359
 30
0.0
 11
273.353323
 21
229.998359
 31
0.0
  0
LINE
  5
21F
330
1F
100
AcDbEntity
  8
1
  6
CONTINUOUS
 62
   150
100
AcDbLine
 10
275.353323
 20
227.598359
 30
0.0
 11
273.353323
 21
227.598359
 31
0.0
  0
LINE
  5
220
330
1F
100
AcDbEntity
  8
1
  6
CONTINUOUS
 62
   151
100
AcDbLine
 10
232.503323
 20
257.748359
 30
0.0
 11
224.203323
 21
257.748359
 31
0.0
  0
LINE
  5
221
330
1F
100
AcDbEntity
  8
1
  6
CONTINUOUS
 62
     9
100
AcDbLine
 10
224.120087
 20
257.848359
 30
0.0
 11
221.674639
 21
257.848359
 31
0.0
  0
LINE
  5
222
330
1F
100
AcDbEntity
  8
1
  6
CONTINUOUS
 62
     9
100
AcDbLine
 10
232.586559
 20
257.848359
 30
0.0
 11
235.032007
 21
257.848359
 31
0.0
  0
LINE
  5
223
330
1F
100
AcDbEntity
  8
1
  6
CONTINUOUS
 62
    53
100
AcDbLine
 10
275.353323
 20
211.648359
 30
0.0
 11
273.353323
 21
211.648359
 31
0.0
  0
LINE
  5
224
330
1F
100
AcDbEntity
  8
1
  6
CONTINUOUS
 62
    53
100
AcDbLine
 10
275.353323
 20
227.598359
 30
0.0
 11
273.353323
 21
227.598359
 31
0.0
  0
LINE
  5
225
330
1F
100
AcDbEntity
  8
1
  6
CONTINUOUS
 62
    53
100
AcDbLine
 10
275.353323
 20
249.648359
 30
0.0
 11
273.353323
 21
249.648359
 31
0.0
  0
LINE
  5
226
330
1F
100
AcDbEntity
  8
1
  6
CONTINUOUS
 62
    53
100
AcDbLine
 10
275.353323
 20
229.998359
 30
0.0
 11
273.353323
 21
229.998359
 31
0.0
  0
LINE
  5
227
330
1F
100
AcDbEntity
  8
1
  6
CONTINUOUS
 62
   151
100
AcDbLine
 10
275.653323
 20
238.298359
 30
0.0
 11
275.653323
 21
253.898359
 31
0.0
  0
LINE
  5
228
330
1F
100
AcDbEntity
  8
1
  6
CONTINUOUS
 62
   250
100
AcDbLine
 10
161.353323
 20
204.118712
 30
0.0
 11
161.353323
 21
257.178006
 31
0.0
  0
LINE
  5
229
330
1F
100
AcDbEntity
  8
1
  6
CONTINUOUS
 62
   151
100
AcDbLine
 10
275.453323
 20
238.098359
 30
0.0
 11
275.453323
 21
254.098359
 31
0.0
  0
LINE
  5
22A
330
1F
100
AcDbEntity
  8
1
  6
CONTINUOUS
 62
   250
100
AcDbLine
 10
163.353323
 20
211.648359
 30
0.0
 11
161.353323
 21
211.648359
 31
0.0
  0
LINE
  5
22B
330
1F
100
AcDbEntity
  8
1
  6
CONTINUOUS
 62
   250
100
AcDbLine
 10
163.353323
 20
249.648359
 30
0.0
 11
161.353323
 21
249.648359
 31
0.0
  0
LINE
  5
22C
330
1F
100
AcDbEntity
  8
1
  6
CONTINUOUS
 62
   250
100
AcDbLine
 10
163.141113
 20
257.757705
 30
0.0
 11
163.141113
 21
203.539013
 31
0.0
  0
LINE
  5
22D
330
1F
100
AcDbEntity
  8
1
  6
CONTINUOUS
 62
   250
100
AcDbLine
 10
161.822799
 20
203.619645
 30
0.0
 11
161.822799
 21
257.677073
 31
0.0
  0
LINE
  5
22E
330
1F
100
AcDbEntity
  8
1
  6
CONTINUOUS
 62
   151
100
AcDbLine
 10
275.353309
 20
316.321252
 30
0.0
 11
275.653323
 21
316.321252
 31
0.0
  0
LINE
  5
22F
330
1F
100
AcDbEntity
  8
1
  6
CONTINUOUS
 62
   151
100
AcDbLine
 10
275.353309
 20
320.321252
 30
0.0
 11
275.653323
 21
320.321252
 31
0.0
  0
LINE
  5
230
330
1F
100
AcDbEntity
  8
1
  6
CONTINUOUS
 62
   250
100
AcDbLine
 10
164.153323
 20
324.871251
 30
0.0
 11
164.153323
 21
324.571252
 31
0.0
  0
LINE
  5
231
330
1F
100
AcDbEntity
  8
1
  6
CONTINUOUS
 62
   250
100
AcDbLine
 10
164.153323
 20
328.871253
 30
0.0
 11
164.153323
 21
329.171252
 31
0.0
  0
LINE
  5
232
330
1F
100
AcDbEntity
  8
1
  6
CONTINUOUS
 62
   250
100
AcDbLine
 10
163.553323
 20
328.87124
 30
0.0
 11
163.553323
 21
329.171252
 31
0.0
  0
LINE
  5
233
330
1F
100
AcDbEntity
  8
1
  6
CONTINUOUS
 62
   250
100
AcDbLine
 10
163.553323
 20
324.871265
 30
0.0
 11
163.553323
 21
324.571252
 31
0.0
  0
LINE
  5
234
330
1F
100
AcDbEntity
  8
1
  6
CONTINUOUS
 62
     9
100
AcDbLine
 10
273.353323
 20
324.271252
 30
0.0
 11
273.353323
 21
310.871252
 31
0.0
  0
LINE
  5
235
330
1F
100
AcDbEntity
  8
1
  6
CONTINUOUS
 62
     9
100
AcDbLine
 10
163.353323
 20
324.271252
 30
0.0
 11
163.353323
 21
310.871252
 31
0.0
  0
LINE
  5
236
330
1F
100
AcDbEntity
  8
1
  6
CONTINUOUS
 62
     9
100
AcDbLine
 10
164.453323
 20
324.871252
 30
0.0
 11
163.353323
 21
324.871252
 31
0.0
  0
LINE
  5
237
330
1F
100
AcDbEntity
  8
1
  6
CONTINUOUS
 62
     9
100
AcDbLine
 10
164.453323
 20
328.871252
 30
0.0
 11
163.353323
 21
328.871252
 31
0.0
  0
LINE
  5
238
330
1F
100
AcDbEntity
  8
1
  6
CONTINUOUS
 62
     9
100
AcDbLine
 10
163.353323
 20
329.471252
 30
0.0
 11
163.353323
 21
342.871252
 31
0.0
  0
LINE
  5
239
330
1F
100
AcDbEntity
  8
1
  6
CONTINUOUS
 62
     9
100
AcDbLine
 10
273.353323
 20
329.471252
 30
0.0
 11
273.353323
 21
342.871252
 31
0.0
  0
LINE
  5
23A
330
1F
100
AcDbEntity
  8
1
  6
CONTINUOUS
 62
     9
100
AcDbLine
 10
272.253323
 20
328.871252
 30
0.0
 11
273.353323
 21
328.871252
 31
0.0
  0
LINE
  5
23B
330
1F
100
AcDbEntity
  8
1
  6
CONTINUOUS
 62
     9
100
AcDbLine
 10
272.253323
 20
324.871252
 30
0.0
 11
273.353323
 21
324.871252
 31
0.0
  0
LINE
  5
23C
330
1F
100
AcDbEntity
  8
1
  6
CONTINUOUS
 62
    53
100
AcDbLine
 10
272.553323
 20
328.871253
 30
0.0
 11
272.553323
 21
329.171252
 31
0.0
  0
LINE
  5
23D
330
1F
100
AcDbEntity
  8
1
  6
CONTINUOUS
 62
    53
100
AcDbLine
 10
272.553323
 20
324.871251
 30
0.0
 11
272.553323
 21
324.571252
 31
0.0
  0
LINE
  5
23E
330
1F
100
AcDbEntity
  8
1
  6
CONTINUOUS
 62
    53
100
AcDbLine
 10
273.153323
 20
324.871265
 30
0.0
 11
273.153323
 21
324.271252
 31
0.0
  0
LINE
  5
23F
330
1F
100
AcDbEntity
  8
1
  6
CONTINUOUS
 62
    53
100
AcDbLine
 10
273.153323
 20
328.87124
 30
0.0
 11
273.153323
 21
329.471252
 31
0.0
  0
LINE
  5
240
330
1F
100
AcDbEntity
  8
1
  6
CONTINUOUS
 62
   151
100
AcDbLine
 10
275.653323
 20
321.821252
 30
0.0
 11
275.653323
 21
314.821252
 31
0.0
  0
LINE
  5
241
330
1F
100
AcDbEntity
  8
1
  6
CONTINUOUS
 62
   151
100
AcDbLine
 10
275.453323
 20
322.021252
 30
0.0
 11
275.453323
 21
314.621252
 31
0.0
  0
LINE
  5
242
330
1F
100
AcDbEntity
  8
1
  6
CONTINUOUS
 62
   250
100
AcDbLine
 10
163.141113
 20
342.980598
 30
0.0
 11
163.141113
 21
310.761906
 31
0.0
  0
LINE
  5
243
330
1F
100
AcDbEntity
  8
1
  6
CONTINUOUS
 62
   250
100
AcDbLine
 10
161.822799
 20
342.899966
 30
0.0
 11
161.822799
 21
310.842538
 31
0.0
  0
LINE
  5
244
330
1F
100
AcDbEntity
  8
1
  6
CONTINUOUS
 62
   250
100
AcDbLine
 10
161.353323
 20
334.871252
 30
0.0
 11
163.353323
 21
334.871252
 31
0.0
  0
LINE
  5
245
330
1F
100
AcDbEntity
  8
1
  6
CONTINUOUS
 62
   250
100
AcDbLine
 10
161.353323
 20
318.871252
 30
0.0
 11
163.353323
 21
318.871252
 31
0.0
  0
LINE
  5
246
330
1F
100
AcDbEntity
  8
1
  6
CONTINUOUS
 62
   250
100
AcDbLine
 10
161.353323
 20
342.400899
 30
0.0
 11
161.353323
 21
311.341605
 31
0.0
  0
LINE
  5
247
330
1F
100
AcDbEntity
  8
1
  6
CONTINUOUS
 62
    53
100
AcDbLine
 10
273.565533
 20
310.761906
 30
0.0
 11
273.565533
 21
342.980598
 31
0.0
  0
LINE
  5
248
330
1F
100
AcDbEntity
  8
1
  6
CONTINUOUS
 62
    53
100
AcDbLine
 10
274.883847
 20
310.842538
 30
0.0
 11
274.883847
 21
342.899966
 31
0.0
  0
LINE
  5
249
330
1F
100
AcDbEntity
  8
1
  6
CONTINUOUS
 62
    53
100
AcDbLine
 10
275.353323
 20
334.871252
 30
0.0
 11
273.353323
 21
334.871252
 31
0.0
  0
LINE
  5
24A
330
1F
100
AcDbEntity
  8
1
  6
CONTINUOUS
 62
    53
100
AcDbLine
 10
275.353323
 20
311.341605
 30
0.0
 11
275.353323
 21
342.400899
 31
0.0
  0
LINE
  5
24B
330
1F
100
AcDbEntity
  8
1
  6
CONTINUOUS
 62
    53
100
AcDbLine
 10
275.353323
 20
318.871252
 30
0.0
 11
273.353323
 21
318.871252
 31
0.0
  0
LINE
  5
24C
330
1F
100
AcDbEntity
  8
1
  6
CONTINUOUS
 62
    53
100
AcDbLine
 10
273.353323
 20
324.771252
 30
0.0
 11
272.253323
 21
324.771252
 31
0.0
  0
LINE
  5
24D
330
1F
100
AcDbEntity
  8
1
  6
CONTINUOUS
 62
    53
100
AcDbLine
 10
273.353323
 20
328.971252
 30
0.0
 11
272.253323
 21
328.971252
 31
0.0
  0
LINE
  5
24E
330
1F
100
AcDbEntity
  8
1
  6
CONTINUOUS
 62
   250
100
AcDbLine
 10
163.353323
 20
328.971252
 30
0.0
 11
164.453323
 21
328.971252
 31
0.0
  0
LINE
  5
24F
330
1F
100
AcDbEntity
  8
1
  6
CONTINUOUS
 62
   250
100
AcDbLine
 10
163.353323
 20
324.771252
 30
0.0
 11
164.453323
 21
324.771252
 31
0.0
  0
LINE
  5
250
330
1F
100
AcDbEntity
  8
1
  6
CONTINUOUS
 62
   151
100
AcDbLine
 10
275.353309
 20
133.583988
 30
0.0
 11
275.653323
 21
133.583988
 31
0.0
  0
LINE
  5
251
330
1F
100
AcDbEntity
  8
1
  6
CONTINUOUS
 62
   151
100
AcDbLine
 10
275.353309
 20
137.583988
 30
0.0
 11
275.653323
 21
137.583988
 31
0.0
  0
LINE
  5
252
330
1F
100
AcDbEntity
  8
1
  6
CONTINUOUS
 62
   250
100
AcDbLine
 10
164.153323
 20
129.033989
 30
0.0
 11
164.153323
 21
129.533988
 31
0.0
  0
LINE
  5
253
330
1F
100
AcDbEntity
  8
1
  6
CONTINUOUS
 62
   250
100
AcDbLine
 10
164.153323
 20
125.033987
 30
0.0
 11
164.153323
 21
124.533988
 31
0.0
  0
LINE
  5
254
330
1F
100
AcDbEntity
  8
1
  6
CONTINUOUS
 62
   250
100
AcDbLine
 10
163.553323
 20
125.034001
 30
0.0
 11
163.553323
 21
124.533988
 31
0.0
  0
LINE
  5
255
330
1F
100
AcDbEntity
  8
1
  6
CONTINUOUS
 62
   250
100
AcDbLine
 10
163.553323
 20
129.033976
 30
0.0
 11
163.553323
 21
129.533988
 31
0.0
  0
LINE
  5
256
330
1F
100
AcDbEntity
  8
1
  6
CONTINUOUS
 62
    53
100
AcDbLine
 10
272.553323
 20
129.033989
 30
0.0
 11
272.553323
 21
129.533988
 31
0.0
  0
LINE
  5
257
330
1F
100
AcDbEntity
  8
1
  6
CONTINUOUS
 62
    53
100
AcDbLine
 10
272.553323
 20
125.033987
 30
0.0
 11
272.553323
 21
124.533988
 31
0.0
  0
LINE
  5
258
330
1F
100
AcDbEntity
  8
1
  6
CONTINUOUS
 62
    53
100
AcDbLine
 10
273.153323
 20
125.034001
 30
0.0
 11
273.153323
 21
124.533988
 31
0.0
  0
LINE
  5
259
330
1F
100
AcDbEntity
  8
1
  6
CONTINUOUS
 62
    53
100
AcDbLine
 10
273.153323
 20
129.033976
 30
0.0
 11
273.153323
 21
129.533988
 31
0.0
  0
LINE
  5
25A
330
1F
100
AcDbEntity
  8
1
  6
CONTINUOUS
 62
     7
100
AcDbLine
 10
273.353323
 20
124.433988
 30
0.0
 11
273.353323
 21
111.033988
 31
0.0
  0
LINE
  5
25B
330
1F
100
AcDbEntity
  8
1
  6
CONTINUOUS
 62
     7
100
AcDbLine
 10
163.353323
 20
124.433988
 30
0.0
 11
163.353323
 21
111.033988
 31
0.0
  0
LINE
  5
25C
330
1F
100
AcDbEntity
  8
1
  6
CONTINUOUS
 62
     7
100
AcDbLine
 10
164.453323
 20
125.033988
 30
0.0
 11
163.353323
 21
125.033988
 31
0.0
  0
LINE
  5
25D
330
1F
100
AcDbEntity
  8
1
  6
CONTINUOUS
 62
     7
100
AcDbLine
 10
164.453323
 20
129.033988
 30
0.0
 11
163.353323
 21
129.033988
 31
0.0
  0
LINE
  5
25E
330
1F
100
AcDbEntity
  8
1
  6
CONTINUOUS
 62
     7
100
AcDbLine
 10
163.353323
 20
129.633988
 30
0.0
 11
163.353323
 21
143.033988
 31
0.0
  0
LINE
  5
25F
330
1F
100
AcDbEntity
  8
1
  6
CONTINUOUS
 62
     7
100
AcDbLine
 10
273.353323
 20
129.633988
 30
0.0
 11
273.353323
 21
143.033988
 31
0.0
  0
LINE
  5
260
330
1F
100
AcDbEntity
  8
1
  6
CONTINUOUS
 62
     7
100
AcDbLine
 10
272.253323
 20
129.033988
 30
0.0
 11
273.353323
 21
129.033988
 31
0.0
  0
LINE
  5
261
330
1F
100
AcDbEntity
  8
1
  6
CONTINUOUS
 62
     7
100
AcDbLine
 10
272.253323
 20
125.033988
 30
0.0
 11
273.353323
 21
125.033988
 31
0.0
  0
LINE
  5
262
330
1F
100
AcDbEntity
  8
1
  6
CONTINUOUS
 62
   151
100
AcDbLine
 10
275.453323
 20
139.283988
 30
0.0
 11
275.453323
 21
131.883988
 31
0.0
  0
LINE
  5
263
330
1F
100
AcDbEntity
  8
1
  6
CONTINUOUS
 62
   151
100
AcDbLine
 10
275.653323
 20
139.083988
 30
0.0
 11
275.653323
 21
132.083988
 31
0.0
  0
LINE
  5
264
330
1F
100
AcDbEntity
  8
1
  6
CONTINUOUS
 62
   250
100
AcDbLine
 10
163.141113
 20
110.924642
 30
0.0
 11
163.141113
 21
143.143334
 31
0.0
  0
LINE
  5
265
330
1F
100
AcDbEntity
  8
1
  6
CONTINUOUS
 62
   250
100
AcDbLine
 10
161.822799
 20
111.005274
 30
0.0
 11
161.822799
 21
143.062703
 31
0.0
  0
LINE
  5
266
330
1F
100
AcDbEntity
  8
1
  6
CONTINUOUS
 62
   250
100
AcDbLine
 10
161.353323
 20
135.033988
 30
0.0
 11
163.353323
 21
135.033988
 31
0.0
  0
LINE
  5
267
330
1F
100
AcDbEntity
  8
1
  6
CONTINUOUS
 62
   250
100
AcDbLine
 10
161.353323
 20
111.504341
 30
0.0
 11
161.353323
 21
142.563635
 31
0.0
  0
LINE
  5
268
330
1F
100
AcDbEntity
  8
1
  6
CONTINUOUS
 62
   250
100
AcDbLine
 10
161.353323
 20
119.033988
 30
0.0
 11
163.353323
 21
119.033988
 31
0.0
  0
LINE
  5
269
330
1F
100
AcDbEntity
  8
1
  6
CONTINUOUS
 62
   250
100
AcDbLine
 10
163.353323
 20
129.133988
 30
0.0
 11
164.453323
 21
129.133988
 31
0.0
  0
LINE
  5
26A
330
1F
100
AcDbEntity
  8
1
  6
CONTINUOUS
 62
   250
100
AcDbLine
 10
163.353323
 20
124.933988
 30
0.0
 11
164.453323
 21
124.933988
 31
0.0
  0
LINE
  5
26B
330
1F
100
AcDbEntity
  8
1
  6
CONTINUOUS
 62
    53
100
AcDbLine
 10
273.565533
 20
143.143334
 30
0.0
 11
273.565533
 21
110.924642
 31
0.0
  0
LINE
  5
26C
330
1F
100
AcDbEntity
  8
1
  6
CONTINUOUS
 62
    53
100
AcDbLine
 10
274.883847
 20
111.005274
 30
0.0
 11
274.883847
 21
143.062703
 31
0.0
  0
LINE
  5
26D
330
1F
100
AcDbEntity
  8
1
  6
CONTINUOUS
 62
    53
100
AcDbLine
 10
275.353323
 20
119.033988
 30
0.0
 11
273.353323
 21
119.033988
 31
0.0
  0
LINE
  5
26E
330
1F
100
AcDbEntity
  8
1
  6
CONTINUOUS
 62
    53
100
AcDbLine
 10
275.353323
 20
135.033988
 30
0.0
 11
273.353323
 21
135.033988
 31
0.0
  0
LINE
  5
26F
330
1F
100
AcDbEntity
  8
1
  6
CONTINUOUS
 62
    53
100
AcDbLine
 10
275.353323
 20
111.504341
 30
0.0
 11
275.353323
 21
142.563635
 31
0.0
  0
LINE
  5
270
330
1F
100
AcDbEntity
  8
1
  6
CONTINUOUS
 62
    53
100
AcDbLine
 10
273.353323
 20
129.133988
 30
0.0
 11
272.253323
 21
129.133988
 31
0.0
  0
LINE
  5
271
330
1F
100
AcDbEntity
  8
1
  6
CONTINUOUS
 62
    53
100
AcDbLine
 10
273.353323
 20
124.933988
 30
0.0
 11
272.253323
 21
124.933988
 31
0.0
  0
LINE
  5
272
330
1F
100
AcDbEntity
  8
1
  6
CONTINUOUS
 62
   250
100
AcDbLine
 10
103.118554
 20
249.648359
 30
0.0
 11
102.538482
 21
249.648359
 31
0.0
  0
LINE
  5
273
330
1F
100
AcDbEntity
  8
1
  6
CONTINUOUS
 62
   250
100
AcDbLine
 10
95.008835
 20
257.758078
 30
0.0
 11
95.008835
 21
257.178006
 31
0.0
  0
LINE
  5
274
330
1F
100
AcDbEntity
  8
1
  6
CONTINUOUS
 62
   250
100
AcDbLine
 10
95.008835
 20
203.53864
 30
0.0
 11
95.008835
 21
204.118712
 31
0.0
  0
LINE
  5
275
330
1F
100
AcDbEntity
  8
1
  6
CONTINUOUS
 62
   250
100
AcDbLine
 10
79.008835
 20
203.53864
 30
0.0
 11
79.008835
 21
204.118712
 31
0.0
  0
LINE
  5
276
330
1F
100
AcDbEntity
  8
1
  6
CONTINUOUS
 62
   250
100
AcDbLine
 10
70.899116
 20
211.648359
 30
0.0
 11
71.479188
 21
211.648359
 31
0.0
  0
LINE
  5
277
330
1F
100
AcDbEntity
  8
1
  6
CONTINUOUS
 62
   250
100
AcDbLine
 10
79.008835
 20
257.758078
 30
0.0
 11
79.008835
 21
257.178006
 31
0.0
  0
LINE
  5
278
330
1F
100
AcDbEntity
  8
1
  6
CONTINUOUS
 62
   250
100
AcDbLine
 10
70.899116
 20
249.648359
 30
0.0
 11
71.479188
 21
249.648359
 31
0.0
  0
LINE
  5
279
330
1F
100
AcDbEntity
  8
1
  6
CONTINUOUS
 62
   250
100
AcDbLine
 10
103.118554
 20
211.648359
 30
0.0
 11
102.538482
 21
211.648359
 31
0.0
  0
LINE
  5
27A
330
1F
100
AcDbEntity
  8
1
  6
CONTINUOUS
 62
     9
100
AcDbLine
 10
89.283835
 20
257.848359
 30
0.0
 11
91.033835
 21
257.848359
 31
0.0
  0
LINE
  5
27B
330
1F
100
AcDbEntity
  8
1
  6
CONTINUOUS
 62
     9
100
AcDbLine
 10
84.733835
 20
257.848359
 30
0.0
 11
82.983835
 21
257.848359
 31
0.0
  0
LINE
  5
27C
330
1F
100
AcDbEntity
  8
1
  6
CONTINUOUS
 62
     7
100
AcDbLine
 10
351.843926
 20
223.528359
 30
0.0
 11
351.843926
 21
223.018359
 31
0.0
  0
LINE
  5
27D
330
1F
100
AcDbEntity
  8
1
  6
CONTINUOUS
 62
     8
100
AcDbLine
 10
343.843926
 20
240.148359
 30
0.0
 11
343.843926
 21
248.148359
 31
0.0
  0
LINE
  5
27E
330
1F
100
AcDbEntity
  8
1
  6
CONTINUOUS
 62
     8
100
AcDbLine
 10
343.343926
 20
251.648359
 30
0.0
 11
343.343926
 21
236.648359
 31
0.0
  0
LINE
  5
27F
330
1F
100
AcDbEntity
  8
1
  6
CONTINUOUS
 62
     8
100
AcDbLine
 10
354.843926
 20
236.648359
 30
0.0
 11
354.843926
 21
251.648359
 31
0.0
  0
LINE
  5
280
330
1F
100
AcDbEntity
  8
1
  6
CONTINUOUS
 62
     8
100
AcDbLine
 10
354.843926
 20
251.648359
 30
0.0
 11
343.343926
 21
251.648359
 31
0.0
  0
LINE
  5
281
330
1F
100
AcDbEntity
  8
1
  6
CONTINUOUS
 62
     8
100
AcDbLine
 10
343.343926
 20
236.648359
 30
0.0
 11
354.843926
 21
236.648359
 31
0.0
  0
LINE
  5
282
330
1F
100
AcDbEntity
  8
1
  6
CONTINUOUS
 62
    63
100
AcDbLine
 10
354.843926
 20
223.528359
 30
0.0
 11
343.843926
 21
223.528359
 31
0.0
  0
LINE
  5
283
330
1F
100
AcDbEntity
  8
1
  6
CONTINUOUS
 62
    63
100
AcDbLine
 10
344.843926
 20
223.528359
 30
0.0
 11
344.843926
 21
224.268372
 31
0.0
  0
LINE
  5
284
330
1F
100
AcDbEntity
  8
1
  6
CONTINUOUS
 62
    63
100
AcDbLine
 10
346.343926
 20
224.168359
 30
0.0
 11
346.343926
 21
226.068359
 31
0.0
  0
LINE
  5
285
330
1F
100
AcDbEntity
  8
1
  6
CONTINUOUS
 62
    63
100
AcDbLine
 10
344.843926
 20
226.118359
 30
0.0
 11
344.843926
 21
226.808372
 31
0.0
  0
LINE
  5
286
330
1F
100
AcDbEntity
  8
1
  6
CONTINUOUS
 62
    63
100
AcDbLine
 10
346.343926
 20
226.708359
 30
0.0
 11
346.343926
 21
228.608359
 31
0.0
  0
LINE
  5
287
330
1F
100
AcDbEntity
  8
1
  6
CONTINUOUS
 62
    63
100
AcDbLine
 10
354.843926
 20
226.118359
 30
0.0
 11
343.843926
 21
226.118359
 31
0.0
  0
LINE
  5
288
330
1F
100
AcDbEntity
  8
1
  6
CONTINUOUS
 62
    63
100
AcDbLine
 10
346.343926
 20
229.248359
 30
0.0
 11
346.343926
 21
231.148359
 31
0.0
  0
LINE
  5
289
330
1F
100
AcDbEntity
  8
1
  6
CONTINUOUS
 62
    63
100
AcDbLine
 10
344.843926
 20
228.658359
 30
0.0
 11
344.843926
 21
229.348372
 31
0.0
  0
LINE
  5
28A
330
1F
100
AcDbEntity
  8
1
  6
CONTINUOUS
 62
    63
100
AcDbLine
 10
354.843926
 20
228.658359
 30
0.0
 11
343.843926
 21
228.658359
 31
0.0
  0
LINE
  5
28B
330
1F
100
AcDbEntity
  8
1
  6
CONTINUOUS
 62
    63
100
AcDbLine
 10
354.843926
 20
233.688359
 30
0.0
 11
344.34402
 21
233.688359
 31
0.0
  0
LINE
  5
28C
330
1F
100
AcDbEntity
  8
1
  6
CONTINUOUS
 62
    63
100
AcDbLine
 10
354.843926
 20
231.198359
 30
0.0
 11
343.843926
 21
231.198359
 31
0.0
  0
LINE
  5
28D
330
1F
100
AcDbEntity
  8
1
  6
CONTINUOUS
 62
    53
100
AcDbLine
 10
332.793926
 20
250.798359
 30
0.0
 11
331.998738
 21
250.798359
 31
0.0
  0
LINE
  5
28E
330
1F
100
AcDbEntity
  8
1
  6
CONTINUOUS
 62
    53
100
AcDbLine
 10
332.793926
 20
243.398359
 30
0.0
 11
331.998738
 21
243.398359
 31
0.0
  0
LINE
  5
28F
330
1F
100
AcDbEntity
  8
1
  6
CONTINUOUS
 62
    35
100
AcDbLine
 10
349.843926
 20
217.602687
 30
0.0
 11
349.843926
 21
219.894031
 31
0.0
  0
LINE
  5
290
330
1F
100
AcDbEntity
  8
1
  6
CONTINUOUS
 62
    94
100
AcDbLine
 10
354.843926
 20
223.528363
 30
0.0
 11
354.843926
 21
223.018357
 31
0.0
  0
LINE
  5
291
330
1F
100
AcDbEntity
  8
1
  6
CONTINUOUS
 62
     9
100
AcDbLine
 10
347.618926
 20
257.848359
 30
0.0
 11
349.368926
 21
257.848359
 31
0.0
  0
LINE
  5
292
330
1F
100
AcDbEntity
  8
1
  6
CONTINUOUS
 62
     9
100
AcDbLine
 10
343.068926
 20
257.848359
 30
0.0
 11
341.318926
 21
257.848359
 31
0.0
  0
LINE
  5
293
330
1F
100
AcDbEntity
  8
1
  6
CONTINUOUS
 62
   150
100
AcDbLine
 10
331.843926
 20
227.598359
 30
0.0
 11
329.234207
 21
227.598359
 31
0.0
  0
LINE
  5
294
330
1F
100
AcDbEntity
  8
1
  6
CONTINUOUS
 62
   150
100
AcDbLine
 10
331.843926
 20
229.998359
 30
0.0
 11
329.234207
 21
229.998359
 31
0.0
  0
LINE
  5
295
330
1F
100
AcDbEntity
  8
1
  6
CONTINUOUS
 62
    53
100
AcDbLine
 10
353.343926
 20
256.562573
 30
0.0
 11
353.343926
 21
255.148359
 31
0.0
  0
LINE
  5
296
330
1F
100
AcDbEntity
  8
1
  6
CONTINUOUS
 62
    53
100
AcDbLine
 10
360.258139
 20
249.648359
 30
0.0
 11
358.843926
 21
249.648359
 31
0.0
  0
LINE
  5
297
330
1F
100
AcDbEntity
  8
1
  6
CONTINUOUS
 62
    53
100
AcDbLine
 10
353.343926
 20
204.734146
 30
0.0
 11
353.343926
 21
206.048357
 31
0.0
  0
LINE
  5
298
330
1F
100
AcDbEntity
  8
1
  6
CONTINUOUS
 62
    53
100
AcDbLine
 10
337.343926
 20
204.734146
 30
0.0
 11
337.343926
 21
206.148359
 31
0.0
  0
LINE
  5
299
330
1F
100
AcDbEntity
  8
1
  6
CONTINUOUS
 62
    53
100
AcDbLine
 10
360.258139
 20
211.648359
 30
0.0
 11
358.843926
 21
211.648359
 31
0.0
  0
LINE
  5
29A
330
1F
100
AcDbEntity
  8
1
  6
CONTINUOUS
 62
    53
100
AcDbLine
 10
330.429712
 20
211.648359
 30
0.0
 11
331.843926
 21
211.648359
 31
0.0
  0
LINE
  5
29B
330
1F
100
AcDbEntity
  8
1
  6
CONTINUOUS
 62
    53
100
AcDbLine
 10
337.343926
 20
256.562573
 30
0.0
 11
337.343926
 21
255.148359
 31
0.0
  0
LINE
  5
29C
330
1F
100
AcDbEntity
  8
1
  6
CONTINUOUS
 62
    53
100
AcDbLine
 10
330.429712
 20
249.648359
 30
0.0
 11
331.843926
 21
249.648359
 31
0.0
  0
LINE
  5
29D
330
1F
100
AcDbEntity
  8
1
  6
CONTINUOUS
 62
    53
100
AcDbLine
 10
331.843926
 20
229.998359
 30
0.0
 11
329.234207
 21
229.998359
 31
0.0
  0
LINE
  5
29E
330
1F
100
AcDbEntity
  8
1
  6
CONTINUOUS
 62
    53
100
AcDbLine
 10
329.234207
 20
211.648359
 30
0.0
 11
329.814279
 21
211.648359
 31
0.0
  0
LINE
  5
29F
330
1F
100
AcDbEntity
  8
1
  6
CONTINUOUS
 62
    53
100
AcDbLine
 10
329.234207
 20
227.598359
 30
0.0
 11
331.843926
 21
227.598359
 31
0.0
  0
LINE
  5
2A0
330
1F
100
AcDbEntity
  8
1
  6
CONTINUOUS
 62
    53
100
AcDbLine
 10
361.453645
 20
249.648359
 30
0.0
 11
360.873573
 21
249.648359
 31
0.0
  0
LINE
  5
2A1
330
1F
100
AcDbEntity
  8
1
  6
CONTINUOUS
 62
    53
100
AcDbLine
 10
361.453645
 20
211.648359
 30
0.0
 11
360.873573
 21
211.648359
 31
0.0
  0
LINE
  5
2A2
330
1F
100
AcDbEntity
  8
1
  6
CONTINUOUS
 62
    53
100
AcDbLine
 10
329.234207
 20
249.648359
 30
0.0
 11
329.814279
 21
249.648359
 31
0.0
  0
LINE
  5
2A3
330
1F
100
AcDbEntity
  8
1
  6
CONTINUOUS
 62
    53
100
AcDbLine
 10
337.343926
 20
257.758078
 30
0.0
 11
337.343926
 21
257.178006
 31
0.0
  0
LINE
  5
2A4
330
1F
100
AcDbEntity
  8
1
  6
CONTINUOUS
 62
    53
100
AcDbLine
 10
353.343926
 20
203.53864
 30
0.0
 11
353.343926
 21
204.118712
 31
0.0
  0
LINE
  5
2A5
330
1F
100
AcDbEntity
  8
1
  6
CONTINUOUS
 62
    53
100
AcDbLine
 10
337.343926
 20
203.53864
 30
0.0
 11
337.343926
 21
204.118712
 31
0.0
  0
LINE
  5
2A6
330
1F
100
AcDbEntity
  8
1
  6
CONTINUOUS
 62
    53
100
AcDbLine
 10
353.343926
 20
257.758078
 30
0.0
 11
353.343926
 21
257.178006
 31
0.0
  0
LINE
  5
2A7
330
1F
100
AcDbEntity
  8
1
  6
CONTINUOUS
 62
   151
100
AcDbLine
 10
430.862706
 20
252.398359
 30
0.0
 11
430.562692
 21
252.398359
 31
0.0
  0
LINE
  5
2A8
330
1F
100
AcDbEntity
  8
1
  6
CONTINUOUS
 62
   151
100
AcDbLine
 10
430.862706
 20
239.798359
 30
0.0
 11
430.562692
 21
239.798359
 31
0.0
  0
LINE
  5
2A9
330
1F
100
AcDbEntity
  8
1
  6
CONTINUOUS
 62
     7
100
AcDbLine
 10
432.862692
 20
248.548359
 30
0.0
 11
432.862692
 21
203.648359
 31
0.0
  0
LINE
  5
2AA
330
1F
100
AcDbEntity
  8
1
  6
CONTINUOUS
 62
     7
100
AcDbLine
 10
542.862692
 20
248.548359
 30
0.0
 11
542.862692
 21
203.648359
 31
0.0
  0
LINE
  5
2AB
330
1F
100
AcDbEntity
  8
1
  6
CONTINUOUS
 62
   151
100
AcDbLine
 10
430.562692
 20
253.898359
 30
0.0
 11
430.562692
 21
238.298359
 31
0.0
  0
LINE
  5
2AC
330
1F
100
AcDbEntity
  8
1
  6
CONTINUOUS
 62
   151
100
AcDbLine
 10
430.762692
 20
254.098359
 30
0.0
 11
430.762692
 21
238.098359
 31
0.0
  0
LINE
  5
2AD
330
1F
100
AcDbEntity
  8
1
  6
CONTINUOUS
 62
   250
100
AcDbLine
 10
543.074901
 20
203.539013
 30
0.0
 11
543.074901
 21
257.757705
 31
0.0
  0
LINE
  5
2AE
330
1F
100
AcDbEntity
  8
1
  6
CONTINUOUS
 62
   250
100
AcDbLine
 10
544.393216
 20
203.619645
 30
0.0
 11
544.393216
 21
257.677073
 31
0.0
  0
LINE
  5
2AF
330
1F
100
AcDbEntity
  8
1
  6
CONTINUOUS
 62
   250
100
AcDbLine
 10
544.862692
 20
211.648359
 30
0.0
 11
542.862692
 21
211.648359
 31
0.0
  0
LINE
  5
2B0
330
1F
100
AcDbEntity
  8
1
  6
CONTINUOUS
 62
   250
100
AcDbLine
 10
544.862692
 20
249.648359
 30
0.0
 11
542.862692
 21
249.648359
 31
0.0
  0
LINE
  5
2B1
330
1F
100
AcDbEntity
  8
1
  6
CONTINUOUS
 62
   250
100
AcDbLine
 10
544.862692
 20
204.118712
 30
0.0
 11
544.862692
 21
257.178006
 31
0.0
  0
LINE
  5
2B2
330
1F
100
AcDbEntity
  8
1
  6
CONTINUOUS
 62
     9
100
AcDbLine
 10
432.862692
 20
249.048359
 30
0.0
 11
432.862692
 21
257.648359
 31
0.0
  0
LINE
  5
2B3
330
1F
100
AcDbEntity
  8
1
  6
CONTINUOUS
 62
     9
100
AcDbLine
 10
542.862692
 20
249.048359
 30
0.0
 11
542.862692
 21
257.648359
 31
0.0
  0
LINE
  5
2B4
330
1F
100
AcDbEntity
  8
1
  6
CONTINUOUS
 62
     9
100
AcDbLine
 10
482.095928
 20
257.848359
 30
0.0
 11
484.541376
 21
257.848359
 31
0.0
  0
LINE
  5
2B5
330
1F
100
AcDbEntity
  8
1
  6
CONTINUOUS
 62
     9
100
AcDbLine
 10
473.629456
 20
257.848359
 30
0.0
 11
471.184007
 21
257.848359
 31
0.0
  0
LINE
  5
2B6
330
1F
100
AcDbEntity
  8
1
  6
CONTINUOUS
 62
    53
100
AcDbLine
 10
432.650482
 20
257.757705
 30
0.0
 11
432.650482
 21
203.539013
 31
0.0
  0
LINE
  5
2B7
330
1F
100
AcDbEntity
  8
1
  6
CONTINUOUS
 62
    53
100
AcDbLine
 10
431.332167
 20
257.677073
 30
0.0
 11
431.332167
 21
203.619645
 31
0.0
  0
LINE
  5
2B8
330
1F
100
AcDbEntity
  8
1
  6
CONTINUOUS
 62
    53
100
AcDbLine
 10
430.862692
 20
211.648359
 30
0.0
 11
432.862692
 21
211.648359
 31
0.0
  0
LINE
  5
2B9
330
1F
100
AcDbEntity
  8
1
  6
CONTINUOUS
 62
    53
100
AcDbLine
 10
430.862692
 20
249.648359
 30
0.0
 11
432.862692
 21
249.648359
 31
0.0
  0
LINE
  5
2BA
330
1F
100
AcDbEntity
  8
1
  6
CONTINUOUS
 62
    53
100
AcDbLine
 10
430.862692
 20
257.178006
 30
0.0
 11
430.862692
 21
204.118712
 31
0.0
  0
ARC
  5
2BB
330
1F
100
AcDbEntity
  8
1
  6
CONTINUOUS
 62
    53
100
AcDbCircle
 10
274.853323
 20
257.178006
 30
0.0
 40
0.5
100
AcDbArc
 50
0.0
 51
86.5
  0
CIRCLE
  5
2BC
330
1F
100
AcDbEntity
  8
1
  6
CONTINUOUS
 62
     7
100
AcDbCircle
 10
258.353323
 20
215.148359
 30
0.0
 40
1.250000000000003
  0
CIRCLE
  5
2BD
330
1F
100
AcDbEntity
  8
1
  6
CONTINUOUS
 62
     7
100
AcDbCircle
 10
178.353323
 20
215.148359
 30
0.0
 40
1.250000000000003
  0
ARC
  5
2BE
330
1F
100
AcDbEntity
  8
1
  6
CONTINUOUS
 62
   250
100
AcDbCircle
 10
161.853323
 20
257.178006
 30
0.0
 40
0.5
100
AcDbArc
 50
93.5
 51
180.0
  0
ARC
  5
2BF
330
1F
100
AcDbEntity
  8
1
  6
CONTINUOUS
 62
     9
100
AcDbCircle
 10
273.053323
 20
212.748359
 30
0.0
 40
0.3
100
AcDbArc
 50
270.0
 51
0.0
  0
ARC
  5
2C0
330
1F
100
AcDbEntity
  8
1
  6
CONTINUOUS
 62
     9
100
AcDbCircle
 10
163.653323
 20
212.748359
 30
0.0
 40
0.3
100
AcDbArc
 50
180.0
 51
270.0
  0
CIRCLE
  5
2C1
330
1F
100
AcDbEntity
  8
1
  6
CONTINUOUS
 62
     9
100
AcDbCircle
 10
178.353323
 20
215.148359
 30
0.0
 40
1.300000000000002
  0
CIRCLE
  5
2C2
330
1F
100
AcDbEntity
  8
1
  6
CONTINUOUS
 62
     9
100
AcDbCircle
 10
258.353323
 20
215.148359
 30
0.0
 40
1.300000000000002
  0
ARC
  5
2C3
330
1F
100
AcDbEntity
  8
1
  6
CONTINUOUS
 62
    53
100
AcDbCircle
 10
273.553323
 20
203.73864
 30
0.0
 40
0.2
100
AcDbArc
 50
180.0
 51
273.5
  0
ARC
  5
2C4
330
1F
100
AcDbEntity
  8
1
  6
CONTINUOUS
 62
    53
100
AcDbCircle
 10
273.553323
 20
257.558078
 30
0.0
 40
0.2
100
AcDbArc
 50
86.5
 51
180.0
  0
ARC
  5
2C5
330
1F
100
AcDbEntity
  8
1
  6
CONTINUOUS
 62
    53
100
AcDbCircle
 10
274.853323
 20
204.118712
 30
0.0
 40
0.5
100
AcDbArc
 50
273.5
 51
360.0
  0
ARC
  5
2C6
330
1F
100
AcDbEntity
  8
1
  6
CONTINUOUS
 62
   151
100
AcDbCircle
 10
275.453323
 20
253.898359
 30
0.0
 40
0.2
100
AcDbArc
 50
0.0
 51
90.0
  0
ARC
  5
2C7
330
1F
100
AcDbEntity
  8
1
  6
CONTINUOUS
 62
   151
100
AcDbCircle
 10
275.453323
 20
238.298359
 30
0.0
 40
0.2
100
AcDbArc
 50
270.0
 51
360.0
  0
ARC
  5
2C8
330
1F
100
AcDbEntity
  8
1
  6
CONTINUOUS
 62
   250
100
AcDbCircle
 10
163.153323
 20
203.73864
 30
0.0
 40
0.2
100
AcDbArc
 50
266.5
 51
0.0
  0
ARC
  5
2C9
330
1F
100
AcDbEntity
  8
1
  6
CONTINUOUS
 62
   250
100
AcDbCircle
 10
163.153323
 20
257.558078
 30
0.0
 40
0.2
100
AcDbArc
 50
0.0
 51
93.5
  0
ARC
  5
2CA
330
1F
100
AcDbEntity
  8
1
  6
CONTINUOUS
 62
   250
100
AcDbCircle
 10
161.853323
 20
204.118712
 30
0.0
 40
0.5
100
AcDbArc
 50
180.0
 51
266.5
  0
CIRCLE
  5
2CB
330
1F
100
AcDbEntity
  8
1
  6
CONTINUOUS
 62
     7
100
AcDbCircle
 10
236.153323
 20
326.871252
 30
0.0
 40
1.250000000000002
  0
ARC
  5
2CC
330
1F
100
AcDbEntity
  8
1
  6
CONTINUOUS
 62
   151
100
AcDbCircle
 10
275.453323
 20
314.821252
 30
0.0
 40
0.2
100
AcDbArc
 50
270.0
 51
0.0
  0
ARC
  5
2CD
330
1F
100
AcDbEntity
  8
1
  6
CONTINUOUS
 62
   151
100
AcDbCircle
 10
275.453323
 20
321.821252
 30
0.0
 40
0.2
100
AcDbArc
 50
0.0
 51
90.0
  0
ARC
  5
2CE
330
1F
100
AcDbEntity
  8
1
  6
CONTINUOUS
 62
   250
100
AcDbCircle
 10
163.153323
 20
310.961533
 30
0.0
 40
0.2
100
AcDbArc
 50
266.5
 51
0.0
  0
ARC
  5
2CF
330
1F
100
AcDbEntity
  8
1
  6
CONTINUOUS
 62
   250
100
AcDbCircle
 10
163.153323
 20
342.780971
 30
0.0
 40
0.2
100
AcDbArc
 50
360.0
 51
93.5
  0
ARC
  5
2D0
330
1F
100
AcDbEntity
  8
1
  6
CONTINUOUS
 62
   250
100
AcDbCircle
 10
161.853323
 20
311.341605
 30
0.0
 40
0.5
100
AcDbArc
 50
180.0
 51
266.5
  0
ARC
  5
2D1
330
1F
100
AcDbEntity
  8
1
  6
CONTINUOUS
 62
   250
100
AcDbCircle
 10
161.853323
 20
342.400899
 30
0.0
 40
0.5
100
AcDbArc
 50
93.5
 51
180.0
  0
CIRCLE
  5
2D2
330
1F
100
AcDbEntity
  8
1
  6
CONTINUOUS
 62
   151
100
AcDbCircle
 10
228.353323
 20
326.871252
 30
0.0
 40
4.250000000000106
  0
CIRCLE
  5
2D3
330
1F
100
AcDbEntity
  8
1
  6
CONTINUOUS
 62
   151
100
AcDbCircle
 10
228.353323
 20
326.871252
 30
0.0
 40
4.150000000000108
  0
CIRCLE
  5
2D4
330
1F
100
AcDbEntity
  8
1
  6
CONTINUOUS
 62
   151
100
AcDbCircle
 10
228.353323
 20
326.871252
 30
0.0
 40
3.399999999999988
  0
CIRCLE
  5
2D5
330
1F
100
AcDbEntity
  8
1
  6
CONTINUOUS
 62
   151
100
AcDbCircle
 10
228.353323
 20
326.871252
 30
0.0
 40
2.4875
  0
ARC
  5
2D6
330
1F
100
AcDbEntity
  8
1
  6
CONTINUOUS
 62
     9
100
AcDbCircle
 10
234.632007
 20
330.496252
 30
0.0
 40
0.400000000000004
100
AcDbArc
 50
300.0
 51
120.0
  0
ARC
  5
2D7
330
1F
100
AcDbEntity
  8
1
  6
CONTINUOUS
 62
     9
100
AcDbCircle
 10
232.986559
 20
329.546252
 30
0.0
 40
0.3999999999999928
100
AcDbArc
 50
120.0
 51
300.0
  0
ARC
  5
2D8
330
1F
100
AcDbEntity
  8
1
  6
CONTINUOUS
 62
     9
100
AcDbCircle
 10
222.074639
 20
323.246252
 30
0.0
 40
0.4000000000000102
100
AcDbArc
 50
120.0
 51
300.0
  0
ARC
  5
2D9
330
1F
100
AcDbEntity
  8
1
  6
CONTINUOUS
 62
     9
100
AcDbCircle
 10
223.720087
 20
324.196252
 30
0.0
 40
0.3999999999999997
100
AcDbArc
 50
300.0
 51
120.0
  0
ARC
  5
2DA
330
1F
100
AcDbEntity
  8
1
  6
CONTINUOUS
 62
     9
100
AcDbCircle
 10
232.986559
 20
324.196252
 30
0.0
 40
0.3999999999999928
100
AcDbArc
 50
60.0
 51
240.0
  0
ARC
  5
2DB
330
1F
100
AcDbEntity
  8
1
  6
CONTINUOUS
 62
     9
100
AcDbCircle
 10
234.632007
 20
323.246252
 30
0.0
 40
0.400000000000004
100
AcDbArc
 50
240.0
 51
60.0
  0
ARC
  5
2DC
330
1F
100
AcDbEntity
  8
1
  6
CONTINUOUS
 62
     9
100
AcDbCircle
 10
223.720087
 20
329.546252
 30
0.0
 40
0.3999999999999997
100
AcDbArc
 50
240.0
 51
60.0
  0
ARC
  5
2DD
330
1F
100
AcDbEntity
  8
1
  6
CONTINUOUS
 62
     9
100
AcDbCircle
 10
222.074639
 20
330.496252
 30
0.0
 40
0.4000000000000102
100
AcDbArc
 50
60.0
 51
240.0
  0
CIRCLE
  5
2DE
330
1F
100
AcDbEntity
  8
1
  6
CONTINUOUS
 62
     9
100
AcDbCircle
 10
220.553323
 20
326.871252
 30
0.0
 40
1.299999999999996
  0
CIRCLE
  5
2DF
330
1F
100
AcDbEntity
  8
1
  6
CONTINUOUS
 62
     9
100
AcDbCircle
 10
236.153323
 20
326.871252
 30
0.0
 40
1.299999999999996
  0
CIRCLE
  5
2E0
330
1F
100
AcDbEntity
  8
1
  6
CONTINUOUS
 62
     9
100
AcDbCircle
 10
228.353323
 20
326.871252
 30
0.0
 40
4.25
  0
ARC
  5
2E1
330
1F
100
AcDbEntity
  8
1
  6
CONTINUOUS
 62
    53
100
AcDbCircle
 10
273.553323
 20
342.780971
 30
0.0
 40
0.2
100
AcDbArc
 50
86.5
 51
180.0
  0
ARC
  5
2E2
330
1F
100
AcDbEntity
  8
1
  6
CONTINUOUS
 62
    53
100
AcDbCircle
 10
273.553323
 20
310.961533
 30
0.0
 40
0.2
100
AcDbArc
 50
180.0
 51
273.5
  0
ARC
  5
2E3
330
1F
100
AcDbEntity
  8
1
  6
CONTINUOUS
 62
    53
100
AcDbCircle
 10
274.853323
 20
342.400899
 30
0.0
 40
0.5
100
AcDbArc
 50
360.0
 51
86.5
  0
ARC
  5
2E4
330
1F
100
AcDbEntity
  8
1
  6
CONTINUOUS
 62
    53
100
AcDbCircle
 10
274.853323
 20
311.341605
 30
0.0
 40
0.5
100
AcDbArc
 50
273.5
 51
0.0
  0
ARC
  5
2E5
330
1F
100
AcDbEntity
  8
1
  6
CONTINUOUS
 62
    53
100
AcDbCircle
 10
273.153323
 20
324.771252
 30
0.0
 40
0.4999999999999983
100
AcDbArc
 50
270.0
 51
293.578178
  0
ARC
  5
2E6
330
1F
100
AcDbEntity
  8
1
  6
CONTINUOUS
 62
    53
100
AcDbCircle
 10
273.153323
 20
324.771252
 30
0.0
 40
0.2
100
AcDbArc
 50
270.0
 51
0.0
  0
ARC
  5
2E7
330
1F
100
AcDbEntity
  8
1
  6
CONTINUOUS
 62
    53
100
AcDbCircle
 10
273.153323
 20
328.971252
 30
0.0
 40
0.2
100
AcDbArc
 50
0.0
 51
90.0
  0
ARC
  5
2E8
330
1F
100
AcDbEntity
  8
1
  6
CONTINUOUS
 62
    53
100
AcDbCircle
 10
273.153323
 20
328.971252
 30
0.0
 40
0.5000000000000004
100
AcDbArc
 50
66.421822
 51
90.0
  0
ARC
  5
2E9
330
1F
100
AcDbEntity
  8
1
  6
CONTINUOUS
 62
    53
100
AcDbCircle
 10
272.553323
 20
324.771252
 30
0.0
 40
0.2000000000000002
100
AcDbArc
 50
180.0
 51
270.0
  0
ARC
  5
2EA
330
1F
100
AcDbEntity
  8
1
  6
CONTINUOUS
 62
    53
100
AcDbCircle
 10
272.553323
 20
328.971252
 30
0.0
 40
0.2000000000000028
100
AcDbArc
 50
90.0
 51
180.0
  0
CIRCLE
  5
2EB
330
1F
100
AcDbEntity
  8
1
  6
CONTINUOUS
 62
     7
100
AcDbCircle
 10
220.553323
 20
326.871252
 30
0.0
 40
1.250000000000002
  0
ARC
  5
2EC
330
1F
100
AcDbEntity
  8
1
  6
CONTINUOUS
 62
   250
100
AcDbCircle
 10
164.153323
 20
328.971252
 30
0.0
 40
0.400000000000001
100
AcDbArc
 50
41.409382
 51
60.0
  0
ARC
  5
2ED
330
1F
100
AcDbEntity
  8
1
  6
CONTINUOUS
 62
   250
100
AcDbCircle
 10
164.153323
 20
328.971252
 30
0.0
 40
0.2
100
AcDbArc
 50
0.0
 51
90.0
  0
ARC
  5
2EE
330
1F
100
AcDbEntity
  8
1
  6
CONTINUOUS
 62
   250
100
AcDbCircle
 10
164.153323
 20
324.771252
 30
0.0
 40
0.2
100
AcDbArc
 50
270.0
 51
0.0
  0
ARC
  5
2EF
330
1F
100
AcDbEntity
  8
1
  6
CONTINUOUS
 62
   250
100
AcDbCircle
 10
164.153323
 20
324.771252
 30
0.0
 40
0.400000000000001
100
AcDbArc
 50
300.0
 51
318.590618
  0
ARC
  5
2F0
330
1F
100
AcDbEntity
  8
1
  6
CONTINUOUS
 62
   250
100
AcDbCircle
 10
163.553323
 20
328.971252
 30
0.0
 40
0.1999999999999625
100
AcDbArc
 50
90.0
 51
180.0
  0
ARC
  5
2F1
330
1F
100
AcDbEntity
  8
1
  6
CONTINUOUS
 62
   250
100
AcDbCircle
 10
163.553323
 20
324.771252
 30
0.0
 40
0.1999999999999819
100
AcDbArc
 50
180.0
 51
270.0
  0
ARC
  5
2F2
330
1F
100
AcDbEntity
  8
1
  6
CONTINUOUS
 62
   151
100
AcDbCircle
 10
275.453323
 20
132.083988
 30
0.0
 40
0.2
100
AcDbArc
 50
270.0
 51
360.0
  0
ARC
  5
2F3
330
1F
100
AcDbEntity
  8
1
  6
CONTINUOUS
 62
   151
100
AcDbCircle
 10
275.453323
 20
139.083988
 30
0.0
 40
0.2
100
AcDbArc
 50
0.0
 51
90.0
  0
ARC
  5
2F4
330
1F
100
AcDbEntity
  8
1
  6
CONTINUOUS
 62
   250
100
AcDbCircle
 10
163.153323
 20
142.943707
 30
0.0
 40
0.2
100
AcDbArc
 50
0.0
 51
93.5
  0
ARC
  5
2F5
330
1F
100
AcDbEntity
  8
1
  6
CONTINUOUS
 62
   250
100
AcDbCircle
 10
163.153323
 20
111.124269
 30
0.0
 40
0.2
100
AcDbArc
 50
266.5
 51
360.0
  0
ARC
  5
2F6
330
1F
100
AcDbEntity
  8
1
  6
CONTINUOUS
 62
   250
100
AcDbCircle
 10
161.853323
 20
142.563635
 30
0.0
 40
0.5
100
AcDbArc
 50
93.5
 51
180.0
  0
ARC
  5
2F7
330
1F
100
AcDbEntity
  8
1
  6
CONTINUOUS
 62
   250
100
AcDbCircle
 10
161.853323
 20
111.504341
 30
0.0
 40
0.5
100
AcDbArc
 50
180.0
 51
266.5
  0
ARC
  5
2F8
330
1F
100
AcDbEntity
  8
1
  6
CONTINUOUS
 62
   250
100
AcDbCircle
 10
163.553323
 20
129.133988
 30
0.0
 40
0.4000000000000002
100
AcDbArc
 50
90.0
 51
120.0
  0
ARC
  5
2F9
330
1F
100
AcDbEntity
  8
1
  6
CONTINUOUS
 62
   250
100
AcDbCircle
 10
163.553323
 20
129.133988
 30
0.0
 40
0.2
100
AcDbArc
 50
90.0
 51
180.0
  0
ARC
  5
2FA
330
1F
100
AcDbEntity
  8
1
  6
CONTINUOUS
 62
   250
100
AcDbCircle
 10
163.553323
 20
124.933988
 30
0.0
 40
0.2
100
AcDbArc
 50
180.0
 51
270.0
  0
ARC
  5
2FB
330
1F
100
AcDbEntity
  8
1
  6
CONTINUOUS
 62
   250
100
AcDbCircle
 10
163.553323
 20
124.933988
 30
0.0
 40
0.400000000000001
100
AcDbArc
 50
240.0
 51
270.0
  0
ARC
  5
2FC
330
1F
100
AcDbEntity
  8
1
  6
CONTINUOUS
 62
   250
100
AcDbCircle
 10
164.153323
 20
124.933988
 30
0.0
 40
0.400000000000001
100
AcDbArc
 50
270.0
 51
318.590116
  0
ARC
  5
2FD
330
1F
100
AcDbEntity
  8
1
  6
CONTINUOUS
 62
   250
100
AcDbCircle
 10
164.153323
 20
129.133988
 30
0.0
 40
0.400000000000001
100
AcDbArc
 50
41.409884
 51
90.0
  0
ARC
  5
2FE
330
1F
100
AcDbEntity
  8
1
  6
CONTINUOUS
 62
   250
100
AcDbCircle
 10
164.153323
 20
124.933988
 30
0.0
 40
0.2
100
AcDbArc
 50
270.0
 51
0.0
  0
ARC
  5
2FF
330
1F
100
AcDbEntity
  8
1
  6
CONTINUOUS
 62
   250
100
AcDbCircle
 10
164.153323
 20
129.133988
 30
0.0
 40
0.2
100
AcDbArc
 50
0.0
 51
90.0
  0
ARC
  5
300
330
1F
100
AcDbEntity
  8
1
  6
CONTINUOUS
 62
    53
100
AcDbCircle
 10
273.553323
 20
111.124269
 30
0.0
 40
0.2
100
AcDbArc
 50
180.0
 51
273.5
  0
ARC
  5
301
330
1F
100
AcDbEntity
  8
1
  6
CONTINUOUS
 62
    53
100
AcDbCircle
 10
273.553323
 20
142.943707
 30
0.0
 40
0.2
100
AcDbArc
 50
86.5
 51
180.0
  0
ARC
  5
302
330
1F
100
AcDbEntity
  8
1
  6
CONTINUOUS
 62
    53
100
AcDbCircle
 10
274.853323
 20
142.563635
 30
0.0
 40
0.5
100
AcDbArc
 50
0.0
 51
86.5
  0
ARC
  5
303
330
1F
100
AcDbEntity
  8
1
  6
CONTINUOUS
 62
    53
100
AcDbCircle
 10
274.853323
 20
111.504341
 30
0.0
 40
0.5
100
AcDbArc
 50
273.5
 51
0.0
  0
ARC
  5
304
330
1F
100
AcDbEntity
  8
1
  6
CONTINUOUS
 62
    53
100
AcDbCircle
 10
273.153323
 20
124.933988
 30
0.0
 40
0.3999999999999993
100
AcDbArc
 50
270.0
 51
300.0
  0
ARC
  5
305
330
1F
100
AcDbEntity
  8
1
  6
CONTINUOUS
 62
    53
100
AcDbCircle
 10
273.153323
 20
124.933988
 30
0.0
 40
0.2
100
AcDbArc
 50
270.0
 51
360.0
  0
ARC
  5
306
330
1F
100
AcDbEntity
  8
1
  6
CONTINUOUS
 62
    53
100
AcDbCircle
 10
273.153323
 20
129.133988
 30
0.0
 40
0.2
100
AcDbArc
 50
0.0
 51
90.0
  0
ARC
  5
307
330
1F
100
AcDbEntity
  8
1
  6
CONTINUOUS
 62
    53
100
AcDbCircle
 10
273.153323
 20
129.133988
 30
0.0
 40
0.3999999999999976
100
AcDbArc
 50
60.0
 51
90.0
  0
ARC
  5
308
330
1F
100
AcDbEntity
  8
1
  6
CONTINUOUS
 62
    53
100
AcDbCircle
 10
272.553323
 20
129.133988
 30
0.0
 40
0.3999999999999989
100
AcDbArc
 50
90.0
 51
138.590116
  0
ARC
  5
309
330
1F
100
AcDbEntity
  8
1
  6
CONTINUOUS
 62
    53
100
AcDbCircle
 10
272.553323
 20
124.933988
 30
0.0
 40
0.4000000000000115
100
AcDbArc
 50
221.409884
 51
270.0
  0
ARC
  5
30A
330
1F
100
AcDbEntity
  8
1
  6
CONTINUOUS
 62
    53
100
AcDbCircle
 10
272.553323
 20
129.133988
 30
0.0
 40
0.2000000000000002
100
AcDbArc
 50
90.0
 51
180.0
  0
ARC
  5
30B
330
1F
100
AcDbEntity
  8
1
  6
CONTINUOUS
 62
    53
100
AcDbCircle
 10
272.553323
 20
124.933988
 30
0.0
 40
0.2000000000000171
100
AcDbArc
 50
180.0
 51
270.0
  0
ARC
  5
30C
330
1F
100
AcDbEntity
  8
1
  6
CONTINUOUS
 62
     6
100
AcDbCircle
 10
87.008835
 20
230.648359
 30
0.0
 40
8.546446609406727
100
AcDbArc
 50
272.011627
 51
87.988373
  0
ARC
  5
30D
330
1F
100
AcDbEntity
  8
1
  6
CONTINUOUS
 62
     6
100
AcDbCircle
 10
87.008835
 20
230.648359
 30
0.0
 40
8.192893218813452
100
AcDbArc
 50
272.098474
 51
87.901526
  0
ARC
  5
30E
330
1F
100
AcDbEntity
  8
1
  6
CONTINUOUS
 62
     6
100
AcDbCircle
 10
87.008835
 20
230.648359
 30
0.0
 40
8.546446609406727
100
AcDbArc
 50
92.011627
 51
267.988373
  0
ARC
  5
30F
330
1F
100
AcDbEntity
  8
1
  6
CONTINUOUS
 62
     6
100
AcDbCircle
 10
87.008835
 20
230.648359
 30
0.0
 40
8.192893218813452
100
AcDbArc
 50
92.098474
 51
267.901526
  0
ARC
  5
310
330
1F
100
AcDbEntity
  8
1
  6
CONTINUOUS
 62
     6
100
AcDbCircle
 10
87.008835
 20
230.648359
 30
0.0
 40
7.463925805730807
100
AcDbArc
 50
272.303528
 51
87.696472
  0
CIRCLE
  5
311
330
1F
100
AcDbEntity
  8
1
  6
CONTINUOUS
 62
     6
100
AcDbCircle
 10
87.008835
 20
230.648359
 30
0.0
 40
6.250000000000004
  0
ARC
  5
312
330
1F
100
AcDbEntity
  8
1
  6
CONTINUOUS
 62
     6
100
AcDbCircle
 10
87.008835
 20
230.648359
 30
0.0
 40
6.607037002102587
100
AcDbArc
 50
87.397525
 51
92.602475
  0
ARC
  5
313
330
1F
100
AcDbEntity
  8
1
  6
CONTINUOUS
 62
     6
100
AcDbCircle
 10
87.008835
 20
230.648359
 30
0.0
 40
6.607037002102587
100
AcDbArc
 50
267.397525
 51
272.602475
  0
ARC
  5
314
330
1F
100
AcDbEntity
  8
1
  6
CONTINUOUS
 62
     6
100
AcDbCircle
 10
87.008835
 20
230.648359
 30
0.0
 40
7.463925805730807
100
AcDbArc
 50
92.303528
 51
267.696472
  0
CIRCLE
  5
315
330
1F
100
AcDbEntity
  8
1
  6
CONTINUOUS
 62
     6
100
AcDbCircle
 10
87.008835
 20
230.648359
 30
0.0
 40
9.2
  0
ARC
  5
316
330
1F
100
AcDbEntity
  8
1
  6
CONTINUOUS
 62
     6
100
AcDbCircle
 10
87.008835
 20
230.648359
 30
0.0
 40
8.999999999707978
100
AcDbArc
 50
268.089787
 51
271.910213
  0
ARC
  5
317
330
1F
100
AcDbEntity
  8
1
  6
CONTINUOUS
 62
     6
100
AcDbCircle
 10
87.008835
 20
230.648359
 30
0.0
 40
8.999999999707978
100
AcDbArc
 50
88.089787
 51
91.910213
  0
ARC
  5
318
330
1F
100
AcDbEntity
  8
1
  6
CONTINUOUS
 62
   250
100
AcDbCircle
 10
95.008835
 20
249.648359
 30
0.0
 40
8.028714365758086
100
AcDbArc
 50
0.0
 51
90.0
  0
ARC
  5
319
330
1F
100
AcDbEntity
  8
1
  6
CONTINUOUS
 62
   250
100
AcDbCircle
 10
95.008835
 20
249.648359
 30
0.0
 40
7.529646966547152
100
AcDbArc
 50
0.0
 51
90.0
  0
ARC
  5
31A
330
1F
100
AcDbEntity
  8
1
  6
CONTINUOUS
 62
   250
100
AcDbCircle
 10
79.008835
 20
211.648359
 30
0.0
 40
7.529646966547152
100
AcDbArc
 50
180.0
 51
270.0
  0
ARC
  5
31B
330
1F
100
AcDbEntity
  8
1
  6
CONTINUOUS
 62
   250
100
AcDbCircle
 10
79.008835
 20
211.648359
 30
0.0
 40
8.028714365758086
100
AcDbArc
 50
180.0
 51
270.0
  0
ARC
  5
31C
330
1F
100
AcDbEntity
  8
1
  6
CONTINUOUS
 62
   250
100
AcDbCircle
 10
79.008835
 20
249.648359
 30
0.0
 40
7.529646966547152
100
AcDbArc
 50
90.0
 51
180.0
  0
ARC
  5
31D
330
1F
100
AcDbEntity
  8
1
  6
CONTINUOUS
 62
   250
100
AcDbCircle
 10
95.008835
 20
211.648359
 30
0.0
 40
7.529646966547152
100
AcDbArc
 50
270.0
 51
0.0
  0
CIRCLE
  5
31E
330
1F
100
AcDbEntity
  8
1
  6
CONTINUOUS
 62
   250
100
AcDbCircle
 10
87.008835
 20
230.648359
 30
0.0
 40
13.5
  0
ARC
  5
31F
330
1F
100
AcDbEntity
  8
1
  6
CONTINUOUS
 62
   250
100
AcDbCircle
 10
79.008835
 20
249.648359
 30
0.0
 40
8.028714365758086
100
AcDbArc
 50
90.0
 51
180.0
  0
CIRCLE
  5
320
330
1F
100
AcDbEntity
  8
1
  6
CONTINUOUS
 62
   250
100
AcDbCircle
 10
87.008835
 20
230.648359
 30
0.0
 40
13.45072114086391
  0
ARC
  5
321
330
1F
100
AcDbEntity
  8
1
  6
CONTINUOUS
 62
   250
100
AcDbCircle
 10
95.008835
 20
211.648359
 30
0.0
 40
8.028714365758086
100
AcDbArc
 50
270.0
 51
0.0
  0
CIRCLE
  5
322
330
1F
100
AcDbEntity
  8
1
  6
CONTINUOUS
 62
   250
100
AcDbCircle
 10
87.008835
 20
230.648359
 30
0.0
 40
13.0
  0
CIRCLE
  5
323
330
1F
100
AcDbEntity
  8
1
  6
CONTINUOUS
 62
   250
100
AcDbCircle
 10
87.008835
 20
230.648359
 30
0.0
 40
12.95072114086391
  0
CIRCLE
  5
324
330
1F
100
AcDbEntity
  8
1
  6
CONTINUOUS
 62
   250
100
AcDbCircle
 10
87.008835
 20
230.648359
 30
0.0
 40
12.45072114086391
  0
CIRCLE
  5
325
330
1F
100
AcDbEntity
  8
1
  6
CONTINUOUS
 62
   250
100
AcDbCircle
 10
87.008835
 20
230.648359
 30
0.0
 40
12.5
  0
ARC
  5
326
330
1F
100
AcDbEntity
  8
1
  6
CONTINUOUS
 62
   250
100
AcDbCircle
 10
95.008835
 20
211.648359
 30
0.0
 40
8.10934593854401
100
AcDbArc
 50
270.0
 51
0.0
  0
ARC
  5
327
330
1F
100
AcDbEntity
  8
1
  6
CONTINUOUS
 62
   250
100
AcDbCircle
 10
79.008835
 20
249.648359
 30
0.0
 40
8.10934593854401
100
AcDbArc
 50
90.0
 51
180.0
  0
ARC
  5
328
330
1F
100
AcDbEntity
  8
1
  6
CONTINUOUS
 62
   250
100
AcDbCircle
 10
95.008835
 20
249.648359
 30
0.0
 40
8.10934593854401
100
AcDbArc
 50
0.0
 51
90.0
  0
ARC
  5
329
330
1F
100
AcDbEntity
  8
1
  6
CONTINUOUS
 62
   250
100
AcDbCircle
 10
79.008835
 20
211.648359
 30
0.0
 40
8.10934593854401
100
AcDbArc
 50
180.0
 51
270.0
  0
CIRCLE
  5
32A
330
1F
100
AcDbEntity
  8
1
  6
CONTINUOUS
 62
   250
100
AcDbCircle
 10
87.008835
 20
230.648359
 30
0.0
 40
12.0
  0
CIRCLE
  5
32B
330
1F
100
AcDbEntity
  8
1
  6
CONTINUOUS
 62
   250
100
AcDbCircle
 10
87.008835
 20
230.648359
 30
0.0
 40
11.95072114086391
  0
CIRCLE
  5
32C
330
1F
100
AcDbEntity
  8
1
  6
CONTINUOUS
 62
   250
100
AcDbCircle
 10
87.008835
 20
230.648359
 30
0.0
 40
11.5
  0
CIRCLE
  5
32D
330
1F
100
AcDbEntity
  8
1
  6
CONTINUOUS
 62
   250
100
AcDbCircle
 10
87.008835
 20
230.648359
 30
0.0
 40
11.45072114086391
  0
CIRCLE
  5
32E
330
1F
100
AcDbEntity
  8
1
  6
CONTINUOUS
 62
   250
100
AcDbCircle
 10
87.008835
 20
230.648359
 30
0.0
 40
11.0
  0
CIRCLE
  5
32F
330
1F
100
AcDbEntity
  8
1
  6
CONTINUOUS
 62
   250
100
AcDbCircle
 10
87.008835
 20
230.648359
 30
0.0
 40
10.95072114086391
  0
CIRCLE
  5
330
330
1F
100
AcDbEntity
  8
1
  6
CONTINUOUS
 62
   250
100
AcDbCircle
 10
87.008835
 20
230.648359
 30
0.0
 40
10.5
  0
CIRCLE
  5
331
330
1F
100
AcDbEntity
  8
1
  6
CONTINUOUS
 62
   250
100
AcDbCircle
 10
87.008835
 20
230.648359
 30
0.0
 40
10.45072114086391
  0
CIRCLE
  5
332
330
1F
100
AcDbEntity
  8
1
  6
CONTINUOUS
 62
   250
100
AcDbCircle
 10
87.008835
 20
230.648359
 30
0.0
 40
10.0
  0
CIRCLE
  5
333
330
1F
100
AcDbEntity
  8
1
  6
CONTINUOUS
 62
   250
100
AcDbCircle
 10
87.008835
 20
230.648359
 30
0.0
 40
9.950721140863909
  0
CIRCLE
  5
334
330
1F
100
AcDbEntity
  8
1
  6
CONTINUOUS
 62
   250
100
AcDbCircle
 10
87.008835
 20
230.648359
 30
0.0
 40
9.5
  0
ARC
  5
335
330
1F
100
AcDbEntity
  8
1
  6
CONTINUOUS
 62
   250
100
AcDbCircle
 10
95.008835
 20
249.648359
 30
0.0
 40
8.109718978859638
100
AcDbArc
 50
0.0
 51
90.0
  0
ARC
  5
336
330
1F
100
AcDbEntity
  8
1
  6
CONTINUOUS
 62
   250
100
AcDbCircle
 10
79.008835
 20
211.648359
 30
0.0
 40
8.109718978859638
100
AcDbArc
 50
180.0
 51
270.0
  0
ARC
  5
337
330
1F
100
AcDbEntity
  8
1
  6
CONTINUOUS
 62
   250
100
AcDbCircle
 10
95.008835
 20
211.648359
 30
0.0
 40
8.109718978859638
100
AcDbArc
 50
270.0
 51
0.0
  0
ARC
  5
338
330
1F
100
AcDbEntity
  8
1
  6
CONTINUOUS
 62
   250
100
AcDbCircle
 10
79.008835
 20
249.648359
 30
0.0
 40
8.109718978859638
100
AcDbArc
 50
90.0
 51
180.0
  0
CIRCLE
  5
339
330
1F
100
AcDbEntity
  8
1
  6
CONTINUOUS
 62
    35
100
AcDbCircle
 10
352.343926
 20
218.748359
 30
0.0
 40
2.3
  0
CIRCLE
  5
33A
330
1F
100
AcDbEntity
  8
1
  6
CONTINUOUS
 62
    35
100
AcDbCircle
 10
352.343926
 20
218.748359
 30
0.0
 40
2.5
  0
CIRCLE
  5
33B
330
1F
100
AcDbEntity
  8
1
  6
CONTINUOUS
 62
    35
100
AcDbCircle
 10
352.343926
 20
218.748359
 30
0.0
 40
1.82
  0
ARC
  5
33C
330
1F
100
AcDbEntity
  8
1
  6
CONTINUOUS
 62
   151
100
AcDbCircle
 10
334.793926
 20
239.798359
 30
0.0
 40
1.699999999999998
100
AcDbArc
 50
180.0
 51
270.0
  0
ARC
  5
33D
330
1F
100
AcDbEntity
  8
1
  6
CONTINUOUS
 62
   151
100
AcDbCircle
 10
334.793926
 20
239.798359
 30
0.0
 40
1.499999999999998
100
AcDbArc
 50
180.0
 51
270.0
  0
ARC
  5
33E
330
1F
100
AcDbEntity
  8
1
  6
CONTINUOUS
 62
   151
100
AcDbCircle
 10
338.793926
 20
252.398359
 30
0.0
 40
1.499999999999996
100
AcDbArc
 50
0.0
 51
90.0
  0
ARC
  5
33F
330
1F
100
AcDbEntity
  8
1
  6
CONTINUOUS
 62
   151
100
AcDbCircle
 10
338.793926
 20
252.398359
 30
0.0
 40
1.699999999999996
100
AcDbArc
 50
0.0
 51
90.0
  0
ARC
  5
340
330
1F
100
AcDbEntity
  8
1
  6
CONTINUOUS
 62
   151
100
AcDbCircle
 10
338.793926
 20
239.798359
 30
0.0
 40
1.700000000000001
100
AcDbArc
 50
270.0
 51
0.0
  0
ARC
  5
341
330
1F
100
AcDbEntity
  8
1
  6
CONTINUOUS
 62
   151
100
AcDbCircle
 10
338.793926
 20
239.798359
 30
0.0
 40
1.500000000000001
100
AcDbArc
 50
270.0
 51
0.0
  0
ARC
  5
342
330
1F
100
AcDbEntity
  8
1
  6
CONTINUOUS
 62
   151
100
AcDbCircle
 10
334.793926
 20
252.398359
 30
0.0
 40
1.499999999999999
100
AcDbArc
 50
90.0
 51
180.0
  0
ARC
  5
343
330
1F
100
AcDbEntity
  8
1
  6
CONTINUOUS
 62
   151
100
AcDbCircle
 10
334.793926
 20
252.398359
 30
0.0
 40
1.699999999999999
100
AcDbArc
 50
90.0
 51
180.0
  0
ARC
  5
344
330
1F
100
AcDbEntity
  8
1
  6
CONTINUOUS
 62
    53
100
AcDbCircle
 10
348.243926
 20
210.648359
 30
0.0
 40
1.55
100
AcDbArc
 50
147.009386
 51
212.990614
  0
CIRCLE
  5
345
330
1F
100
AcDbEntity
  8
1
  6
CONTINUOUS
 62
   150
100
AcDbCircle
 10
357.543926
 20
210.648359
 30
0.0
 40
0.9000000000000189
  0
ARC
  5
346
330
1F
100
AcDbEntity
  8
1
  6
CONTINUOUS
 62
   250
100
AcDbCircle
 10
345.343926
 20
230.648359
 30
0.0
 40
11.5
100
AcDbArc
 50
100.014821
 51
102.55559
  0
ARC
  5
347
330
1F
100
AcDbEntity
  8
1
  6
CONTINUOUS
 62
   250
100
AcDbCircle
 10
345.343926
 20
230.648359
 30
0.0
 40
13.8851648071345
100
AcDbArc
 50
98.281
 51
100.372397
  0
CIRCLE
  5
348
330
1F
100
AcDbEntity
  8
1
  6
CONTINUOUS
 62
    53
100
AcDbCircle
 10
357.543926
 20
210.648359
 30
0.0
 40
0.9999999999999866
  0
ARC
  5
349
330
1F
100
AcDbEntity
  8
1
  6
CONTINUOUS
 62
     9
100
AcDbCircle
 10
345.343926
 20
230.648359
 30
0.0
 40
2.736534178180003
100
AcDbArc
 50
158.788131
 51
169.470013
  0
ARC
  5
34A
330
1F
100
AcDbEntity
  8
1
  6
CONTINUOUS
 62
     9
100
AcDbCircle
 10
345.343926
 20
230.648359
 30
0.0
 40
2.736534178180003
100
AcDbArc
 50
208.366881
 51
228.200625
  0
ARC
  5
34B
330
1F
100
AcDbEntity
  8
1
  6
CONTINUOUS
 62
     9
100
AcDbCircle
 10
345.343926
 20
230.648359
 30
0.0
 40
3.249999999999999
100
AcDbArc
 50
72.264368
 51
107.842491
  0
ARC
  5
34C
330
1F
100
AcDbEntity
  8
1
  6
CONTINUOUS
 62
     9
100
AcDbCircle
 10
345.343926
 20
230.648359
 30
0.0
 40
3.249999999999999
100
AcDbArc
 50
162.264367
 51
171.146235
  0
ARC
  5
34D
330
1F
100
AcDbEntity
  8
1
  6
CONTINUOUS
 62
     9
100
AcDbCircle
 10
345.343926
 20
230.648359
 30
0.0
 40
3.249999999999999
100
AcDbArc
 50
203.580001
 51
218.885625
  0
ARC
  5
34E
330
1F
100
AcDbEntity
  8
1
  6
CONTINUOUS
 62
     9
100
AcDbCircle
 10
345.343926
 20
230.648359
 30
0.0
 40
3.300000000019999
100
AcDbArc
 50
72.540008
 51
107.375633
  0
ARC
  5
34F
330
1F
100
AcDbEntity
  8
1
  6
CONTINUOUS
 62
     9
100
AcDbCircle
 10
345.343926
 20
230.648359
 30
0.0
 40
3.300000000019999
100
AcDbArc
 50
162.539992
 51
171.281245
  0
ARC
  5
350
330
1F
100
AcDbEntity
  8
1
  6
CONTINUOUS
 62
     9
100
AcDbCircle
 10
345.343926
 20
230.648359
 30
0.0
 40
3.300000000019999
100
AcDbArc
 50
203.20312
 51
218.188119
  0
ARC
  5
351
330
1F
100
AcDbEntity
  8
1
  6
CONTINUOUS
 62
     9
100
AcDbCircle
 10
345.343926
 20
230.648359
 30
0.0
 40
2.399999999999999
100
AcDbArc
 50
155.632496
 51
167.973744
  0
ARC
  5
352
330
1F
100
AcDbEntity
  8
1
  6
CONTINUOUS
 62
     9
100
AcDbCircle
 10
345.343926
 20
230.648359
 30
0.0
 40
2.399999999999999
100
AcDbArc
 50
212.799384
 51
231.322512
  0
ARC
  5
353
330
1F
100
AcDbEntity
  8
1
  6
CONTINUOUS
 62
     9
100
AcDbCircle
 10
345.343926
 20
230.648359
 30
0.0
 40
2.399999999999999
100
AcDbArc
 50
236.013748
 51
237.20624
  0
ARC
  5
354
330
1F
100
AcDbEntity
  8
1
  6
CONTINUOUS
 62
     9
100
AcDbCircle
 10
345.343926
 20
230.648359
 30
0.0
 40
10.7
100
AcDbArc
 50
100.772334
 51
103.50975
  0
ARC
  5
355
330
1F
100
AcDbEntity
  8
1
  6
CONTINUOUS
 62
     9
100
AcDbCircle
 10
345.343926
 20
230.648359
 30
0.0
 40
3.15
100
AcDbArc
 50
74.812495
 51
105.181877
  0
ARC
  5
356
330
1F
100
AcDbEntity
  8
1
  6
CONTINUOUS
 62
     9
100
AcDbCircle
 10
345.343926
 20
230.648359
 30
0.0
 40
3.15
100
AcDbArc
 50
161.679372
 51
170.864995
  0
ARC
  5
357
330
1F
100
AcDbEntity
  8
1
  6
CONTINUOUS
 62
     9
100
AcDbCircle
 10
345.343926
 20
230.648359
 30
0.0
 40
3.15
100
AcDbArc
 50
204.378751
 51
220.365001
  0
ARC
  5
358
330
1F
100
AcDbEntity
  8
1
  6
CONTINUOUS
 62
     9
100
AcDbCircle
 10
345.343926
 20
230.648359
 30
0.0
 40
4.25
100
AcDbArc
 50
195.27187
 51
223.166246
  0
ARC
  5
359
330
1F
100
AcDbEntity
  8
1
  6
CONTINUOUS
 62
     9
100
AcDbCircle
 10
345.343926
 20
230.648359
 30
0.0
 40
4.25
100
AcDbArc
 50
244.631254
 51
249.333755
  0
ARC
  5
35A
330
1F
100
AcDbEntity
  8
1
  6
CONTINUOUS
 62
   152
100
AcDbCircle
 10
348.443926
 20
207.548359
 30
0.0
 40
1.5
100
AcDbArc
 50
180.0
 51
270.0
  0
ARC
  5
35B
330
1F
100
AcDbEntity
  8
1
  6
CONTINUOUS
 62
   152
100
AcDbCircle
 10
353.943926
 20
207.548359
 30
0.0
 40
1.5
100
AcDbArc
 50
270.0
 51
0.0
  0
ARC
  5
35C
330
1F
100
AcDbEntity
  8
1
  6
CONTINUOUS
 62
   152
100
AcDbCircle
 10
353.943926
 20
213.748359
 30
0.0
 40
1.5
100
AcDbArc
 50
0.0
 51
90.0
  0
ARC
  5
35D
330
1F
100
AcDbEntity
  8
1
  6
CONTINUOUS
 62
   152
100
AcDbCircle
 10
348.443926
 20
213.748359
 30
0.0
 40
1.5
100
AcDbArc
 50
90.0
 51
180.0
  0
ARC
  5
35E
330
1F
100
AcDbEntity
  8
1
  6
CONTINUOUS
 62
    63
100
AcDbCircle
 10
347.843926
 20
224.798359
 30
0.0
 40
1.249999999999999
100
AcDbArc
 50
126.869898
 51
233.130102
  0
ARC
  5
35F
330
1F
100
AcDbEntity
  8
1
  6
CONTINUOUS
 62
    63
100
AcDbCircle
 10
347.843926
 20
224.798359
 30
0.0
 40
1.25
100
AcDbArc
 50
306.869898
 51
53.130102
  0
ARC
  5
360
330
1F
100
AcDbEntity
  8
1
  6
CONTINUOUS
 62
    63
100
AcDbCircle
 10
347.843926
 20
227.338359
 30
0.0
 40
1.25
100
AcDbArc
 50
126.869898
 51
233.130102
  0
ARC
  5
361
330
1F
100
AcDbEntity
  8
1
  6
CONTINUOUS
 62
    63
100
AcDbCircle
 10
347.843926
 20
227.338359
 30
0.0
 40
1.25
100
AcDbArc
 50
306.869898
 51
53.130102
  0
ARC
  5
362
330
1F
100
AcDbEntity
  8
1
  6
CONTINUOUS
 62
    63
100
AcDbCircle
 10
347.843926
 20
229.878359
 30
0.0
 40
1.25
100
AcDbArc
 50
126.869898
 51
233.130102
  0
ARC
  5
363
330
1F
100
AcDbEntity
  8
1
  6
CONTINUOUS
 62
    63
100
AcDbCircle
 10
347.843926
 20
229.878359
 30
0.0
 40
1.25
100
AcDbArc
 50
306.869898
 51
53.130102
  0
ARC
  5
364
330
1F
100
AcDbEntity
  8
1
  6
CONTINUOUS
 62
    53
100
AcDbCircle
 10
353.343926
 20
249.648359
 30
0.0
 40
6.44280904158207
100
AcDbArc
 50
0.0
 51
90.0
  0
ARC
  5
365
330
1F
100
AcDbEntity
  8
1
  6
CONTINUOUS
 62
    53
100
AcDbCircle
 10
353.343926
 20
249.648359
 30
0.0
 40
6.914213562373097
100
AcDbArc
 50
360.0
 51
90.0
  0
ARC
  5
366
330
1F
100
AcDbEntity
  8
1
  6
CONTINUOUS
 62
    53
100
AcDbCircle
 10
337.343926
 20
211.648359
 30
0.0
 40
7.529646966547149
100
AcDbArc
 50
180.0
 51
270.0
  0
ARC
  5
367
330
1F
100
AcDbEntity
  8
1
  6
CONTINUOUS
 62
    53
100
AcDbCircle
 10
337.343926
 20
211.648359
 30
0.0
 40
8.028714365758082
100
AcDbArc
 50
180.0
 51
270.0
  0
ARC
  5
368
330
1F
100
AcDbEntity
  8
1
  6
CONTINUOUS
 62
    53
100
AcDbCircle
 10
353.343926
 20
211.648359
 30
0.0
 40
6.442809041582069
100
AcDbArc
 50
270.0
 51
0.0
  0
ARC
  5
369
330
1F
100
AcDbEntity
  8
1
  6
CONTINUOUS
 62
    53
100
AcDbCircle
 10
353.343926
 20
211.648359
 30
0.0
 40
6.914213562373091
100
AcDbArc
 50
270.0
 51
0.0
  0
ARC
  5
36A
330
1F
100
AcDbEntity
  8
1
  6
CONTINUOUS
 62
    53
100
AcDbCircle
 10
353.343926
 20
249.648359
 30
0.0
 40
7.529646966547154
100
AcDbArc
 50
0.0
 51
90.0
  0
ARC
  5
36B
330
1F
100
AcDbEntity
  8
1
  6
CONTINUOUS
 62
    53
100
AcDbCircle
 10
353.343926
 20
249.648359
 30
0.0
 40
8.02871436575809
100
AcDbArc
 50
0.0
 51
90.0
  0
ARC
  5
36C
330
1F
100
AcDbEntity
  8
1
  6
CONTINUOUS
 62
    53
100
AcDbCircle
 10
337.343926
 20
211.648359
 30
0.0
 40
6.442809041582066
100
AcDbArc
 50
180.0
 51
270.0
  0
ARC
  5
36D
330
1F
100
AcDbEntity
  8
1
  6
CONTINUOUS
 62
    53
100
AcDbCircle
 10
337.343926
 20
211.648359
 30
0.0
 40
6.914213562373093
100
AcDbArc
 50
180.0
 51
270.0
  0
ARC
  5
36E
330
1F
100
AcDbEntity
  8
1
  6
CONTINUOUS
 62
    53
100
AcDbCircle
 10
353.343926
 20
211.648359
 30
0.0
 40
7.529646966547152
100
AcDbArc
 50
270.0
 51
0.0
  0
ARC
  5
36F
330
1F
100
AcDbEntity
  8
1
  6
CONTINUOUS
 62
    53
100
AcDbCircle
 10
337.343926
 20
249.648359
 30
0.0
 40
6.914213562373095
100
AcDbArc
 50
90.0
 51
180.0
  0
ARC
  5
370
330
1F
100
AcDbEntity
  8
1
  6
CONTINUOUS
 62
    53
100
AcDbCircle
 10
337.343926
 20
249.648359
 30
0.0
 40
7.529646966547156
100
AcDbArc
 50
90.0
 51
180.0
  0
ARC
  5
371
330
1F
100
AcDbEntity
  8
1
  6
CONTINUOUS
 62
    53
100
AcDbCircle
 10
337.343926
 20
249.648359
 30
0.0
 40
8.028714365758091
100
AcDbArc
 50
90.0
 51
180.0
  0
ARC
  5
372
330
1F
100
AcDbEntity
  8
1
  6
CONTINUOUS
 62
    53
100
AcDbCircle
 10
353.343926
 20
211.648359
 30
0.0
 40
8.028714365758086
100
AcDbArc
 50
270.0
 51
0.0
  0
ARC
  5
373
330
1F
100
AcDbEntity
  8
1
  6
CONTINUOUS
 62
    53
100
AcDbCircle
 10
337.343926
 20
249.648359
 30
0.0
 40
6.442809041582064
100
AcDbArc
 50
90.0
 51
180.0
  0
ARC
  5
374
330
1F
100
AcDbEntity
  8
1
  6
CONTINUOUS
 62
    53
100
AcDbCircle
 10
337.343926
 20
249.648359
 30
0.0
 40
5.500000000000001
100
AcDbArc
 50
90.0
 51
162.755018
  0
ARC
  5
375
330
1F
100
AcDbEntity
  8
1
  6
CONTINUOUS
 62
    53
100
AcDbCircle
 10
337.343926
 20
249.648359
 30
0.0
 40
5.500000000000001
100
AcDbArc
 50
165.541126
 51
180.0
  0
ARC
  5
376
330
1F
100
AcDbEntity
  8
1
  6
CONTINUOUS
 62
    53
100
AcDbCircle
 10
353.343926
 20
249.648359
 30
0.0
 40
5.500000000000003
100
AcDbArc
 50
360.0
 51
90.0
  0
ARC
  5
377
330
1F
100
AcDbEntity
  8
1
  6
CONTINUOUS
 62
    53
100
AcDbCircle
 10
353.343926
 20
211.648359
 30
0.0
 40
5.499999999999996
100
AcDbArc
 50
286.020002
 51
0.0
  0
ARC
  5
378
330
1F
100
AcDbEntity
  8
1
  6
CONTINUOUS
 62
    53
100
AcDbCircle
 10
337.343926
 20
211.648359
 30
0.0
 40
5.499999999999998
100
AcDbArc
 50
180.0
 51
270.0
  0
ARC
  5
379
330
1F
100
AcDbEntity
  8
1
  6
CONTINUOUS
 62
    53
100
AcDbCircle
 10
353.343926
 20
211.648359
 30
0.0
 40
8.10934593854401
100
AcDbArc
 50
270.0
 51
0.0
  0
ARC
  5
37A
330
1F
100
AcDbEntity
  8
1
  6
CONTINUOUS
 62
    53
100
AcDbCircle
 10
353.343926
 20
249.648359
 30
0.0
 40
8.10934593854401
100
AcDbArc
 50
0.0
 51
90.0
  0
ARC
  5
37B
330
1F
100
AcDbEntity
  8
1
  6
CONTINUOUS
 62
    53
100
AcDbCircle
 10
337.343926
 20
249.648359
 30
0.0
 40
8.109345938544013
100
AcDbArc
 50
90.0
 51
180.0
  0
ARC
  5
37C
330
1F
100
AcDbEntity
  8
1
  6
CONTINUOUS
 62
    53
100
AcDbCircle
 10
337.343926
 20
211.648359
 30
0.0
 40
8.109345938544006
100
AcDbArc
 50
180.0
 51
270.0
  0
ARC
  5
37D
330
1F
100
AcDbEntity
  8
1
  6
CONTINUOUS
 62
    53
100
AcDbCircle
 10
329.993926
 20
247.098359
 30
0.0
 40
10.50557280900009
100
AcDbArc
 50
358.133954
 51
1.866043
  0
ARC
  5
37E
330
1F
100
AcDbEntity
  8
1
  6
CONTINUOUS
 62
    53
100
AcDbCircle
 10
333.293926
 20
243.398359
 30
0.0
 40
1.107249405163925
100
AcDbArc
 50
180.0
 51
259.592354
  0
ARC
  5
37F
330
1F
100
AcDbEntity
  8
1
  6
CONTINUOUS
 62
    53
100
AcDbCircle
 10
333.293926
 20
243.398359
 30
0.0
 40
1.295187929321105
100
AcDbArc
 50
180.0
 51
261.116707
  0
ARC
  5
380
330
1F
100
AcDbEntity
  8
1
  6
CONTINUOUS
 62
    53
100
AcDbCircle
 10
341.743926
 20
231.138359
 30
0.0
 40
0.5
100
AcDbArc
 50
90.0
 51
180.0
  0
ARC
  5
381
330
1F
100
AcDbEntity
  8
1
  6
CONTINUOUS
 62
    53
100
AcDbCircle
 10
333.293926
 20
250.798359
 30
0.0
 40
1.295187929321103
100
AcDbArc
 50
98.883843
 51
158.22251
  0
ARC
  5
382
330
1F
100
AcDbEntity
  8
1
  6
CONTINUOUS
 62
    53
100
AcDbCircle
 10
333.293926
 20
250.798359
 30
0.0
 40
1.295187929321103
100
AcDbArc
 50
170.073634
 51
180.0
  0
ARC
  5
383
330
1F
100
AcDbEntity
  8
1
  6
CONTINUOUS
 62
    53
100
AcDbCircle
 10
354.843926
 20
233.678359
 30
0.0
 40
0.5
100
AcDbArc
 50
360.0
 51
90.0
  0
ARC
  5
384
330
1F
100
AcDbEntity
  8
1
  6
CONTINUOUS
 62
    53
100
AcDbCircle
 10
343.843926
 20
232.138359
 30
0.0
 40
0.5
100
AcDbArc
 50
270.0
 51
0.0
  0
ARC
  5
385
330
1F
100
AcDbEntity
  8
1
  6
CONTINUOUS
 62
    53
100
AcDbCircle
 10
344.843926
 20
233.678359
 30
0.0
 40
0.5
100
AcDbArc
 50
90.0
 51
180.0
  0
ARC
  5
386
330
1F
100
AcDbEntity
  8
1
  6
CONTINUOUS
 62
    53
100
AcDbCircle
 10
341.743926
 20
223.518359
 30
0.0
 40
0.5
100
AcDbArc
 50
180.0
 51
270.0
  0
ARC
  5
387
330
1F
100
AcDbEntity
  8
1
  6
CONTINUOUS
 62
    53
100
AcDbCircle
 10
354.843926
 20
223.518359
 30
0.0
 40
0.5
100
AcDbArc
 50
270.0
 51
0.0
  0
ARC
  5
388
330
1F
100
AcDbEntity
  8
1
  6
CONTINUOUS
 62
    53
100
AcDbCircle
 10
343.343926
 20
251.648359
 30
0.0
 40
0.5
100
AcDbArc
 50
90.0
 51
180.0
  0
ARC
  5
389
330
1F
100
AcDbEntity
  8
1
  6
CONTINUOUS
 62
    53
100
AcDbCircle
 10
354.843926
 20
251.648359
 30
0.0
 40
0.5
100
AcDbArc
 50
0.0
 51
90.0
  0
ARC
  5
38A
330
1F
100
AcDbEntity
  8
1
  6
CONTINUOUS
 62
    53
100
AcDbCircle
 10
354.843926
 20
236.648359
 30
0.0
 40
0.5
100
AcDbArc
 50
270.0
 51
0.0
  0
ARC
  5
38B
330
1F
100
AcDbEntity
  8
1
  6
CONTINUOUS
 62
    53
100
AcDbCircle
 10
343.343926
 20
236.648359
 30
0.0
 40
0.5
100
AcDbArc
 50
180.0
 51
270.0
  0
ARC
  5
38C
330
1F
100
AcDbEntity
  8
1
  6
CONTINUOUS
 62
    53
100
AcDbCircle
 10
333.293926
 20
250.798359
 30
0.0
 40
1.107249405163925
100
AcDbArc
 50
170.073634
 51
180.0
  0
ARC
  5
38D
330
1F
100
AcDbEntity
  8
1
  6
CONTINUOUS
 62
    53
100
AcDbCircle
 10
333.293926
 20
250.798359
 30
0.0
 40
1.107249405163925
100
AcDbArc
 50
100.407118
 51
158.22251
  0
ARC
  5
38E
330
1F
100
AcDbEntity
  8
1
  6
CONTINUOUS
 62
    53
100
AcDbCircle
 10
333.293926
 20
250.798359
 30
0.0
 40
0.5
100
AcDbArc
 50
113.578607
 51
180.0
  0
ARC
  5
38F
330
1F
100
AcDbEntity
  8
1
  6
CONTINUOUS
 62
    53
100
AcDbCircle
 10
333.293926
 20
243.398359
 30
0.0
 40
0.5000000000000018
100
AcDbArc
 50
180.0
 51
246.421393
  0
ARC
  5
390
330
1F
100
AcDbEntity
  8
1
  6
CONTINUOUS
 62
    53
100
AcDbCircle
 10
337.343926
 20
249.648359
 30
0.0
 40
8.109718978859641
100
AcDbArc
 50
90.0
 51
180.0
  0
ARC
  5
391
330
1F
100
AcDbEntity
  8
1
  6
CONTINUOUS
 62
    53
100
AcDbCircle
 10
337.343926
 20
211.648359
 30
0.0
 40
8.109718978859634
100
AcDbArc
 50
180.0
 51
270.0
  0
ARC
  5
392
330
1F
100
AcDbEntity
  8
1
  6
CONTINUOUS
 62
    53
100
AcDbCircle
 10
353.343926
 20
249.648359
 30
0.0
 40
8.10971897885964
100
AcDbArc
 50
0.0
 51
90.0
  0
ARC
  5
393
330
1F
100
AcDbEntity
  8
1
  6
CONTINUOUS
 62
    53
100
AcDbCircle
 10
353.343926
 20
211.648359
 30
0.0
 40
8.109718978859638
100
AcDbArc
 50
270.0
 51
0.0
  0
ARC
  5
394
330
1F
100
AcDbEntity
  8
1
  6
CONTINUOUS
 62
   250
100
AcDbCircle
 10
345.343926
 20
230.648359
 30
0.0
 40
11.0
100
AcDbArc
 50
100.47375
 51
103.134373
  0
ARC
  5
395
330
1F
100
AcDbEntity
  8
1
  6
CONTINUOUS
 62
     9
100
AcDbCircle
 10
345.343926
 20
230.648359
 30
0.0
 40
7.000000000000001
100
AcDbArc
 50
234.151875
 51
243.714377
  0
ARC
  5
396
330
1F
100
AcDbEntity
  8
1
  6
CONTINUOUS
 62
     9
100
AcDbCircle
 10
345.343926
 20
230.648359
 30
0.0
 40
7.000000000000001
100
AcDbArc
 50
245.705626
 51
257.630629
  0
ARC
  5
397
330
1F
100
AcDbEntity
  8
1
  6
CONTINUOUS
 62
     9
100
AcDbCircle
 10
345.343926
 20
230.648359
 30
0.0
 40
5.600000000000001
100
AcDbArc
 50
87.440621
 51
100.839372
  0
ARC
  5
398
330
1F
100
AcDbEntity
  8
1
  6
CONTINUOUS
 62
     9
100
AcDbCircle
 10
345.343926
 20
230.648359
 30
0.0
 40
5.600000000000001
100
AcDbArc
 50
222.935624
 51
236.390628
  0
ARC
  5
399
330
1F
100
AcDbEntity
  8
1
  6
CONTINUOUS
 62
     9
100
AcDbCircle
 10
345.343926
 20
230.648359
 30
0.0
 40
6.000000000000001
100
AcDbArc
 50
87.609371
 51
111.97125
  0
ARC
  5
39A
330
1F
100
AcDbEntity
  8
1
  6
CONTINUOUS
 62
     9
100
AcDbCircle
 10
345.343926
 20
230.648359
 30
0.0
 40
6.000000000000001
100
AcDbArc
 50
226.895621
 51
238.893749
  0
ARC
  5
39B
330
1F
100
AcDbEntity
  8
1
  6
CONTINUOUS
 62
     9
100
AcDbCircle
 10
345.343926
 20
230.648359
 30
0.0
 40
4.8
100
AcDbArc
 50
211.336873
 51
229.775622
  0
ARC
  5
39C
330
1F
100
AcDbEntity
  8
1
  6
CONTINUOUS
 62
     9
100
AcDbCircle
 10
345.343926
 20
230.648359
 30
0.0
 40
4.8
100
AcDbArc
 50
233.133751
 51
252.590622
  0
ARC
  5
39D
330
1F
100
AcDbEntity
  8
1
  6
CONTINUOUS
 62
     9
100
AcDbCircle
 10
345.343926
 20
230.648359
 30
0.0
 40
4.6
100
AcDbArc
 50
206.966249
 51
227.6325
  0
ARC
  5
39E
330
1F
100
AcDbEntity
  8
1
  6
CONTINUOUS
 62
     9
100
AcDbCircle
 10
345.343926
 20
230.648359
 30
0.0
 40
4.6
100
AcDbArc
 50
236.598754
 51
250.970628
  0
CIRCLE
  5
39F
330
1F
100
AcDbEntity
  8
1
  6
CONTINUOUS
 62
    53
100
AcDbCircle
 10
352.343926
 20
218.748359
 30
0.0
 40
2.750000000000001
  0
ARC
  5
3A0
330
1F
100
AcDbEntity
  8
1
  6
CONTINUOUS
 62
     9
100
AcDbCircle
 10
345.343926
 20
230.648359
 30
0.0
 40
6.500000000000002
100
AcDbArc
 50
107.915627
 51
112.618129
  0
ARC
  5
3A1
330
1F
100
AcDbEntity
  8
1
  6
CONTINUOUS
 62
     9
100
AcDbCircle
 10
345.343926
 20
230.648359
 30
0.0
 40
6.500000000000002
100
AcDbArc
 50
230.894997
 51
241.520623
  0
ARC
  5
3A2
330
1F
100
AcDbEntity
  8
1
  6
CONTINUOUS
 62
   151
100
AcDbCircle
 10
430.762692
 20
238.298359
 30
0.0
 40
0.2
100
AcDbArc
 50
180.0
 51
270.0
  0
ARC
  5
3A3
330
1F
100
AcDbEntity
  8
1
  6
CONTINUOUS
 62
   151
100
AcDbCircle
 10
430.762692
 20
253.898359
 30
0.0
 40
0.2
100
AcDbArc
 50
90.0
 51
180.0
  0
CIRCLE
  5
3A4
330
1F
100
AcDbEntity
  8
1
  6
CONTINUOUS
 62
     7
100
AcDbCircle
 10
447.862692
 20
246.148359
 30
0.0
 40
1.250000000000003
  0
ARC
  5
3A5
330
1F
100
AcDbEntity
  8
1
  6
CONTINUOUS
 62
   250
100
AcDbCircle
 10
543.062692
 20
257.558078
 30
0.0
 40
0.2
100
AcDbArc
 50
86.5
 51
180.0
  0
ARC
  5
3A6
330
1F
100
AcDbEntity
  8
1
  6
CONTINUOUS
 62
   250
100
AcDbCircle
 10
543.062692
 20
203.73864
 30
0.0
 40
0.2
100
AcDbArc
 50
180.0
 51
273.5
  0
ARC
  5
3A7
330
1F
100
AcDbEntity
  8
1
  6
CONTINUOUS
 62
   250
100
AcDbCircle
 10
544.362692
 20
257.178006
 30
0.0
 40
0.5
100
AcDbArc
 50
0.0
 51
86.5
  0
ARC
  5
3A8
330
1F
100
AcDbEntity
  8
1
  6
CONTINUOUS
 62
   250
100
AcDbCircle
 10
544.362692
 20
204.118712
 30
0.0
 40
0.5
100
AcDbArc
 50
273.5
 51
0.0
  0
CIRCLE
  5
3A9
330
1F
100
AcDbEntity
  8
1
  6
CONTINUOUS
 62
     7
100
AcDbCircle
 10
527.862692
 20
246.148359
 30
0.0
 40
1.250000000000003
  0
ARC
  5
3AA
330
1F
100
AcDbEntity
  8
1
  6
CONTINUOUS
 62
    53
100
AcDbCircle
 10
432.662692
 20
203.73864
 30
0.0
 40
0.2
100
AcDbArc
 50
266.5
 51
0.0
  0
ARC
  5
3AB
330
1F
100
AcDbEntity
  8
1
  6
CONTINUOUS
 62
    53
100
AcDbCircle
 10
432.662692
 20
257.558078
 30
0.0
 40
0.2
100
AcDbArc
 50
0.0
 51
93.5
  0
ARC
  5
3AC
330
1F
100
AcDbEntity
  8
1
  6
CONTINUOUS
 62
    53
100
AcDbCircle
 10
431.362692
 20
204.118712
 30
0.0
 40
0.5
100
AcDbArc
 50
180.0
 51
266.5
  0
ARC
  5
3AD
330
1F
100
AcDbEntity
  8
1
  6
CONTINUOUS
 62
    53
100
AcDbCircle
 10
431.362692
 20
257.178006
 30
0.0
 40
0.5
100
AcDbArc
 50
93.5
 51
180.0
  0
ARC
  5
3AE
330
1F
100
AcDbEntity
  8
1
  6
CONTINUOUS
 62
     7
100
AcDbCircle
 10
433.162692
 20
248.548359
 30
0.0
 40
0.3
100
AcDbArc
 50
90.0
 51
180.0
  0
ARC
  5
3AF
330
1F
100
AcDbEntity
  8
1
  6
CONTINUOUS
 62
     7
100
AcDbCircle
 10
542.562692
 20
248.548359
 30
0.0
 40
0.3
100
AcDbArc
 50
0.0
 51
90.0
  0
CIRCLE
  5
3B0
330
1F
100
AcDbEntity
  8
1
  6
CONTINUOUS
 62
     7
100
AcDbCircle
 10
527.862692
 20
246.148359
 30
0.0
 40
1.300000000000002
  0
CIRCLE
  5
3B1
330
1F
100
AcDbEntity
  8
1
  6
CONTINUOUS
 62
     7
100
AcDbCircle
 10
447.862692
 20
246.148359
 30
0.0
 40
1.300000000000002
  0
SPLINE
  5
3B2
330
1F
100
AcDbEntity
  8
1
  6
CONTINUOUS
 62
     6
100
AcDbSpline
210
0.0
220
0.0
230
1.0
 70
    24
 71
     3
 72
     8
 73
     4
 74
     0
 42
0.000000001
 43
0.0000000001
 40
0.0
 40
0.0
 40
0.0
 40
0.0
 40
1.0
 40
1.0
 40
1.0
 40
1.0
 10
87.30883511573029
 20
222.1071794480082
 30
0.0
 10
87.30883511573029
 20
222.2005942228689
 30
0.0
 10
87.30883511573069
 20
222.3288938305367
 30
0.0
 10
87.30883511573069
 20
222.460960277007
 30
0.0
  0
SPLINE
  5
3B3
330
1F
100
AcDbEntity
  8
1
  6
CONTINUOUS
 62
     6
100
AcDbSpline
210
0.0
220
0.0
230
1.0
 70
    24
 71
     3
 72
     8
 73
     4
 74
     0
 42
0.000000001
 43
0.0000000001
 40
0.0
 40
0.0
 40
0.0
 40
0.0
 40
1.0
 40
1.0
 40
1.0
 40
1.0
 10
87.30883511573069
 20
238.8357578995585
 30
0.0
 10
87.30883511573069
 20
238.9678251547819
 30
0.0
 10
87.30883511573069
 20
239.096123505402
 30
0.0
 10
87.30883511573069
 20
239.1895387285572
 30
0.0
  0
SPLINE
  5
3B4
330
1F
100
AcDbEntity
  8
1
  6
CONTINUOUS
 62
     6
100
AcDbSpline
210
0.0
220
0.0
230
1.0
 70
    24
 71
     3
 72
     8
 73
     4
 74
     0
 42
0.000000001
 43
0.0000000001
 40
0.0
 40
0.0
 40
0.0
 40
0.0
 40
1.0
 40
1.0
 40
1.0
 40
1.0
 10
86.7088351157307
 20
239.1895387285572
 30
0.0
 10
86.7088351157307
 20
239.0961239536966
 30
0.0
 10
86.7088351157307
 20
238.9678243460288
 30
0.0
 10
86.7088351157307
 20
238.8357578995585
 30
0.0
  0
SPLINE
  5
3B5
330
1F
100
AcDbEntity
  8
1
  6
CONTINUOUS
 62
     6
100
AcDbSpline
210
0.0
220
0.0
230
1.0
 70
    24
 71
     3
 72
     8
 73
     4
 74
     0
 42
0.000000001
 43
0.0000000001
 40
0.0
 40
0.0
 40
0.0
 40
0.0
 40
1.0
 40
1.0
 40
1.0
 40
1.0
 10
86.7088351157307
 20
222.460960277007
 30
0.0
 10
86.7088351157307
 20
222.3288930217836
 30
0.0
 10
86.7088351157307
 20
222.2005946711635
 30
0.0
 10
86.7088351157307
 20
222.1071794480083
 30
0.0
  0
SPLINE
  5
3B6
330
1F
100
AcDbEntity
  8
1
  6
CONTINUOUS
 62
     6
100
AcDbSpline
210
0.0
220
0.0
230
1.0
 70
    24
 71
     3
 72
     8
 73
     4
 74
     0
 42
0.000000001
 43
0.0000000001
 40
0.0
 40
0.0
 40
0.0
 40
0.0
 40
1.0
 40
1.0
 40
1.0
 40
1.0
 10
86.7088351157307
 20
237.248581656284
 30
0.0
 10
86.7088351157307
 20
237.5344833945761
 30
0.0
 10
86.7088351157307
 20
237.8203727159094
 30
0.0
 10
86.7088351157307
 20
238.1062534583781
 30
0.0
  0
SPLINE
  5
3B7
330
1F
100
AcDbEntity
  8
1
  6
CONTINUOUS
 62
     6
100
AcDbSpline
210
0.0
220
0.0
230
1.0
 70
    24
 71
     3
 72
     8
 73
     4
 74
     0
 42
0.000000001
 43
0.0000000001
 40
0.0
 40
0.0
 40
0.0
 40
0.0
 40
1.0
 40
1.0
 40
1.0
 40
1.0
 10
87.30883511573069
 20
224.0481365202815
 30
0.0
 10
87.30883511573069
 20
223.7622347819894
 30
0.0
 10
87.30883511573069
 20
223.4763454606561
 30
0.0
 10
87.30883511573069
 20
223.1904647181874
 30
0.0
  0
SPLINE
  5
3B8
330
1F
100
AcDbEntity
  8
1
  6
CONTINUOUS
 62
     6
100
AcDbSpline
210
0.0
220
0.0
230
1.0
 70
    24
 71
     3
 72
     8
 73
     4
 74
     0
 42
0.000000001
 43
0.0000000001
 40
0.0
 40
0.0
 40
0.0
 40
0.0
 40
1.0
 40
1.0
 40
1.0
 40
1.0
 10
87.30883511573069
 20
238.1062534583781
 30
0.0
 10
87.30883511573069
 20
237.8203727172331
 30
0.0
 10
87.30883511573069
 20
237.5344833960717
 30
0.0
 10
87.30883511573069
 20
237.248581656284
 30
0.0
  0
SPLINE
  5
3B9
330
1F
100
AcDbEntity
  8
1
  6
CONTINUOUS
 62
     6
100
AcDbSpline
210
0.0
220
0.0
230
1.0
 70
    24
 71
     3
 72
     8
 73
     4
 74
     0
 42
0.000000001
 43
0.0000000001
 40
0.0
 40
0.0
 40
0.0
 40
0.0
 40
1.0
 40
1.0
 40
1.0
 40
1.0
 10
86.7088351157307
 20
223.1904647181874
 30
0.0
 10
86.7088351157307
 20
223.4763454593324
 30
0.0
 10
86.7088351157307
 20
223.7622347804938
 30
0.0
 10
86.7088351157307
 20
224.0481365202815
 30
0.0
  0
SPLINE
  5
3BA
330
1F
100
AcDbEntity
  8
1
  6
CONTINUOUS
 62
     6
100
AcDbSpline
210
0.0
220
0.0
230
1.0
 70
    24
 71
     3
 72
     8
 73
     4
 74
     0
 42
0.000000001
 43
0.0000000001
 40
0.0
 40
0.0
 40
0.0
 40
0.0
 40
1.0
 40
1.0
 40
1.0
 40
1.0
 10
86.7088351157307
 20
239.1895387285573
 30
0.0
 10
86.7088351157307
 20
239.3408140676588
 30
0.0
 10
86.7088351157307
 20
239.4920869391289
 30
0.0
 10
86.7088351157307
 20
239.6433576983295
 30
0.0
  0
SPLINE
  5
3BB
330
1F
100
AcDbEntity
  8
1
  6
CONTINUOUS
 62
     6
100
AcDbSpline
210
0.0
220
0.0
230
1.0
 70
    24
 71
     3
 72
     8
 73
     4
 74
     0
 42
0.000000001
 43
0.0000000001
 40
0.0
 40
0.0
 40
0.0
 40
0.0
 40
1.0
 40
1.0
 40
1.0
 40
1.0
 10
87.30883511573069
 20
222.1071794480083
 30
0.0
 10
87.30883511573069
 20
221.9559041089067
 30
0.0
 10
87.30883511573069
 20
221.8046312374366
 30
0.0
 10
87.30883511573069
 20
221.653360478236
 30
0.0
  0
SPLINE
  5
3BC
330
1F
100
AcDbEntity
  8
1
  6
CONTINUOUS
 62
     6
100
AcDbSpline
210
0.0
220
0.0
230
1.0
 70
    24
 71
     3
 72
     8
 73
     4
 74
     0
 42
0.000000001
 43
0.0000000001
 40
0.0
 40
0.0
 40
0.0
 40
0.0
 40
1.0
 40
1.0
 40
1.0
 40
1.0
 10
87.30883511573069
 20
239.6433576983295
 30
0.0
 10
87.30883511573069
 20
239.4920869395877
 30
0.0
 10
87.30883511573069
 20
239.3408140681419
 30
0.0
 10
87.30883511573069
 20
239.1895387285572
 30
0.0
  0
SPLINE
  5
3BD
330
1F
100
AcDbEntity
  8
1
  6
CONTINUOUS
 62
     6
100
AcDbSpline
210
0.0
220
0.0
230
1.0
 70
    24
 71
     3
 72
     8
 73
     4
 74
     0
 42
0.000000001
 43
0.0000000001
 40
0.0
 40
0.0
 40
0.0
 40
0.0
 40
1.0
 40
1.0
 40
1.0
 40
1.0
 10
86.7088351157307
 20
221.653360478236
 30
0.0
 10
86.7088351157307
 20
221.8046312369778
 30
0.0
 10
86.7088351157307
 20
221.9559041084236
 30
0.0
 10
86.7088351157307
 20
222.1071794480083
 30
0.0
  0
SPLINE
  5
3BE
330
1F
100
AcDbEntity
  8
1
  6
CONTINUOUS
 62
   150
100
AcDbSpline
210
0.0
220
0.0
230
1.0
 70
    24
 71
     1
 72
     4
 73
     2
 74
     0
 42
0.000000001
 43
0.0000000001
 40
0.0
 40
0.0
 40
1.0
 40
1.0
 10
331.8439257902699
 20
229.9983590882827
 30
0.0
 10
331.8439257902699
 20
227.5983590882827
 30
0.0
  0
SPLINE
  5
3BF
330
1F
100
AcDbEntity
  8
1
  6
CONTINUOUS
 62
    53
100
AcDbSpline
210
0.0
220
0.0
230
1.0
 70
     8
 71
     3
 72
     8
 73
     4
 74
     0
 42
0.000000001
 43
0.0000000001
 40
0.0
 40
0.0
 40
0.0
 40
0.0
 40
1.0
 40
1.0
 40
1.0
 40
1.0
 10
332.0181266901051
 20
251.0216267041114
 30
0.0
 10
332.0347130796212
 20
251.1095812060321
 30
0.0
 10
332.0590619424043
 20
251.195331548877
 30
0.0
 10
332.0911732784544
 20
251.278877732646
 30
0.0
  0
SPLINE
  5
3C0
330
1F
100
AcDbEntity
  8
1
  6
CONTINUOUS
 62
    53
100
AcDbSpline
210
0.0
220
0.0
230
1.0
 70
     8
 71
     3
 72
     8
 73
     4
 74
     0
 42
0.000000001
 43
0.0000000001
 40
0.0
 40
0.0
 40
0.0
 40
0.0
 40
1.0
 40
1.0
 40
1.0
 40
1.0
 10
332.2656989413946
 20
251.2091519709961
 30
0.0
 10
332.2372745742274
 20
251.1380049314209
 30
0.0
 10
332.2164588584361
 20
251.0646974105909
 30
0.0
 10
332.2032517940208
 20
250.9892294085058
 30
0.0
  0
SPLINE
  5
3C1
330
1F
100
AcDbEntity
  8
1
  6
CENTER
 62
     2
100
AcDbSpline
210
0.0
220
0.0
230
1.0
 70
    24
 71
     1
 72
     5
 73
     3
 74
     0
 42
0.000000001
 43
0.0000000001
 40
0.0
 40
0.0
 40
0.1071428571428571
 40
1.0
 40
1.0
 10
288.3533229844882
 20
326.8712520258271
 30
0.0
 10
273.3533229844882
 20
326.8712520258271
 30
0.0
 10
148.3533229844881
 20
326.8712520258271
 30
0.0
  0
SPLINE
  5
3C2
330
1F
100
AcDbEntity
  8
1
  6
CENTER
 62
     2
100
AcDbSpline
210
0.0
220
0.0
230
1.0
 70
    24
 71
     1
 72
     5
 73
     3
 74
     0
 42
0.000000001
 43
0.0000000001
 40
0.0
 40
0.0
 40
0.7682119205298007
 40
1.0
 40
1.0
 10
341.7439257902698
 20
244.148359088282
 30
0.0
 10
353.3439257902699
 20
244.148359088282
 30
0.0
 10
356.8439257902699
 20
244.148359088282
 30
0.0
  0
SPLINE
  5
3C3
330
1F
100
AcDbEntity
  8
1
  6
CENTER
 62
     2
100
AcDbSpline
210
0.0
220
0.0
230
1.0
 70
    24
 71
     1
 72
     5
 73
     3
 74
     0
 42
0.000000001
 43
0.0000000001
 40
0.0
 40
0.0
 40
0.4444444444444444
 40
1.0
 40
1.0
 10
350.0439257902698
 20
235.148359088282
 30
0.0
 10
350.0439257902698
 20
243.148359088282
 30
0.0
 10
350.0439257902698
 20
253.148359088282
 30
0.0
  0
INSERT
  5
3CB
330
1F
100
AcDbEntity
  8
1
  6
CENTER
 62
     2
100
AcDbBlockReference
  2
CENTERLINE1
 10
0.0
 20
0.0
 30
0.0
  0
INSERT
  5
3DD
330
1F
100
AcDbEntity
  8
1
  6
CENTER
 62
     2
100
AcDbBlockReference
  2
CENTERLINE2
 10
0.0
 20
0.0
 30
0.0
  0
MTEXT
  5
3E1
330
1F
100
AcDbEntity
  8
1
  6
CONTINUOUS
 62
     4
100
AcDbMText
 10
24.047347
 20
388.21264
 30
0.0
 40
3.2
 41
0.0
 71
     7
 72
     5
  1
\W00.625;\H8.00;
  7
IDEAS_KANJI
1001
ACAD
1000
MTEXTBEGIN
1070
    73
1070
     2
1070
    44
1040
0.783133
1000
MTEXTEND
1000
ACAD_MTEXT_DEFINED_HEIGHT_BEGIN
1070
    46
1040
0.2
1000
ACAD_MTEXT_DEFINED_HEIGHT_END
  0
TOLERANCE
  5
3E3
330
1F
100
AcDbEntity
  8
1
  6
CONTINUOUS
 62
     4
100
AcDbFcf
  3
STANDARD
 10
23.567347
 20
390.844898
 30
0.0
  1
%%v\W0.627;VB-S900F MkII/VB-S905F MkII/VB-S900F/VB-S905F%%v
1001
ACAD
1000
DSTYLE
1002
{
1070
   340
1005
3E0
1070
   271
1070
     2
1070
   272
1070
     2
1070
   177
1070
     4
1070
   176
1070
     4
1070
   178
1070
     4
1070
    78
1070
     8
1070
    48
1040
-0.005
1070
    41
1041
2.0
1070
    42
1041
0.0
1070
    44
1041
0.0
1070
   140
1041
3.2
1070
   343
1005
3E4
1070
   344
1005
3E4
1002
}
  0
MTEXT
  5
3EA
330
1F
100
AcDbEntity
  8
1
  6
CONTINUOUS
 62
     4
100
AcDbMText
 10
507.409163
 20
106.216505
 30
0.0
 40
3.2
 41
0.0
 71
     7
 72
     5
  1
\W00.727;\H5.60;単位:mm\H3.20; 
  7
IDEAS_KANJI
1001
ACAD
1000
MTEXTBEGIN
1070
    73
1070
     2
1070
    44
1040
0.783133
1000
MTEXTEND
1000
ACAD_MTEXT_DEFINED_HEIGHT_BEGIN
1070
    46
1040
0.2
1000
ACAD_MTEXT_DEFINED_HEIGHT_END
  0
MTEXT
  5
3EB
102
{ACAD_REACTORS
330
41B
102
}
330
1F
100
AcDbEntity
  8
1
  6
CONTINUOUS
 62
     4
100
AcDbMText
 10
191.829323
 20
360.272319
 30
0.0
 40
5.4
 41
0.0
 71
     7
 72
     5
  1
\W00.860;67 
  7
IDEAS_SIMPLEX
1001
ACAD
1000
MTEXTBEGIN
1070
    73
1070
     2
1070
    44
1040
0.722892
1000
MTEXTEND
1000
ACAD_MTEXT_DEFINED_HEIGHT_BEGIN
1070
    46
1040
0.2
1000
ACAD_MTEXT_DEFINED_HEIGHT_END
  0
MTEXT
  5
3ED
102
{ACAD_REACTORS
330
41C
102
}
330
1F
100
AcDbEntity
  8
1
  6
CONTINUOUS
 62
     4
100
AcDbMText
 10
330.320305
 20
279.594555
 30
0.0
 40
5.4
 41
0.0
 71
     7
 72
     5
  1
\W00.965;11.4 
  7
IDEAS_SIMPLEX
1001
ACAD
1000
MTEXTBEGIN
1070
    73
1070
     2
1070
    44
1040
0.722892
1000
MTEXTEND
1000
ACAD_MTEXT_DEFINED_HEIGHT_BEGIN
1070
    46
1040
0.2
1000
ACAD_MTEXT_DEFINED_HEIGHT_END
  0
MTEXT
  5
3EE
102
{ACAD_REACTORS
330
41D
102
}
330
1F
100
AcDbEntity
  8
1
  6
CONTINUOUS
 62
     4
100
AcDbMText
 10
388.729527
 20
271.062602
 30
0.0
 40
5.4
 41
0.0
 71
     7
 72
     5
  1
\W00.979;13.6 
  7
IDEAS_SIMPLEX
 11
1.615544574432587E-15
 21
1.0
 31
0.0
1001
ACAD
1000
MTEXTBEGIN
1070
    73
1070
     2
1070
    44
1040
0.722892
1000
MTEXTEND
1000
ACAD_MTEXT_DEFINED_HEIGHT_BEGIN
1070
    46
1040
0.2
1000
ACAD_MTEXT_DEFINED_HEIGHT_END
  0
DIMENSION
  5
3FA
330
1F
100
AcDbEntity
  8
1
  6
CONTINUOUS
 62
     4
100
AcDbDimension
  2
DIMNDRAFT3D1
 10
103.118554
 20
278.256712
 30
0.0
 11
87.008835
 21
278.256712
 31
0.0
 70
   160
  1
\C4;32
  3
STANDARD
100
AcDbAlignedDimension
 13
70.899116
 23
249.648359
 33
0.0
 14
103.118554
 24
249.648359
 34
0.0
100
AcDbRotatedDimension
1001
ACAD
1000
DSTYLE
1002
{
1070
   287
1070
     3
1070
     7
1000
OPEN
1070
     6
1000
OPEN
1070
   279
1070
     0
1070
   172
1070
     1
1070
   173
1070
     1
1070
   340
1005
3EC
1070
   271
1070
     1
1070
   272
1070
     2
1070
    77
1070
     1
1070
    73
1070
     0
1070
   177
1070
     4
1070
   176
1070
     4
1070
   178
1070
     4
1070
    78
1070
     8
1070
    48
1040
-0.005
1070
    41
1041
2.0
1070
   147
1041
1.35
1070
    42
1041
0.0
1070
    44
1041
1.5
1070
   140
1041
5.4
1002
}
  0
DIMENSION
  5
406
330
1F
100
AcDbEntity
  8
1
  6
CONTINUOUS
 62
     4
100
AcDbDimension
  2
DIMNDRAFT3D2
 10
275.353323
 20
278.094671
 30
0.0
 11
218.353323
 21
278.094671
 31
0.0
 70
   160
  1
\C4;114
  3
STANDARD
100
AcDbAlignedDimension
 13
161.353323
 23
257.178006
 33
0.0
 14
275.353323
 24
257.178006
 34
0.0
100
AcDbRotatedDimension
1001
ACAD
1000
DSTYLE
1002
{
1070
   287
1070
     3
1070
     7
1000
OPEN
1070
     6
1000
OPEN
1070
   279
1070
     0
1070
   172
1070
     1
1070
   173
1070
     1
1070
   340
1005
3EC
1070
   271
1070
     1
1070
   272
1070
     2
1070
    77
1070
     1
1070
    73
1070
     0
1070
   177
1070
     4
1070
   176
1070
     4
1070
   178
1070
     4
1070
    48
1040
-0.005
1070
    41
1041
2.0
1070
   147
1041
1.35
1070
    42
1041
0.0
1070
    44
1041
1.5
1070
   140
1041
5.4
1002
}
  0
DIMENSION
  5
412
330
1F
100
AcDbEntity
  8
1
  6
CONTINUOUS
 62
     4
100
AcDbDimension
  2
DIMNDRAFT3D3
 10
54.924346
 20
203.53864
 30
0.0
 11
54.924346
 21
230.648359
 31
0.0
 70
   160
  1
\C4;54
  3
STANDARD
100
AcDbAlignedDimension
 13
79.008835
 23
257.758078
 33
0.0
 14
79.008835
 24
203.53864
 34
0.0
 50
90.0
100
AcDbRotatedDimension
1001
ACAD
1000
DSTYLE
1002
{
1070
   287
1070
     3
1070
     7
1000
OPEN
1070
     6
1000
OPEN
1070
    74
1070
     0
1070
   279
1070
     0
1070
   172
1070
     1
1070
   173
1070
     1
1070
   340
1005
3EC
1070
   271
1070
     1
1070
   272
1070
     2
1070
    77
1070
     1
1070
    73
1070
     0
1070
   177
1070
     4
1070
   176
1070
     4
1070
   178
1070
     4
1070
    78
1070
     8
1070
    48
1040
-0.005
1070
    41
1041
2.0
1070
   147
1041
1.35
1070
    42
1041
0.0
1070
    44
1041
1.5
1070
   140
1041
5.4
1002
}
  0
ENDSEC
  0
SECTION
  2
OBJECTS
  0
DICTIONARY
  5
C
330
0
100
AcDbDictionary
  3
ACAD_GROUP
350
D
  3
ACAD_LAYOUT
350
1A
  3
ACAD_MATERIAL
350
3B
  3
ACAD_MLEADERSTYLE
350
450
  3
ACAD_MLINESTYLE
350
17
  3
ACAD_PLOTSETTINGS
350
19
  3
ACAD_VISUALSTYLE
350
2A
  3
ACDBHEADERROUNDTRIPXREC
350
42E
  3
ACDBVARIABLEDICTIONARY
350
44E
  0
DICTIONARY
  5
D
102
{ACAD_REACTORS
330
C
102
}
330
C
100
AcDbDictionary
  3
DIMENSION
350
41B
  3
DIMENSION2
350
41C
  3
DIMENSION3
350
41D
  0
DICTIONARY
  5
1A
102
{ACAD_REACTORS
330
C
102
}
330
C
100
AcDbDictionary
  0
DICTIONARY
  5
3B
102
{ACAD_REACTORS
330
C
102
}
330
C
100
AcDbDictionary
  3
BYBLOCK
350
3D
  3
BYLAYER
350
3C
  3
GLOBAL
350
3E
  0
DICTIONARY
  5
450
102
{ACAD_REACTORS
330
C
102
}
330
C
100
AcDbDictionary
  0
DICTIONARY
  5
17
102
{ACAD_REACTORS
330
C
102
}
330
C
100
AcDbDictionary
  3
STANDARD
350
18
  0
DICTIONARY
  5
19
102
{ACAD_REACTORS
330
C
102
}
330
C
100
AcDbDictionary
  0
DICTIONARY
  5
2A
102
{ACAD_REACTORS
330
C
102
}
330
C
100
AcDbDictionary
  3
2DWIREFRAME
350
2F
  3
3D_HIDDEN
350
31
  3
3DWIREFRAME
350
30
  3
BASIC
350
32
  3
BRIGHTEN
350
36
  3
COLORCHANGE
350
3A
  3
CONCEPTUAL
350
34
  3
DIM
350
35
  3
FACEPATTERN
350
39
  3
FLAT
350
2B
  3
FLATWITHEDGES
350
2C
  3
GOURAUD
350
2D
  3
GOURAUDWITHEDGES
350
2E
  3
LINEPATTERN
350
38
  3
REALISTIC
350
33
  3
THICKEN
350
37
  0
DICTIONARY
  5
42E
102
{ACAD_REACTORS
330
C
102
}
330
C
100
AcDbDictionary
  3
CEPSNTYPE
350
437
  3
DIMSTYLEDATA
350
44D
  3
FINGERPRINTGUID
350
438
  3
HYPERLINKBASE
350
431
  3
INSUNITS
350
436
  3
LAYOUTDICT
350
433
  3
LWETCUNION
350
435
  3
PLOTSETDICT
350
434
  3
PSVPSCALE
350
43A
  3
PUCSBASE
350
43D
  3
PUCSORGBACK
350
443
  3
PUCSORGBOTTOM
350
43F
  3
PUCSORGFRONT
350
442
  3
PUCSORGLEFT
350
440
  3
PUCSORGRIGHT
350
441
  3
PUCSORGTOP
350
43E
  3
PUCSORTHOREF
350
43B
  3
PUCSORTHOVIEW
350
43C
  3
STYLESHEET
350
432
  3
TSTACKALIGN
350
42F
  3
TSTACKSIZE
350
430
  3
UCSBASE
350
446
  3
UCSORGBACK
350
44C
  3
UCSORGBOTTOM
350
448
  3
UCSORGFRONT
350
44B
  3
UCSORGLEFT
350
449
  3
UCSORGRIGHT
350
44A
  3
UCSORGTOP
350
447
  3
UCSORTHOREF
350
444
  3
UCSORTHOVIEW
350
445
  3
VERSIONGUID
350
439
  0
DICTIONARY
  5
44E
102
{ACAD_REACTORS
330
C
102
}
330
C
100
AcDbDictionary
  3
DIMASSOC
350
451
  3
HIDETEXT
350
452
  0
GROUP
  5
41B
102
{ACAD_REACTORS
330
D
102
}
330
D
100
AcDbGroup
300

 70
     0
 71
     1
340
1FD
340
1FE
340
1FF
340
3EB
340
200
340
201
340
202
340
203
  0
GROUP
  5
41C
102
{ACAD_REACTORS
330
D
102
}
330
D
100
AcDbGroup
300

 70
     0
 71
     1
340
204
340
205
340
206
340
3ED
340
207
340
208
340
209
340
20A
  0
GROUP
  5
41D
102
{ACAD_REACTORS
330
D
102
}
330
D
100
AcDbGroup
300

 70
     0
 71
     1
340
20B
340
20C
340
20D
340
3EE
340
20E
340
20F
340
210
340
211
  0
MATERIAL
  5
3D
102
{ACAD_REACTORS
330
3B
102
}
102
{ACAD_XDICTIONARY
360
455
102
}
330
3B
100
AcDbMaterial
  1
ByBlock
  0
MATERIAL
  5
3C
102
{ACAD_REACTORS
330
3B
102
}
102
{ACAD_XDICTIONARY
360
453
102
}
330
3B
100
AcDbMaterial
  1
ByLayer
  0
MATERIAL
  5
3E
102
{ACAD_REACTORS
330
3B
102
}
102
{ACAD_XDICTIONARY
360
457
102
}
330
3B
100
AcDbMaterial
  1
Global
  0
MLINESTYLE
  5
18
102
{ACAD_REACTORS
330
17
102
}
330
17
100
AcDbMlineStyle
  2
Standard
 70
     0
  3

 62
   256
 51
90.0
 52
90.0
 71
     2
 49
0.5
 62
   256
  6
BYLAYER
 49
-0.5
 62
   256
  6
BYLAYER
  0
ACAD_PROXY_OBJECT
  5
2F
102
{ACAD_REACTORS
330
2A
102
}
330
2A
100
AcDbProxyObject
 90
      499
 91
      501
 93
      436
310
42CC9915DA5C99599C985B595049028333333333333E3BF0000000000000FB0107901411070040501600405405064090741402480A0340
1001
ACAD
1000
AcDbSavedByObjectVersion
1070
     0
  0
ACAD_PROXY_OBJECT
  5
31
102
{ACAD_REACTORS
330
2A
102
}
330
2A
100
AcDbProxyObject
 90
      499
 91
      501
 93
      500
310
424CD108121A5919195B90640502408333333333333E3BF0000000000000FB01079024090700405020000000000001110200405405064090740C02480A0340
1001
ACAD
1000
AcDbSavedByObjectVersion
1070
     0
  0
ACAD_PROXY_OBJECT
  5
30
102
{ACAD_REACTORS
330
2A
102
}
330
2A
100
AcDbProxyObject
 90
      499
 91
      501
 93
      436
310
42CCD915DA5C99599C985B595059028333333333333E3BF0000000000000FB0107901411070040501600405405064090741402480A0340
1001
ACAD
1000
AcDbSavedByObjectVersion
1070
     0
  0
ACAD_PROXY_OBJECT
  5
32
102
{ACAD_REACTORS
330
2A
102
}
330
2A
100
AcDbProxyObject
 90
      499
 91
      501
 93
      388
310
4150985CDA58D07406404333333333333E3BF0000000000000FB0107A41107004050150841D405064090741402480A0350
1001
ACAD
1000
AcDbSavedByObjectVersion
1070
     0
  0
ACAD_PROXY_OBJECT
  5
36
102
{ACAD_REACTORS
330
2A
102
}
330
2A
100
AcDbProxyObject
 90
      499
 91
      501
 93
      428
310
42109C9A59DA1D195B90C409028333333333333E3BF0000000000000FB010790141107004050150841D405064090741402480A029950
1001
ACAD
1000
AcDbSavedByObjectVersion
1070
     0
  0
ACAD_PROXY_OBJECT
  5
3A
102
{ACAD_REACTORS
330
2A
102
}
330
2A
100
AcDbProxyObject
 90
      499
 91
      501
 93
      452
310
42D0DBDB1BDC90DA185B99D95104090240C333333333333E3BF0000000000000FB0108901411070040501508421405064090741402480A0350
1001
ACAD
1000
AcDbSavedByObjectVersion
1070
     0
  0
ACAD_PROXY_OBJECT
  5
34
102
{ACAD_REACTORS
330
2A
102
}
330
2A
100
AcDbProxyObject
 90
      499
 91
      501
 93
      500
310
4290DBDB98D95C1D1D585B10940D028333333333333E3BF0000000000000FB0107902409070040501000000000000111010841D405064090740C02480A0340
1001
ACAD
1000
AcDbSavedByObjectVersion
1070
     0
  0
ACAD_PROXY_OBJECT
  5
35
102
{ACAD_REACTORS
330
2A
102
}
330
2A
100
AcDbProxyObject
 90
      499
 91
      501
 93
      412
310
40D11A5B50B409028333333333333E3BF0000000000000FB010790141107004050150841D405064090741402480A02677FFFFFD0
1001
ACAD
1000
AcDbSavedByObjectVersion
1070
     0
  0
ACAD_PROXY_OBJECT
  5
39
102
{ACAD_REACTORS
330
2A
102
}
330
2A
100
AcDbProxyObject
 90
      499
 91
      501
 93
      444
310
42D19858D95C185D1D195C9B90F409028333333333333E3BF0000000000000FB010790141107004050150841D405064090741402480A0350
1001
ACAD
1000
AcDbSavedByObjectVersion
1070
     0
  0
ACAD_PROXY_OBJECT
  5
2B
102
{ACAD_REACTORS
330
2A
102
}
330
2A
100
AcDbProxyObject
 90
      499
 91
      501
 93
      388
310
41119B185D240901404333333333333E3BF0000000000000F9010740A41107004050150841D405064090741402480A1B50
1001
ACAD
1000
AcDbSavedByObjectVersion
1070
     0
  0
ACAD_PROXY_OBJECT
  5
2C
102
{ACAD_REACTORS
330
2A
102
}
330
2A
100
AcDbProxyObject
 90
      499
 91
      501
 93
      476
310
43519B185D15DA5D1A115919D95CD0140901404333333333333E3BF0000000000000F9010740901411070040501600405405064090741402480A1B50
1001
ACAD
1000
AcDbSavedByObjectVersion
1070
     0
  0
ACAD_PROXY_OBJECT
  5
2D
102
{ACAD_REACTORS
330
2A
102
}
330
2A
100
AcDbProxyObject
 90
      499
 91
      501
 93
      412
310
41D1DBDD5C985D5910240902404333333333333E3BF0000000000000F9010740A411070040501641D405064090741402480A1B50
1001
ACAD
1000
AcDbSavedByObjectVersion
1070
     0
  0
ACAD_PROXY_OBJECT
  5
2E
102
{ACAD_REACTORS
330
2A
102
}
330
2A
100
AcDbProxyObject
 90
      499
 91
      501
 93
      500
310
4411DBDD5C985D5915DA5D1A115919D95CD0340902404333333333333E3BF0000000000000F9010740901411070040501600405405064090741402480A1B50
1001
ACAD
1000
AcDbSavedByObjectVersion
1070
     0
  0
ACAD_PROXY_OBJECT
  5
38
102
{ACAD_REACTORS
330
2A
102
}
330
2A
100
AcDbProxyObject
 90
      499
 91
      501
 93
      444
310
42D31A5B995C185D1D195C9B90E409028333333333333E3BF0000000000000FB010790141107004050750841D405064090741402483A0350
1001
ACAD
1000
AcDbSavedByObjectVersion
1070
     0
  0
ACAD_PROXY_OBJECT
  5
33
102
{ACAD_REACTORS
330
2A
102
}
330
2A
100
AcDbProxyObject
 90
      499
 91
      501
 93
      420
310
425499585B1A5CDD1A58D08409028333333333333E3BF0000000000000FB01079019070040501508421405064090741402480A1B40
1001
ACAD
1000
AcDbSavedByObjectVersion
1070
     0
  0
ACAD_PROXY_OBJECT
  5
37
102
{ACAD_REACTORS
330
2A
102
}
330
2A
100
AcDbProxyObject
 90
      499
 91
      501
 93
      412
310
41D51A1A58DAD95B90D409028333333333333E3BF0000000000000FB010790141107004050150C41D405064090741402480A0350
1001
ACAD
1000
AcDbSavedByObjectVersion
1070
     0
  0
XRECORD
  5
437
102
{ACAD_REACTORS
330
42E
102
}
330
42E
100
AcDbXrecord
 90
        0
  0
XRECORD
  5
44D
102
{ACAD_REACTORS
330
42E
102
}
330
42E
100
AcDbXrecord
1000
DSTYLE
1002
{
1070
   171
 70
     2
1070
   143
 40
25.4
1070
   274
 70
     2
1070
    41
 40
0.18
1070
   141
 40
0.09
1070
   271
 70
     4
1070
    43
 40
0.38
1070
   278
 70
    46
1070
    44
 40
0.18
1070
    42
 40
0.0625
1070
   147
 40
0.09
1070
    77
 70
     0
1070
   272
 70
     4
1070
    73
 70
     1
1070
   172
 70
     0
1070
    74
 70
     1
1070
   283
 70
     1
1070
   340
340
11
1070
   140
 40
0.18
1070
   284
 70
     0
1070
    78
 70
     0
1002
}
  0
XRECORD
  5
438
102
{ACAD_REACTORS
330
42E
102
}
330
42E
100
AcDbXrecord
  1
{7D88D405-2089-40BC-B70F-093936C35D25}
  0
XRECORD
  5
431
102
{ACAD_REACTORS
330
42E
102
}
330
42E
100
AcDbXrecord
  1

  0
XRECORD
  5
436
102
{ACAD_REACTORS
330
42E
102
}
330
42E
100
AcDbXrecord
 90
        4
  0
XRECORD
  5
433
102
{ACAD_REACTORS
330
42E
102
}
330
42E
100
AcDbXrecord
340
1A
  0
XRECORD
  5
435
102
{ACAD_REACTORS
330
42E
102
}
330
42E
100
AcDbXrecord
 90
    10781
  0
XRECORD
  5
434
102
{ACAD_REACTORS
330
42E
102
}
330
42E
100
AcDbXrecord
340
19
  0
XRECORD
  5
43A
102
{ACAD_REACTORS
330
42E
102
}
330
42E
100
AcDbXrecord
 40
0.0
  0
XRECORD
  5
43D
102
{ACAD_REACTORS
330
42E
102
}
330
42E
100
AcDbXrecord
340
0
  0
XRECORD
  5
443
102
{ACAD_REACTORS
330
42E
102
}
330
42E
100
AcDbXrecord
 10
0.0
 20
0.0
 30
0.0
  0
XRECORD
  5
43F
102
{ACAD_REACTORS
330
42E
102
}
330
42E
100
AcDbXrecord
 10
0.0
 20
0.0
 30
0.0
  0
XRECORD
  5
442
102
{ACAD_REACTORS
330
42E
102
}
330
42E
100
AcDbXrecord
 10
0.0
 20
0.0
 30
0.0
  0
XRECORD
  5
440
102
{ACAD_REACTORS
330
42E
102
}
330
42E
100
AcDbXrecord
 10
0.0
 20
0.0
 30
0.0
  0
XRECORD
  5
441
102
{ACAD_REACTORS
330
42E
102
}
330
42E
100
AcDbXrecord
 10
0.0
 20
0.0
 30
0.0
  0
XRECORD
  5
43E
102
{ACAD_REACTORS
330
42E
102
}
330
42E
100
AcDbXrecord
 10
0.0
 20
0.0
 30
0.0
  0
XRECORD
  5
43B
102
{ACAD_REACTORS
330
42E
102
}
330
42E
100
AcDbXrecord
340
0
  0
XRECORD
  5
43C
102
{ACAD_REACTORS
330
42E
102
}
330
42E
100
AcDbXrecord
 70
     0
  0
XRECORD
  5
432
102
{ACAD_REACTORS
330
42E
102
}
330
42E
100
AcDbXrecord
  1

  0
XRECORD
  5
42F
102
{ACAD_REACTORS
330
42E
102
}
330
42E
100
AcDbXrecord
 90
        1
  0
XRECORD
  5
430
102
{ACAD_REACTORS
330
42E
102
}
330
42E
100
AcDbXrecord
 90
       70
  0
XRECORD
  5
446
102
{ACAD_REACTORS
330
42E
102
}
330
42E
100
AcDbXrecord
340
0
  0
XRECORD
  5
44C
102
{ACAD_REACTORS
330
42E
102
}
330
42E
100
AcDbXrecord
 10
0.0
 20
0.0
 30
0.0
  0
XRECORD
  5
448
102
{ACAD_REACTORS
330
42E
102
}
330
42E
100
AcDbXrecord
 10
0.0
 20
0.0
 30
0.0
  0
XRECORD
  5
44B
102
{ACAD_REACTORS
330
42E
102
}
330
42E
100
AcDbXrecord
 10
0.0
 20
0.0
 30
0.0
  0
XRECORD
  5
449
102
{ACAD_REACTORS
330
42E
102
}
330
42E
100
AcDbXrecord
 10
0.0
 20
0.0
 30
0.0
  0
XRECORD
  5
44A
102
{ACAD_REACTORS
330
42E
102
}
330
42E
100
AcDbXrecord
 10
0.0
 20
0.0
 30
0.0
  0
XRECORD
  5
447
102
{ACAD_REACTORS
330
42E
102
}
330
42E
100
AcDbXrecord
 10
0.0
 20
0.0
 30
0.0
  0
XRECORD
  5
444
102
{ACAD_REACTORS
330
42E
102
}
330
42E
100
AcDbXrecord
340
0
  0
XRECORD
  5
445
102
{ACAD_REACTORS
330
42E
102
}
330
42E
100
AcDbXrecord
 70
     0
  0
XRECORD
  5
439
102
{ACAD_REACTORS
330
42E
102
}
330
42E
100
AcDbXrecord
  1
{FAEB1C32-E019-11D5-929B-00C0DF256EC4}
  0
DICTIONARYVAR
  5
451
102
{ACAD_REACTORS
330
44E
102
}
330
44E
100
DictionaryVariables
280
     0
  1
2
  0
DICTIONARYVAR
  5
452
102
{ACAD_REACTORS
330
44E
102
}
330
44E
100
DictionaryVariables
280
     0
  1
1
  0
DICTIONARY
  5
455
330
3D
100
AcDbDictionary
280
     1
  3
ACAD_XREC_ROUNDTRIP
360
456
  0
DICTIONARY
  5
453
330
3C
100
AcDbDictionary
280
     1
  3
ACAD_XREC_ROUNDTRIP
360
454
  0
DICTIONARY
  5
457
330
3E
100
AcDbDictionary
280
     1
  3
ACAD_XREC_ROUNDTRIP
360
458
  0
XRECORD
  5
456
102
{ACAD_REACTORS
330
455
102
}
330
455
100
AcDbXrecord
102
MATERIAL
148
0.0
149
0.0
149
0.0
 93
        0
 94
      127
282
     0
 72
     1
 77
     1
171
     1
175
     1
179
     1
273
     0
  0
XRECORD
  5
454
102
{ACAD_REACTORS
330
453
102
}
330
453
100
AcDbXrecord
102
MATERIAL
148
0.0
149
0.0
149
0.0
 93
        0
 94
      127
282
     0
 72
     1
 77
     1
171
     1
175
     1
179
     1
273
     0
  0
XRECORD
  5
458
102
{ACAD_REACTORS
330
457
102
}
330
457
100
AcDbXrecord
102
MATERIAL
148
0.0
149
0.0
149
0.0
 93
        0
 94
      127
282
     0
 72
     1
 77
     1
171
     1
175
     1
179
     1
273
     0
  0
ENDSEC
  0
EOF
